HD一条街

 找回密码
 立即注册
搜索
查看: 56|回复: 7

[1080P和1080i] [无台标][且试天下 全40集][1080P网飞版/64.5G][国语 简繁英软字幕][MKV][BT]

[复制链接]
发表于 2022-5-30 18:56:09 | 显示全部楼层 |阅读模式

马上注册,结交更多好友,享用更多功能,让你轻松玩转社区。

您需要 登录 才可以下载或查看,没有帐号?立即注册

x
; Z2 ^% j  q0 R7 z3 f: K
                               
登录/注册后可看大图

: F7 _- v4 G3 o. |& ]
5 W; ]; s+ {/ Q) P◎译  名 且试天下
1 E5 y; r. n7 l) K* s4 ?◎年  代 2022( b7 w! v9 D4 ]) v: G" R
◎产  地 中国大陆
7 u$ C. }* z5 Q, y◎类  别 剧情 / 爱情 / 古装/ `) m+ A+ ?- x
◎语  言 汉语普通话
* [: [4 t3 Q: ?9 j& e/ X; d◎上映日期 2022-04-18(中国大陆)9 |4 |! ]: ~# f: B, G3 w7 ?& ]
◎IMDb链接 https://www.imdb.com/title/tt14950036/0 M0 Q+ N' |: ~5 m) D$ |
◎豆瓣评分 5.8/10 (82147人评价)
; S# Z1 W; ~8 m7 |◎豆瓣链接 https://movie.douban.com/subject/26339609/
) p7 C3 s* }) N" o6 ?◎集  数 405 ]& |* g: `1 f8 G
◎片  长 45分钟: g7 {, O- c) I; U) V
◎导  演 尹涛 Tao Yin (id:1371155)
7 {4 x8 o# T" Q+ U# S+ F, }       于永刚 Yonggang Yu (id:1398227)2 S8 x1 ]& l2 t& R4 ~( j
◎编  剧 张骁 Xiao Zhang (id:1459641)
# x8 @; T# P: d3 y! U" V; G! e       尚梦璐 Menglu Shang (id:1357556); i5 ~4 J8 e, B
       张巍 Wei Zhang (id:1320811)
9 r1 @* |1 y$ H" m0 s& v       倾泠月  (id:1470641): z/ s( w' g$ J& _6 [' E$ L
◎演  员 杨洋 Yang Yang (id:1276051)
  `, A8 d5 i' y4 b       赵露思 Lusi Zhao (id:1385770)
* I& T/ k! D6 F+ X       张丰毅 Fengyi Zhang (id:1050265)
8 W, z& C3 v0 u# T3 w" r9 V$ k       李若彤 Carman Lee (id:1023476)
% x) w9 Y6 _% I       宣璐 Lu Xuan (id:1323763)
5 g7 }4 k. m6 m2 h  ]) x6 d       赖艺 Yi Lai (id:1351258)
% G1 L) E/ |" l2 A9 R2 p       贺开朗 Kailang He (id:1445208)+ |) Y# |8 k0 _8 h# {
       刘芮麟 Wayne Liu (id:1339588)3 ~# h% v# ?& O1 D" i
       张天阳 Tian-Yang Zhang (id:1339958)
  h% @/ q( B5 P       张昊唯 Haowei Zhang (id:1343116)
; u$ ?. G3 q6 Q( v8 d       邢韵嘉  (id:1462486)
: a$ p, k2 V1 R( u( E       李乾锋 Qianfeng Li (id:1375394)
7 A1 d( Q& f% D2 _! t1 Y( |       戴毅 Yi Dai (id:1460156)( R) E) l5 |" J: |! {: B* Y! d
       王德顺 Deshun Wang (id:1316770)
5 v6 h: q4 c% W( W; P       李九霖 Jiulin Li (id:1384936)
0 K* a  W, m7 G3 [       马跃 Yue Ma (id:1313745)7 P2 }2 x0 P2 h  L1 D5 Q& @% i
       岳跃利 Yueli Yue (id:1313611)) A$ l0 @: A2 L) J) e
       杜志国 Zhiguo Du (id:1006938): I3 q9 \, m5 Z# X* P
       黑子 Zi Hei (id:1274723)4 A' n$ |9 S) P) o# T5 [- }
       王伯昭 Bozhao Wang (id:1274590)
3 V! o6 r. W$ \: A( Q9 D) p       易大千 Daqian Yi (id:1386192)" J. `9 t) k4 G, w" ~2 B
       霍青 Qing Huo (id:1316349)/ G2 W$ I" l- W! I- F! Z/ G- Y
       郑晓宁 Xiaoning Zheng (id:1275706): ^$ v4 g! f5 a
       陈牧扬 Muyang Chen (id:1323990)
; s7 L+ k, U. j, j$ v       蒋恺 Kai Jiang (id:1275880)
% Y8 [6 U! |+ x' m       宗峰岩 Fengyan Zong (id:1318549)
) @& H7 p2 g+ k! X- H* t" u6 M       芦展翔 Zhanxiang Lu (id:1399147)2 H& U& U! {1 i- v
       江柏萱 Baixuan Jiang (id:1318574)- p4 }. p+ \6 F1 G6 @
       卢勇 Yong Lu (id:1355552)
$ z) k& ]3 x; e: }       马伯全 Boquan Ma (id:1396869)( ?2 Z4 V( M% d/ c% v( H& U
       温海波 Haibo Wen (id:1314540)
* d( Z. F" e. m9 ?, g. ?2 y0 a       冯国强 Guoqiang Feng (id:1325166)
0 h& M1 @' J/ q) ~       崔恩慈 Enci Cui (id:1355470)
* x- w2 u0 Z- r% k+ O8 ^       王九胜 Jiusheng Wang (id:1322995)
( k' q2 R/ S1 R' r& d- H       王岗 Gang Wang (id:1335851)
. ?6 j6 a) K5 ]  }! ~! }) f' N       张弓 Gong Zhang (id:1324373)
8 z# @! j& C$ j# w) o. I       姜峰 Feng Jiang (id:1318194)
7 E" Z5 N) G: F0 W7 B       杨潇然 Xiaoran Yang (id:1421979)
" V3 V' j5 ~; h- Z3 s       赵岩松 Yansong Zhao (id:1326913)
/ ~# K1 N: d; h' p4 L. q$ o: Q       林雪飘 Xuepiao Lin (id:1433585)
  J: K+ L& c% c  L       牛志强 Zhiqiang Niu (id:1357491)
8 G* Y* l6 ~6 z2 E  L% r7 }! z5 I       何涌生 Yongsheng He (id:1370932)
% Y% O3 q0 i# p' d       王弘毅 Hongyi Wang (id:1459013)) ?1 b3 V+ c# r+ v& L/ t  b
       节冰 Bing Jie (id:1365737)
) ?, d% M3 c6 C. I/ b       徐凌晨 Lingchen Xu (id:1426329)
1 k( y0 Y% Q* M. p( Q+ s! z$ [       张志伟 Zhiwei Zhang (id:1363552)3 t1 h$ {* I" D' U$ K% w
       刘旭 Xu Liu (id:1324157)0 ]& A* y: b7 z- V8 S
       王铂清 Boqing Wang (id:1353774)6 w1 E( s3 Y% ?) j1 l4 G
       陈秋果 Qiuguo Chen (id:1428654)
9 s' b+ X, v. G6 V6 B       孔奇力 Qili Kong (id:1416362)
( q- A& K$ s' |9 h0 c- b) l1 D       王轩 Xuan Wang (id:1458144)
5 h) P& q5 G7 \* Z1 l2 w/ R       牟凯凯 Kaikai Mu (id:1401337)
4 A+ x3 N% [2 Z& w       陈昱同 Yutong Chen (id:1411450), y4 W; e' a8 c. H# z; m
       樊驿宁 Yining Fan (id:1441355). z0 u4 Y. b7 j" U) f  y$ X% z/ Z1 v
       艾米 Aimee (id:1396876)
* I6 ?. I6 C; f, g+ j       赵昕  (id:1472455)
( G) \7 ?) ~* \5 }% w) F       杨晓培 Xiaopei Yang (id:1385573)
- d6 I- N. d% J# l$ Z$ {       方芳 Fang Fang (id:1416679)
' n3 @9 f  L8 M* f% l  D3 y% t' H       董冬冬 Dongdong Dong (id:1348747)
( O. [# v. ^6 l3 v9 G) D9 ?       石占利 Zhanli Shi (id:1470642)* x. N. P2 K3 y2 s6 ^" ~8 t

( Z* R" z7 l) X6 l4 ]◎简  介* \# K4 y/ Q* h3 ^) M4 V! }& g
  剧集讲述俊雅绝伦的丰兰息(杨洋 饰)和风华绝世的白风夕(赵露思 饰),携手闯荡天涯的爱情传奇。辗转十年,他们的爱情在鲜血中绽放,一场大战之后,黑丰息终于意识到了自己的真心,散尽自己修为救活了白风夕。
) Q* {7 k5 B3 [* i$ ~+ |% s. A% n$ K+ M3 v& i- U
  1. Video9 v0 n8 |; x* w0 H
  2. ID : 1& R/ t" _- a# w+ y- s/ ?+ F* g# Z
  3. Format : AVC
    % n. q0 K8 W+ P) E/ O
  4. Format/Info : Advanced Video Codec# m- i* t  T7 A, f3 B0 i1 E
  5. Format profile : Main@L4
    & i. \! S! w' B+ J( u
  6. Format settings : CABAC / 3 Ref Frames
    - g% L6 M$ B' {2 Y; n
  7. Format settings, CABAC : Yes, l4 a% n- I. r( E- g1 u
  8. Format settings, Reference frames : 3 frames
    : }: U2 v5 E- y; I
  9. Codec ID : V_MPEG4/ISO/AVC
    " _! E2 F2 r5 E5 G+ ^7 }
  10. Duration : 46 min 12 s% x" E$ i: `# h3 d& S" k3 J2 G4 @2 c
  11. Bit rate mode : Variable
    1 V8 \+ c0 {; v1 E' L! C
  12. Bit rate : 5 800 kb/s
    & i: ]. q: {) }* e& }
  13. Maximum bit rate : 8 700 kb/s
    & w. A' z; @+ `( O
  14. Width : 1 920 pixels
    ! o; E6 D' r/ v( N9 A7 X. P* y
  15. Height : 1 080 pixels
    8 r3 y( W% m  E/ m- k$ H8 U3 `) a
  16. Display aspect ratio : 16:9
    0 y. J" Z2 K6 H+ w% M3 ^
  17. Frame rate mode : Constant% ?8 l/ M$ T5 v! r# v! M" ^
  18. Frame rate : 25.000 FPS" `% B* N- |9 b" X4 ]
  19. Color space : YUV- Q! }# K, N! ?
  20. Chroma subsampling : 4:2:0) i+ x8 s; D0 [9 u
  21. Bit depth : 8 bits5 D" `3 @6 H# C0 M& h
  22. Scan type : Progressive% \8 Z4 b* B; o$ f
  23. Bits/(Pixel*Frame) : 0.112# w4 C2 |. b6 Y
  24. Stream size : 1.87 GiB (98%)" _: t$ |' Z) C* G9 ^! T4 n# k: R' R; ?
  25. Writing library : x264 core 148 r2727 7d026e8
    : m  f2 i3 C5 a2 k# F5 ?( B
  26. Encoding settings : cabac=1 / ref=3 / deblock=1:0:0 / analyse=0x1:0x111 / me=umh / subme=10 / psy=1 / psy_rd=1.00:0.00 / mixed_ref=1 / me_range=24 / chroma_me=1 / trellis=2 / 8x8dct=0 / cqm=0 / deadzone=21,11 / fast_pskip=1 / chroma_qp_offset=-2 / threads=8 / lookahead_threads=1 / sliced_threads=0 / nr=0 / decimate=1 / interlaced=0 / bluray_compat=0 / stitchable=1 / constrained_intra=0 / bframes=2 / b_pyramid=0 / b_adapt=2 / b_bias=0 / direct=3 / weightb=1 / open_gop=0 / weightp=2 / keyint=250 / keyint_min=25 / scenecut=0 / intra_refresh=0 / rc_lookahead=50 / rc=2pass / mbtree=1 / bitrate=5800 / ratetol=1.0 / qcomp=0.50 / qpmin=6 / qpmax=51 / qpstep=4 / cplxblur=20.0 / qblur=0.5 / vbv_maxrate=8700 / vbv_bufsize=11600 / nal_hrd=vbr / filler=0 / ip_ratio=1.40 / aq=1:1.00( z/ N$ y; d: ?7 |
  27. Default : Yes5 z% s1 k: h2 w% F# m0 F4 A
  28. Forced : No
    3 g% ^: W! _) _8 b6 x/ e+ R

  29. 1 J  w9 x( B3 X
  30. Audio
    ' t+ c7 M5 g9 G! N5 g  d
  31. ID : 29 t: {. \" U- \% k
  32. Format : E-AC-35 g& @) ?' G! Z# w) {: K/ D
  33. Format/Info : Enhanced AC-3* |: R& o. M: t' y' w
  34. Commercial name : Dolby Digital Plus
    - v5 r9 ^7 R6 T: f: S' ^
  35. Codec ID : A_EAC3; p9 i) O% X/ z/ ]7 p
  36. Duration : 46 min 12 s
      X7 u+ t; E( R3 I* [4 @5 ~
  37. Bit rate mode : Constant
    * R* p% t2 H* Z, N. L- {' s" f
  38. Bit rate : 128 kb/s
    % Z2 k, F% _! J+ Y  \, V
  39. Channel(s) : 2 channels
    5 H- A4 G6 g) P1 v* d8 t
  40. Channel layout : L R- w3 R1 H; y. \2 C- g8 n
  41. Sampling rate : 48.0 kHz
    ! T/ c5 k5 _( i+ B9 }
  42. Frame rate : 31.250 FPS (1536 SPF)7 `# z$ n2 O$ a8 G5 z5 t
  43. Bit depth : 32 bits
      R0 f$ v! N; Z
  44. Compression mode : Lossy. M0 P/ s( H, U2 P5 R& a  R
  45. Stream size : 42.3 MiB (2%)
    - V: ]# C: w, q6 I" [1 {6 |  l, O/ h
  46. Language : Chinese
    ! r  X+ H! f+ x6 L% L
  47. Service kind : Complete Main
    , z2 I3 y6 J$ R
  48. Default : Yes$ u/ f" ~# d, `6 E1 H
  49. Forced : No, d- E1 W7 H: v
  50. , g6 Z  F" y1 \4 K+ l" ]- L
  51. Text #15 [' O+ o) W& t" M2 [9 z' W
  52. ID : 3
    % U, i) R$ u- Q( O# h, D% s' p& C  v: @
  53. Format : UTF-8
    # g3 S! t0 p1 L& f7 Q7 `: b
  54. Codec ID : S_TEXT/UTF8. p, j" f# k+ o8 a( v. F
  55. Codec ID/Info : UTF-8 Plain Text
    % n$ ?! E3 V' \8 G
  56. Duration : 42 min 16 s
    ; l6 E3 y( |% O/ H- m8 G
  57. Bit rate : 43 b/s
    , Y4 r+ G% |) |. t/ {5 |
  58. Count of elements : 532
    9 \8 V$ e# [3 Y6 e: |5 q
  59. Stream size : 13.6 KiB (0%)7 n! k0 R; c0 @+ V
  60. Language : English" M3 w7 z5 B; w; L' t" f2 Q
  61. Default : Yes* [1 r" [5 h0 E" M4 e" S
  62. Forced : No9 r, m6 V, N2 S+ e4 s4 r$ P
  63. . A: Z, r8 N5 r7 j" Q. {' A. \  U
  64. Text #2' B- w$ L( w, l. l  F* s5 `
  65. ID : 4$ b3 @0 \' y0 W6 C- [" Y; X! i
  66. Format : UTF-8
    5 P( z  o! T: {) [+ ^6 C. b/ K
  67. Codec ID : S_TEXT/UTF8& A1 b0 r: [/ z- e* i( R9 ~
  68. Codec ID/Info : UTF-8 Plain Text
    % ]' ^2 B$ x+ z: ^7 U! d# O
  69. Duration : 40 min 18 s# u) V! l+ x1 r& d. r
  70. Bit rate : 35 b/s& [6 {6 O; Y+ }. S
  71. Count of elements : 4533 E) Z, V3 {% Z! n1 i
  72. Stream size : 10.5 KiB (0%)
    : A& V! X4 t& Z; |" d. [# t2 F
  73. Title : Simplified
    ! z; P* p  f4 V' e7 Q1 F
  74. Language : Chinese
    8 I9 H3 G: j& W3 f, ~, i5 e( u
  75. Default : No, u* J3 z2 U# Y, c' d0 J
  76. Forced : No6 N* Z+ v6 E4 c. o2 q4 G
  77. 9 ?: Z7 m' `% G6 j! N0 |0 t' C
  78. Text #3
    6 O8 y& Z8 W+ e! X! s0 D
  79. ID : 5
    / G/ x- N) B; [& |: ?! j
  80. Format : UTF-8% _* C2 ^. d# W1 N$ M4 h
  81. Codec ID : S_TEXT/UTF82 e4 |& z1 x0 U, B  d$ `# L4 I
  82. Codec ID/Info : UTF-8 Plain Text
    $ ~9 s7 ~' H* o( m: O
  83. Duration : 42 min 16 s4 w* c3 B0 \- h% H% X
  84. Bit rate : 33 b/s
    " n: g( c, T( \/ c% W# E
  85. Count of elements : 526
    ) Z, k* m- w1 t* ?" G. S2 ~- Z
  86. Stream size : 10.4 KiB (0%)
    ) \* U- K6 k& J5 G: m
  87. Title : Traditional2 O3 n+ \. K3 {
  88. Language : Chinese2 y; ^7 `% J/ e* w  W0 Q# @
  89. Default : No2 q, G( r- x+ {- A( T
  90. Forced : No
复制代码

0 Q- S% m8 |# i1 e. C
) N3 R: d& d% h! J. e, W4 `' I, O4 \& V+ S
8 `3 h* I; {- a  t) ]6 g" w

3 {' O( b4 h# o8 Y+ u6 t2 K0 P5 G/ \9 M) G, J- S1 ]$ K
游客,如果您要查看本帖隐藏内容请回复  VIP可免回复查看隐藏内容 详情请点击
发表于 2022-6-10 23:27:33 | 显示全部楼层
游客无权限浏览该内容
发表于 2022-6-13 15:15:39 | 显示全部楼层
游客无权限浏览该内容
头像被屏蔽
发表于 2022-6-13 17:49:48 | 显示全部楼层
提示: 作者被禁止或删除 内容自动屏蔽
发表于 2022-6-22 00:09:53 | 显示全部楼层
游客无权限浏览该内容
发表于 2022-6-29 08:36:25 | 显示全部楼层
游客无权限浏览该内容
发表于 4 天前 | 显示全部楼层
游客无权限浏览该内容
您需要登录后才可以回帖 登录 | 立即注册

本版积分规则

封号公示|电子邮件联系本站hd1tj.net#[换成@]outlook.com|免责申明|HD一条街

GMT+8, 2022-8-17 22:03

Powered by Discuz! X3.4

Copyright © 2001-2021, Tencent Cloud.

快速回复 返回顶部 返回列表