HD一条街

 找回密码
 立即注册
搜索
查看: 88|回复: 6

[1080p] [1982][三家巷][1080P修复版/2G][国语 无字幕][MP4][孙启新/叶雅谊/芮旭华][百度]

[复制链接]
发表于 2022-5-6 00:48:32 | 显示全部楼层 |阅读模式

马上注册,结交更多好友,享用更多功能,让你轻松玩转社区。

您需要 登录 才可以下载或查看,没有帐号?立即注册

x

! h# k3 ~! H$ w9 u$ I5 P: ?                               
登录/注册后可看大图

+ V6 o9 A  s0 w4 y' {7 H◎译  名 The Three Families Alley
9 K5 l* h, v! T9 `: L◎片  名 三家巷
0 M! Y0 ^  t9 B* \◎年  代 19828 B- g$ `2 ~4 U: ^
◎产  地 中国大陆: R& j- ]+ \7 ~( K  v
◎类  别 剧情
( q, Z4 W# P2 I$ U9 t" f0 a◎语  言 汉语普通话
7 t& I2 k, P6 f6 Q. }+ W◎豆瓣评星 ★★★✦☆$ n( ~4 Z' K* n. U! B+ [7 n
◎豆瓣评分 6.6/10 from 119 users
( u6 r  D7 O$ t* H6 F* x. T- p◎豆瓣链接 https://movie.douban.com/subject/1782718/
6 _6 L- W. l% C# |◎片  长 150分钟
2 q3 U/ ~  ?8 J' E" B0 |; K7 j9 i5 p◎导  演 王为一 / Weiyi Wang
: z3 d$ r# B8 I: H% A5 O, ], X) H7 [◎演  员 孙启新 / Qixin Sun
2 P, Y+ T8 M4 @: k# K8 f) B      叶雅谊 / Yayi Ye | 饰 陈文婷
- W$ @3 B' |0 t  |      许瑞萍 / Ruiping Xu
  Q9 k$ N  ?0 f1 u5 \      薛白 / Bai Xue
. c& X4 c, R' T  ^0 b! b      林运洪 / Yunhong Lin# c9 p5 Q* `# A/ l* i& T
      蔡鉴洲 / Jianzhou Cai
" R1 l8 L7 S; F  |      崔超明 / Chaoming Cui
& c4 ]8 ]. u1 e+ G' j◎编  剧 曾炜 / Wei Zeng
. _2 |- B/ |3 Y9 o' @4 n      王为一 / Weiyi Wang* y+ _, G& V' Z- @- p% @# r' i* x
◎美  术 罗治中 / Zhizhong Luo$ A* P. i! N  S- p6 F6 E
      田世凯 / Shikai Tian
( L8 ], z9 X- ~  H◎副  导  演 翁燕美 / Yanmei Weng8 e4 m( g2 T. d, d
+ ^" v/ [7 I6 a4 {  v, R- k
◎简  介 
" s: J  b: O5 F6 F8 v. f9 Q% [$ Q! I2 b* d5 F2 m4 Z
  20年代初,广州三家巷住着互有姻亲关系的三户人家:买办资产阶级的陈 家、官僚地主的何家和手工业工人的周家。三家的青年们都怀有救国救民的抱负,立志为祖国富强献身。省港大罢工开始后,周家幼子周炳的表妹 、鞋匠之女区桃在沙基惨案中不幸中弹牺牲。与区桃相爱的周炳痛不欲生 ,大病一场。后在大哥周金和表姐区苏的劝导下,他重新振作起来,并与陈家四小姐文婷一起参加了支持省港罢工的文艺演出。不久,廖仲恺遇刺的消息传来,陈家大少爷文雄丧失革命信心,哄骗周家三姑娘周泉与他结了婚,后又退出罢工委员会,到德昌洋行当了经理。周炳二哥周榕与陈家二小姐文娣私奔上海作新婚旅行,归来后,陈文娣的革命意志也开始动摇 。在一次聚会上,三家巷青年发生激烈争辩,终致彻底决裂,成为势不两立的仇人。周榕与文娣从此分手。只有周炳认为文婷是陈家的例外,并接受了她的爱情。四一二大屠杀开始后 ,周家三兄弟到乡下避难。其间,文娣嫁给了何家少爷守仁。后何守仁在周炳给文婷的信封邮戳上发现了周家兄弟的藏身之地,遂予告发。周榕、周炳逃脱敌人追捕,周金却不幸牺牲。南昌起义后,革命形势有所好转。周炳满怀革命热情约文婷相见。不料,此时的文婷只热衷于建立舒适的小家庭。不久,她嫁给了财政厅官员宋以廉。残酷的现实使周炳幡然猛醒。他怀着对区桃的怀念和对革命的信念,投入了广州起义的革命洪流。
' \9 c  g! J6 w0 [* P8 ~1 u2 \1 A/ \! |8 {6 o* W% w
Quote:
General
7 b4 G# B0 @3 c* Q# B- eComplete name                  : The Three Families Alley 1982 WEB-DL 1080p H264 AAC-Dave.mp4, j* t0 a- ~6 |, D- m
Format                         : MPEG-48 R, ]! m& b5 R$ `2 C$ |5 g2 c2 T
Format profile                 : Base Media2 Y, w5 Q; _2 w# \* i% b; H
Codec ID                       : isom (isom/iso2/avc1/mp41)
/ E  \5 V# p( R* X, vFile size                      : 1.99 GiB
5 ^8 h" L2 U* y4 U. x  B6 \+ tDuration                       : 2 h 30 min
+ I7 B' \* O, a& g. t4 h+ K% zOverall bit rate mode          : Variable2 L4 G% |& L; n+ x1 A
Overall bit rate               : 1 892 kb/s
, L! ^& f1 b( l& T. D/ e8 nWriting application            : Lavf59.16.100& o8 d- Y, I1 B( {4 R/ b" ?* T
& z  V; w& i9 y8 m
Video
! A. [3 z; g% s% TID                             : 1
5 ~; N* |% g) z# ~6 l* nFormat                         : AVC
7 a5 J0 P; R! O. o$ c+ hFormat/Info                    : Advanced Video Codec
- N8 g; @. ]( k# k8 u# tFormat profile                 : High@L4
$ |3 w9 k$ Y8 h8 b7 _Format settings                : CABAC / 4 Ref Frames$ g* U9 `5 T' q- R9 K9 {
Format settings, CABAC         : Yes
5 F- b3 A5 k' ^0 F& [Format settings, Reference fra : 4 frames. H6 N( i# _+ R  p) H9 P
Codec ID                       : avc16 b9 x! q  D% h8 V, ^5 u3 g) h- l
Codec ID/Info                  : Advanced Video Coding& E8 z: [) j8 g  A% t/ e  J
Duration                       : 2 h 30 min2 u& q- W9 w3 |: ^4 I- Z  M, X
Source duration                : 2 h 30 min
* o. i# A! L& ^1 F$ m: [, y% _Bit rate                       : 1 715 kb/s4 B+ z* k6 N, s& A
Maximum bit rate               : 1 793 kb/s  l; l7 e- t( \$ l% x+ V' `4 L
Width                          : 1 456 pixels# J6 N$ {0 r7 t/ W0 Q
Height                         : 1 080 pixels! P7 R  K# t2 C$ D
Display aspect ratio           : 4:3% D8 n9 p, L+ y: K2 T( Q
Frame rate mode                : Constant# L9 K1 k+ D+ Z. N' y
Frame rate                     : 24.000 FPS" m- q* f2 e! T0 j3 T5 F
Color space                    : YUV
% h/ b% n1 `( l0 R. q) t5 WChroma subsampling             : 4:2:0
8 J* V# i5 b4 A! v! dBit depth                      : 8 bits+ w  C8 Q- b- N* q6 |0 w6 n" F
Scan type                      : Progressive0 K, O" n1 N# ?; U; l! n
Bits/(Pixel*Frame)             : 0.045" Y' ^( B- k- m! q" B5 k8 u( e
Stream size                    : 1.81 GiB (91%)6 t( v2 A6 `8 L, @9 Y, S0 W' D  |
Source stream size             : 1.89 GiB (95%)3 R! w- P, u: H- e( j
Writing library                : ptw-1.0.140 rcm-adapt vs-935 j( b+ I* ]/ \7 a, d
Color range                    : Limited
2 J3 D: s5 W5 \- Q$ e& k' {' @: zColor primaries                : BT.709
1 @/ a# o9 T0 w/ N; p( F; zTransfer characteristics       : BT.709
; x* K  j+ D5 m- l. p6 p* X! yMatrix coefficients            : BT.709
' x) q/ W# j, a- rCodec configuration box        : avcC
8 x. u/ L1 k: J4 J3 `" u3 k' c2 W
, F" i) F; s( ]Audio8 ~) P- C  U9 v# X8 m
ID                             : 23 @1 z( |" W; H. Q, s
Format                         : AAC LC
% ?. m, O: ?- K3 P6 W1 w; SFormat/Info                    : Advanced Audio Codec Low Complexity2 y" t3 s- ~2 O! t1 F" t
Codec ID                       : mp4a-40-2! M1 p# \1 m+ z7 x, ^3 S5 I
Duration                       : 2 h 30 min" R& c. m6 j6 n& Z  b2 V
Bit rate mode                  : Variable& F- P0 g& ]1 @1 B$ n2 ]
Bit rate                       : 93.4 kb/s) Q, G5 s& Y' d1 I* S! I5 d* E
Maximum bit rate               : 96.7 kb/s / 96.7 kb/s; X1 c/ {# n: Z4 k( i. L
Channel(s)                     : 2 channels2 R8 S. l; O( e+ K/ g( v. i: s- t
Channel layout                 : L R; S: a: f( Y/ |/ J8 F% P5 R
Sampling rate                  : 48.0 kHz
/ x2 x; ]$ m' j# `; M! |1 @. r8 aFrame rate                     : 46.875 FPS (1024 SPF)
0 E, m8 e7 S3 v( \) pCompression mode               : Lossy
: n- [1 Z6 E# y; s0 ?Stream size                    : 101 MiB (5%)
1 S) ?3 N, u+ S8 p, aDefault                        : Yes
1 W/ A' W, G1 i" ]) q9 q' M/ MAlternate group                : 1
' L' K2 a$ E- S$ I  _( P) O0 d

" D7 ?, f, z+ ]* {0 M

  D* P" A! W' C9 {                               
登录/注册后可看大图

, y% n" {& E; S; h9 y( ?. G5 l3 s

& v9 p6 ]) B2 w  l( ^0 f" |1 u                               
登录/注册后可看大图

! J5 G- M" k" A0 [

7 ]( p1 X& [3 u$ p2 w% F, m                               
登录/注册后可看大图
/ m' g1 k5 \" u# m
) D0 X/ d. D0 U1 F7 S  `9 B7 g' s
! [; o1 W1 r+ K5 N- X
郑重声明:' x; O! X; n) w1 B) l6 J8 N
本站提供的所有影视综艺作品均是在网上搜集,任何涉及商业盈利目的均不得使用,否则产生的一切后果将由您自己承担!本站将不对本站的任何内容负任何法律责任!该下载内容仅做宽带测试使用,请在下载后24小时内删除。请购买正版!

& T  }* U4 l  ~8 S( P; m5 Q2 |  @2 B) k% }) J
! h6 b- Z  W0 {, L* p, J
百度网盘. X7 N" M# ?1 Z7 N9 ?) \$ v
" c# [1 ~' G" l' ]4 L; g: d5 j1 c

+ Y9 x8 C. X6 F2 p; \. D, P7 W* \& l& G
游客,如果您要查看本帖隐藏内容请回复  VIP可免回复查看隐藏内容 详情请点击
发表于 2022-5-6 01:17:57 | 显示全部楼层
游客无权限浏览该内容
发表于 2022-5-6 09:19:57 | 显示全部楼层
游客无权限浏览该内容
发表于 2022-5-6 10:47:02 | 显示全部楼层
游客无权限浏览该内容
发表于 2022-5-9 10:14:42 | 显示全部楼层
游客无权限浏览该内容
发表于 2022-6-4 00:16:02 | 显示全部楼层
游客无权限浏览该内容
发表于 2022-6-17 22:44:14 | 显示全部楼层
游客无权限浏览该内容
您需要登录后才可以回帖 登录 | 立即注册

本版积分规则

封号公示|电子邮件联系本站hd1tj.net#[换成@]outlook.com|免责申明|HD一条街

GMT+8, 2022-10-8 06:54

Powered by Discuz! X3.4

Copyright © 2001-2021, Tencent Cloud.

快速回复 返回顶部 返回列表