HD一条街

 找回密码
 立即注册
搜索
查看: 107|回复: 7

[1080p] [1989][眼镜里的海][1080P修复版/1.4G][国语 无字幕][MP4][张莉/吕扬/夏沫][百度]

[复制链接]
发表于 2022-5-6 00:45:37 | 显示全部楼层 |阅读模式

马上注册,结交更多好友,享用更多功能,让你轻松玩转社区。

您需要 登录 才可以下载或查看,没有帐号?立即注册

x
1 K0 @: x' \* k6 l" ]# V  s) V
                               
登录/注册后可看大图
8 Y8 W* F# m) x, I; N& C
◎译  名 The Sea in the Spectacles
' I, I! u; G0 N$ U, G◎片  名 眼镜里的海: ^: s6 c; Y2 R# l! |
◎年  代 1989
' r& W0 H4 A0 v8 J# N◎产  地 中国大陆
! I, H) b! k- C& ~9 a. ?% m7 A◎类  别 剧情3 }7 z: e* j& z5 I5 q; r
◎语  言 汉语普通话* y  ]8 u' r' K
◎上映日期 1989
' K& }$ C. q4 D- C/ a! `- [2 m1 V◎豆瓣链接 https://movie.douban.com/subject/5941696/
- I' ]( t# Z  u% R0 A8 y) U9 {  _◎片  长 90分钟
2 Q# O" f( M* k3 N: J8 E& {5 N◎导  演 二林 / Er Lin( T) m$ q, G! G& `$ K6 }2 g3 m
◎演  员 张莉 / Li Zhang | 饰 李欣欣- x+ Z, _2 q! Z4 ^6 I3 M
◎编  剧 李春利 / Chunli Li
, d, ^7 V/ M& {6 F◎剪  辑 杨幸媛 / Xingyuan Yang7 i7 X. l  m2 ?4 s0 Q
; |$ |+ C( {0 Q- H
◎简  介 " g. Q  W& J; g2 F3 k4 r
  X) K4 J/ P" ^& L& S2 X/ D5 X
  初三•一班的教室里,即将毕业的学生们认真地聆听着老师的谆谆教诲,稚嫩的肩上承担着老师的希望、父母的期许。文静、内向的欣欣神往地望着老师讲台上的眼镜,淡蓝色的镜框映在镜片上,在阳光的照耀下就像盈盈的海水。欣欣正处在美丽的多梦时节,蔚蓝的人海、金黄的沙滩、绿色的小岛和慈祥的奶奶…~童年生活中的一切在她记忆中像一首甜美的童话诗,常使她沉浸在无边的遐想里。欣欣追寻着梦幻,因为现实使她无力负担,她渴望长大却又害怕长大;她喜爱绘画却得不到父母的理解。他们虽然在生活上对她无微不至,却忽略了她已逐渐成长,有独立的思想、感情和爱好,一味要求她必须考上重点中学。中考前夕,欣欣失去了奶奶,脆弱的感情一时难以平复,再加上学习的压力,她的考试成绩没有达到父母预定的目标。面对责难,欣欣不知何去何从。夜晚的海滩,海浪凶猛地拍打着岩石,欣欣惊恐地看到了大海粗犷的一面。聪明的王乐喜欢独立思考,对各种问题有自己独到的见解,和许多同龄的孩子一样,他也有偏激的一面:厌恶呆板的教育体制,以不恰当的方式进行反抗,不理解老师苦口婆心的劝导,常遭老师训斥。在老师看来,他是个捉摸不透的孩子,很难用“好孩子、坏孩子”来评价他。在妈妈的溺爱中长大,知道妈妈把一切寄托在他身上,而事业有成的父亲却发出了召唤,希望他去美国发展。舒飞感到矛盾,他既想到国外去过舒适的生活,又舍不得离开妈妈。班里还有活泼天真的晓云、开朗风趣的叶明、严肃古板的班长、可笑可爱的胖姐……小小的教室就像一个小小的社会,每个人都带着各自的苦恼、幻想和追求生活着。
; m) Z- s" D. k4 Q2 I2 |
& s! }' j6 S  d8 N) c% _! I, a/ T
Quote:
General
/ a( y7 W& p2 ~Complete name                  : The Sea in the Spectacles 1989 WEB-DL 1080p H264 AAC-Dave.mp4
/ g+ F5 d  V) h) Q( RFormat                         : MPEG-4$ Y3 L2 f9 J4 M5 Y( t
Format profile                 : Base Media. B- n  G1 c& N
Codec ID                       : isom (isom/iso2/avc1/mp41). A* b% w8 Y# M7 f: H- o1 h# X
File size                      : 1.48 GiB! ~4 ^6 F& N8 i- K  v
Duration                       : 1 h 30 min: H$ [* l2 Y9 ]; d5 A# _6 \  F
Overall bit rate mode          : Variable" i: r1 I8 b# q  S% r0 N
Overall bit rate               : 2 340 kb/s
' j( [) P  e6 I6 g9 lWriting application            : Lavf59.16.100! z- P/ e9 q. D. r2 `- v

/ k1 S: v" L% M! dVideo
, g+ f. |2 V$ d; _7 H: kID                             : 1
  L6 }6 v* v. \& F/ a% R  a: {1 l, XFormat                         : AVC" M+ d$ z/ m$ B, @
Format/Info                    : Advanced Video Codec( Z: J% J. K% J2 q, k( K
Format profile                 : High@L4
8 K: \5 T( y4 w# A! M  g9 G5 Z7 }1 JFormat settings                : CABAC / 4 Ref Frames; K& _6 D8 ?, x" _- {
Format settings, CABAC         : Yes
" Z2 m1 ^, L7 A7 Y( Y0 v( jFormat settings, Reference fra : 4 frames. z9 }, f8 J3 r' K% U$ \
Codec ID                       : avc1
1 c) F; \6 t* S4 F' J6 RCodec ID/Info                  : Advanced Video Coding
1 ^* d0 a# b4 V8 n1 h$ G2 ~; GDuration                       : 1 h 30 min1 ?2 i+ q6 X! {6 p  D9 L
Source duration                : 1 h 30 min
" m' j5 c9 ~2 D# d  ABit rate                       : 2 145 kb/s
2 D3 g3 |, `- K+ v' R9 [Maximum bit rate               : 2 241 kb/s
! n" V. V1 {: h3 F9 |: DWidth                          : 1 800 pixels
2 w/ P: l# ?. LHeight                         : 1 080 pixels
& a1 x& P$ ~% dDisplay aspect ratio           : 5:3
# }3 m& V8 ?0 M! \Frame rate mode                : Constant
% a& {0 j/ X' eFrame rate                     : 24.000 FPS
' ~0 |' y% R$ L2 e! M5 k& }Color space                    : YUV; ^" v# V* H& n% }, k! R- X
Chroma subsampling             : 4:2:0
/ s7 e- K4 Y) ]& q* w. QBit depth                      : 8 bits4 o4 g* H7 Q! J4 ]6 I) A
Scan type                      : Progressive
* G$ l+ |1 B/ g$ c9 z$ HBits/(Pixel*Frame)             : 0.046& k9 P! Z7 B4 ^( K- O. R. a: Q
Stream size                    : 1.36 GiB (92%)
# u7 U# R0 y$ G- zSource stream size             : 1.42 GiB (96%)
5 _+ p- P: F) ^* E2 l( HWriting library                : ptw-1.0.140 rcm-adapt vs-93
, b/ {0 n8 I) {5 kColor range                    : Limited
) E' _: c  W* [0 Y/ `' A( HColor primaries                : BT.709* _1 g  h" g. G9 N/ A: s4 ]0 E
Transfer characteristics       : BT.709
4 l7 }2 T! C; l- J& UMatrix coefficients            : BT.709
3 Y- d1 ^% M- FCodec configuration box        : avcC
+ g; t9 b- d6 E) E: n+ E+ `, G! F) y# J; ?7 E. [
Audio) W% [) e9 G6 p; t" y, K
ID                             : 2
/ s' V1 l5 y6 E9 x* }Format                         : AAC LC7 u4 j% ]5 w2 i- a  l) k7 t! C
Format/Info                    : Advanced Audio Codec Low Complexity" h! \' ^/ L; ~4 J) _7 |
Codec ID                       : mp4a-40-21 _% [. ^3 M3 F
Duration                       : 1 h 30 min
1 J! n# h- ~2 E% h: G  rBit rate mode                  : Variable
4 L) \* ~) i" L& WBit rate                       : 93.4 kb/s2 i) C' d1 N* ?; D
Maximum bit rate               : 97.0 kb/s / 97.0 kb/s
; W1 K2 F+ k$ x7 jChannel(s)                     : 2 channels" {4 P' f2 a2 Y3 U& q' {% d' c
Channel layout                 : L R
- w8 j5 `* l! e5 x0 \; aSampling rate                  : 48.0 kHz
) {$ K& m0 H- }! A+ M- Q# uFrame rate                     : 46.875 FPS (1024 SPF)% I! t9 v, e' A  Z5 m9 r0 Q  t
Compression mode               : Lossy) Y% }9 m9 v4 ^) e
Stream size                    : 60.4 MiB (4%)  {3 E2 ^' {+ w* j
Default                        : Yes% Q$ P1 w1 M/ w- L, K
Alternate group                : 1
, S9 Q  J/ Y' _9 `  `! Z) N
5 f7 i/ v/ W' B! w* ~4 y
% G8 Q- ?) x/ p8 T2 _( y0 J  g
' \, v& |, ~. x( e* D
                               
登录/注册后可看大图
: k8 X7 ?* j2 Z" I* ^2 r

# k+ Y) h6 p6 _7 M3 P9 i# ?                               
登录/注册后可看大图
) r# ~+ n& ~+ f# ]
" e  ?4 s) R# C! t/ u# [# h' J
                               
登录/注册后可看大图

" A- Y2 p- r! T& C! H% }1 O3 O; C0 U5 {) t1 j

' z8 j- p, s" i' d9 H
郑重声明:
' x7 ~" |0 k/ n8 h. H; S本站提供的所有影视综艺作品均是在网上搜集,任何涉及商业盈利目的均不得使用,否则产生的一切后果将由您自己承担!本站将不对本站的任何内容负任何法律责任!该下载内容仅做宽带测试使用,请在下载后24小时内删除。请购买正版!

- a+ |% l6 v+ L5 B" l: P/ O: l) @$ _* p( p0 e/ G

* k/ Z% G9 y  s3 {! S百度网盘
9 n0 w/ u% m9 U. N1 {4 E8 ?
) v" y. k3 p. ~3 _% ~
7 G4 w6 X2 X7 A, W$ b4 Y1 |5 e) _) @* t' r
游客,如果您要查看本帖隐藏内容请回复  VIP可免回复查看隐藏内容 详情请点击
头像被屏蔽
发表于 2022-5-6 00:58:57 | 显示全部楼层
提示: 作者被禁止或删除 内容自动屏蔽
发表于 2022-5-8 12:26:20 | 显示全部楼层
游客无权限浏览该内容
发表于 2022-5-11 09:57:24 | 显示全部楼层
游客无权限浏览该内容
发表于 2022-5-13 08:00:14 | 显示全部楼层
游客无权限浏览该内容
发表于 2022-5-19 01:45:31 | 显示全部楼层
游客无权限浏览该内容
发表于 2022-5-28 00:30:53 | 显示全部楼层
游客无权限浏览该内容
发表于 2022-5-28 01:46:31 | 显示全部楼层
游客无权限浏览该内容
您需要登录后才可以回帖 登录 | 立即注册

本版积分规则

封号公示|电子邮件联系本站hd1tj.net#[换成@]outlook.com|免责申明|HD一条街

GMT+8, 2022-8-16 06:05

Powered by Discuz! X3.4

Copyright © 2001-2021, Tencent Cloud.

快速回复 返回顶部 返回列表