HD一条街

 找回密码
 立即注册
搜索
查看: 147|回复: 6

[1080p] [1985][舞狮人传奇][1080P修复版/1.3G][国语 无字幕][MP4][郑剑宝/钟九仔/杨振国][百度]

[复制链接]
发表于 2022-5-6 00:01:17 | 显示全部楼层 |阅读模式

马上注册,结交更多好友,享用更多功能,让你轻松玩转社区。

您需要 登录 才可以下载或查看,没有帐号?立即注册

x
. {/ c% [$ `/ H$ N; N$ R
                               
登录/注册后可看大图
- H, u; b( p. @- E
◎译  名 The Legend of Lion Players
9 N0 f7 h$ w. W5 q◎片  名 舞狮人传奇
% x' H6 P1 L# c$ g9 n2 Y6 ?& s◎年  代 1985- V; J/ t4 L' n( x
◎产  地 香港
& U" H8 C7 G* y◎类  别 剧情 / 动作
- I7 R; ]5 A5 G) s1 k7 Z◎语  言 汉语普通话' U" V2 p9 p$ o$ L
◎豆瓣链接 https://movie.douban.com/subject/10759847/, [  x, H* b. j
◎片  长 96分钟* m" a0 L- c& I8 v' e$ f
◎导  演 邢吉田 / Jitian Xing
) x# \& F. R: e+ m◎演  员 戴大卫 / Dawei Dai | 饰 祁梦龙0 m& @8 s, Z4 n$ L4 Z$ |' H& m+ V) `
      沈光炜 / Guangwei Shen
6 X! F. j: T" |# {( l) r1 L" |      张怀志 / Huaizhi Zhang | 饰 许茂材
8 r+ i3 `. \- r9 i2 R( \& t◎编  剧 周毅如 / Yiru Zhou
; P) H( k5 {# Q: W◎副  导  演 张怀志 / Huaizhi Zhang; `8 n8 |5 ~/ r4 \. c  W/ ~" P
◎音  效 李柏坚 / Bojian Li: b$ Z1 |) Q* B* f

: |' R4 M- e* V# u◎简  介 
+ W* j- Q4 }( T
. g' L; g3 x( G. C$ [  舞狮人陈剑虹杀死大地主祁梦龙,报了杀妻劫女之仇,夺回被掠去的家传狮子玉佩。他把幼子虎仔寄养师弟家中,从此改名换姓,浪迹江湖。20年风风雨雨,使饱经沧桑的陈剑虹两鬓斑白。他改名姜伯南,在广东沿海某城兴办了`醒狮武馆`,在方圆百里内享有盛名。他仍惦着亲人,特派大徒弟王海涛回老家寻找失散的两个孩子。长大成人的虎仔取名霍士龙,在师叔抚育下,练就了一身高强的武艺。师叔死后,他决心走遍天涯海角寻找父亲。在`悦来客栈`,他偶遇大贩毒犯佟坤,双方展开了一场恶斗。正当霍士龙寡不敌众,万分危急之时,幸被路过此地的王海涛所救。正月十五闹元宵,东方公司老板邢雅甫举办舞狮夺彩大会。邢雅甫是祁梦龙的儿子祁耀宗,为避仇杀改名邢雅甫。会上,王海涛爬到杆顶时,忽然腿部旧伤发作,几乎跌落丧生。霍士龙仗义相救,并帮助他夺得头彩。霍士龙和王海涛成了莫逆之交。伪装成大慈善家的邢雅甫,暗地里大肆贩运鸦片。他很赏识霍士龙的武艺,聘他为公司保镖,并企图通过他去拉拢`醒狮舞馆`,为载有大批鸦片的`海风号`护航。`醒狮舞馆`对邢雅甫早有戒心。王海涛夜探`海风`号,黑暗中与霍士龙误打起来。第二天,霍士龙去武馆向王海涛道歉,被其他武友误解,他只好招架几下,弃鞭而去。当晚,霍士龙在邢府发现了邢雅甫的罪恶勾当,顿时醒悟自己的误入了狼窝,后悔没有听王海涛的忠告。姜伯南从霍士龙丢下的索鞭上发现了狮子印记,与玉佩完全吻合,证实了霍士龙就是他日夜思念的儿子虎仔。亲人相见,悲喜交加。父子俩怀着共同的心愿,要与邢雅甫决一死战,为民除掉这个祸害。诡计多端的邢雅甫得知了风声,连夜转移鸦片,并扣住姜伯南,威逼他同流合污。在拷打姜伯南时,邢雅甫发现了玉佩,方知姜伯南正是20年前杀死其父的陈剑虹。仇人相见,分外眼红。危难时刻,邢雅甫的太太陈水仙放走了姜伯南。姜伯南对此大惑不解。当他打开包着玉佩的手帕时,见上面写着`我是芳芳`,这才明白救他的就是他失散了20年的女儿。他立即带人杀开一条血路,赶到常春别墅,芳芳已与仇人邢雅甫拼得两败俱伤,奄奄一息。一家人终于团圆了,然而从苦难中挣脱出来的陈水仙却怀着无限的仇恨离开了世界。一声巨响,邢家豪华的别墅连同那群害人的魔鬼及鸦片一同化为灰烬。`醒狮武馆`的义士们又继续他们浪迹天涯的生活……
+ y: P# B' V" k+ G7 {9 v/ o" s/ V! k5 \
Quote:
General
0 M, y2 X/ P. ?) H2 u0 a' p. I5 h- Y, CComplete name                  : The Legend of Lion Players 1985 WEB-DL 1080p H264 AAC-Dave.mp4+ `  A) S7 M/ r
Format                         : MPEG-4% }7 X# j3 P+ l5 N" u
Format profile                 : Base Media, \% ]. ]9 c7 y
Codec ID                       : isom (isom/iso2/avc1/mp41)
1 ]* B) U( F) }; W) u, V( S8 Z% N8 FFile size                      : 1.39 GiB
* J4 {/ C, u2 p) |0 }1 g. hDuration                       : 1 h 36 min9 w( {: c; O1 E+ l8 N4 p
Overall bit rate mode          : Variable/ D) l1 b8 e9 u7 _$ A3 o. e% t
Overall bit rate               : 2 060 kb/s; l* w' d; d7 G* @9 _
Writing application            : Lavf59.16.100
# V% [' r+ u* D- B9 T* n; G& Y" h. l# \( V9 D$ X
Video' j- E/ Y9 o$ z- ~+ A
ID                             : 1& V% k* o) L! ]
Format                         : AVC# l4 @9 H2 |2 Y) L% `
Format/Info                    : Advanced Video Codec' M& ~% ~( J' K* \$ u' W
Format profile                 : High@L4
# n0 ~  @8 n0 l- A# U3 WFormat settings                : CABAC / 4 Ref Frames
0 y  c& a7 d$ }Format settings, CABAC         : Yes
+ s* P: O" m  U8 t- tFormat settings, Reference fra : 4 frames
9 ^7 ~1 ~0 U& s' tCodec ID                       : avc1
4 q/ ~" _& W) M+ x) F  XCodec ID/Info                  : Advanced Video Coding( d$ G; J" @3 m" S
Duration                       : 1 h 36 min
9 d6 P1 K0 s6 n+ A1 l/ BSource duration                : 1 h 36 min2 r) j/ s- ~' E+ b! e6 h9 v& s/ s
Bit rate                       : 1 876 kb/s
1 V. _3 w" v/ e% s- h, QMaximum bit rate               : 1 961 kb/s/ v3 V0 P- @6 j+ m
Width                          : 1 816 pixels# X9 {$ z& A( B! F# m' x, i, G
Height                         : 1 080 pixels- U# E$ b, A0 o( U- G/ R7 B( i
Display aspect ratio           : 5:3) J0 C5 Z! R8 |2 ^
Frame rate mode                : Constant
$ D. H+ [6 r2 [* F! F, f0 p& HFrame rate                     : 24.000 FPS
: Z9 Y. w' X: O2 dColor space                    : YUV
) r1 t- x; r2 W" O" b$ XChroma subsampling             : 4:2:0( a6 \4 d9 U, ]: y& m2 H5 J
Bit depth                      : 8 bits4 Q& J1 [1 W; s# J+ I$ P, g
Scan type                      : Progressive
5 j8 ^% N8 s6 O9 s: b/ x) s4 B& JBits/(Pixel*Frame)             : 0.040
9 ?' I& ~+ R# k3 d  o0 `- m- f/ eStream size                    : 1.27 GiB (91%)7 U' i$ l( T  T6 ~
Source stream size             : 1.33 GiB (95%)
' Y. X8 w5 S6 K  H( [- AWriting library                : ptw-1.0.140 rcm-adapt vs-93 vwk; G; c# |. M0 e, a0 i+ S( t: U6 S
Color range                    : Limited5 e4 [) M! H, m# z) F4 y
Color primaries                : BT.709" T& D, r8 T0 H: b0 n3 A6 U! I$ e
Transfer characteristics       : BT.709$ k, L' U- |& ^2 b& A
Matrix coefficients            : BT.709
$ v& X* G: O4 g* P# `8 ?- R9 eCodec configuration box        : avcC' U8 D* I1 i* G4 S% ^& d6 D, |1 `
( ^6 L( Y2 _  q
Audio9 T$ g6 g0 E- b- Z- ^( c2 V
ID                             : 2& Z4 f+ ~9 T$ w& y
Format                         : AAC LC: t- @  e5 S  ~9 s$ u
Format/Info                    : Advanced Audio Codec Low Complexity6 x, H0 q! U- ~: z0 L$ j
Codec ID                       : mp4a-40-2. x! D) e& }: V; u: t
Duration                       : 1 h 36 min' O( J- C: _# n' I0 d" |. Y+ }
Bit rate mode                  : Variable& W/ O; ?% a3 I
Bit rate                       : 93.4 kb/s
" Y. Y* Q4 a3 n3 G8 q! J/ AMaximum bit rate               : 96.8 kb/s / 96.8 kb/s
. o1 ]6 T: U- r1 D  V: `; O; VChannel(s)                     : 2 channels% J  v) z: B6 l! d1 [
Channel layout                 : L R, v9 i/ a5 `4 _% G) I
Sampling rate                  : 48.0 kHz5 \2 @1 S, C) i+ P! s8 ~5 T9 L% z3 Z5 U
Frame rate                     : 46.875 FPS (1024 SPF), k( C9 G& W6 E
Compression mode               : Lossy
  b2 C+ `; l3 n% m3 JStream size                    : 64.7 MiB (5%)
3 f0 R2 C% _' U3 |Default                        : Yes3 J* m) O, k  Z0 ^& C
Alternate group                : 1$ L1 b1 Z7 }- U- W

/ J3 M9 b( c3 `$ `$ s7 H# D4 ~7 R& P" h3 C8 e' Z
2 V1 E2 l" e6 _5 O  ?& A+ Y$ S  g
                               
登录/注册后可看大图

/ \2 T+ B& R8 c3 B$ l3 ^
1 L" f6 y6 E$ S
                               
登录/注册后可看大图

- @8 p1 a. z  m- w
3 k8 k, i8 @/ Z3 f0 q9 g
                               
登录/注册后可看大图
0 b$ r4 ^9 y" M3 s4 {  g

7 C8 _( |2 [' Z0 G7 h
( m0 d. _; O7 D% `/ S4 K
郑重声明:. p% O  U; B  y0 q" y' S. r
本站提供的所有影视综艺作品均是在网上搜集,任何涉及商业盈利目的均不得使用,否则产生的一切后果将由您自己承担!本站将不对本站的任何内容负任何法律责任!该下载内容仅做宽带测试使用,请在下载后24小时内删除。请购买正版!
, `# M5 o- e0 _: n0 u) h  E: z" D
6 k2 u9 s6 Q! I9 b
3 O2 O: U: [  y! G6 \: p: r8 }
百度网盘2 ]1 s1 h1 w% v

; H  D9 S) [- h' j; y
1 D2 t- T. r" @8 l9 M
. x8 M  h- i; W/ n, m
游客,如果您要查看本帖隐藏内容请回复  VIP可免回复查看隐藏内容 详情请点击
发表于 2022-5-10 04:38:02 | 显示全部楼层
游客无权限浏览该内容
发表于 2022-5-13 10:13:53 | 显示全部楼层
游客无权限浏览该内容
发表于 2022-5-27 08:34:49 | 显示全部楼层
游客无权限浏览该内容
发表于 2022-5-27 09:14:06 | 显示全部楼层
游客无权限浏览该内容
头像被屏蔽
发表于 2022-5-27 09:26:32 | 显示全部楼层
提示: 作者被禁止或删除 内容自动屏蔽
发表于 2022-6-5 00:51:12 | 显示全部楼层
游客无权限浏览该内容
您需要登录后才可以回帖 登录 | 立即注册

本版积分规则

封号公示|电子邮件联系本站hd1tj.net#[换成@]outlook.com|免责申明|HD一条街

GMT+8, 2022-8-14 15:04

Powered by Discuz! X3.4

Copyright © 2001-2021, Tencent Cloud.

快速回复 返回顶部 返回列表