HD一条街

 找回密码
 立即注册
搜索
查看: 75|回复: 5

[1080p] [1985][黑林鼓声][1080P修复版/1.1G][国语 无字幕][MP4][郭建国/刘龙/张晓玲][百度]

[复制链接]
发表于 2022-5-5 23:57:44 | 显示全部楼层 |阅读模式

马上注册,结交更多好友,享用更多功能,让你轻松玩转社区。

您需要 登录 才可以下载或查看,没有帐号?立即注册

x
# \& f, T  e# v0 i9 p& y
                               
登录/注册后可看大图

* ^: [1 Z3 K3 }: `◎译  名 The Drumming in Blackwood( ?7 o! R& T" U3 s+ X; o0 K
◎片  名 黑林鼓声2 V$ ^$ }; E0 V! d9 p5 N
◎年  代 1985! I  G. p7 v/ h; N
◎产  地 中国大陆0 r9 V8 l% ?' w+ Z3 ]+ K4 f& J
◎语  言 汉语普通话" d+ F' y, d8 }# D7 K
◎上映日期 1985
! m2 p7 S" O. K' A1 {9 V◎IMDb链接  https://www.imdb.com/title/tt0349541/
: g/ V( I) `" D◎豆瓣链接 https://movie.douban.com/subject/6724711/
& O! i+ z2 ~5 {! C◎演  员 郭建国 / Jianguo Guo$ k: k8 _' K( J& L6 {
      刘龙 / Long Liu0 d* M* g7 _" h6 \
      戴大卫 / Dawei Dai | 饰 乔腊
. d/ B8 G/ A8 L% M' ]+ m( ?, [      张晓玲 / Xiaoling Zhang | 饰 兰娜/ U' s+ ~: X# i$ w( A- @! T
◎编  剧 王进 / Jin Wang
# o1 I; s9 _, P4 f% e- z0 D8 `; h2 \◎剪  辑 蔡敬邕 / Jingyong Cai: Z3 q: j5 w* {
◎化  妆 何子云 / Ziyun He$ C3 G/ F" I/ |$ h, }5 l
" \# j. }9 I# X3 U# @0 f# U
◎简  介 
3 J9 C9 C  r& Q  h
: b) y/ b' w) W  1950年初,云南省哈尼族支系爱尼人聚居的爱尼山宣告解放。躲藏在原始森林中的窝古力匪帮,预感到末日即将来临,企图打出黑森林,与善良的爱尼人和`红汉人`拼个你死我活。联防队长扎格利奉解放军肖排长之命,离别爱妻兰娜和幼子小利戈,到山中客店去接一批枪支弹药,半路上遇到匪徒腊本都,两人展开了一场格斗,武功超群的扎格利生擒了腊本都。他从腊本都的口供中得知了敌人的信号,一个引匪山林,一网打尽的战斗方案产生了。猎手杜巴老爹的孙子果龙,协助扎格利转移枪支,在森林里遇到猛虎,慌忙躲避中又撞上狡猾的土匪多飘。果龙与多飘展开了一场格斗,最后双双倒在河滩上,扎格利暗中跟随土匪乔腊,摸清了窝古力匪帮的虚实。乔腊被窝古力打伤,扎格利背着受重伤的乔腊,闯到土匪庄铁的窝棚前,通知庄铁敲木鼓传窝古力的命令:明晨五更,林边集合。木鼓声回荡在整个大森林中,这鼓声是窝古力匪帮的丧钟,也是爱尼人胜利的角号。扎格利怀着兴奋、喜悦的心情,回到山寨。暮色中,他亲眼看到联防队副队长约墨打昏了前来与村中暗藏匪徒联系的土匪军师皮落。约墨大叔告诉扎格利一切都安排好了,扎格利便放心地踏着月色朝自己家走去。当他快步登上竹梯,正要跨入家门时,突然从暗中飞来一支毒剑,正中他的要害。扎格利强忍着剧痛向闻声而来的妻子兰娜口授了敌人的信号,说完便倒在平台上,为受尼人的幸福献出了年轻的生命。天色朦胧透亮,杜巴老爹与联防队员在龙巴门严阵以待。一名匪徒正欲放火焚烧龙巴门,忽被一支暗箭射中倒地。杜巴老爹抬头望去,见草丛中墨影一闪,杜巴老爹扬手投出标枪,黑影应声倒地。大家这才看清楚,窝古力藏在寨子里的耳目、杀害扎格利的凶手,正是联防队副队长约墨。一声枪响划破林中的寂静。窝古力匪帮听到信号,蠢蠢欲动。但他们还未跨出地盘,便被早已埋伏好的解放军消灭在山谷中。
* r( D% I) X; P3 ]- y! u* ]2 q4 Z9 ^7 _! x. r# Z5 U) c
Quote:
General" k+ X) i; s4 f+ c' ], [+ M
Complete name                  : The Drumming in Blackwood 1985 WEB-DL 1080p H264 AAC-Dave.mp4
0 Q) H; Y( I2 I+ s+ OFormat                         : MPEG-4# _: m" S6 U$ k+ P/ E: p
Format profile                 : Base Media2 q) M+ o* J! `; }  s. }* f
Codec ID                       : isom (isom/iso2/avc1/mp41)
/ C$ y: q4 ~- X8 [7 V" Q1 mFile size                      : 1.13 GiB( Y/ n9 P! ^5 }
Duration                       : 1 h 18 min5 L0 X( E& W# U- p- H( K6 i
Overall bit rate mode          : Variable7 f' V# h# X1 L  f
Overall bit rate               : 2 059 kb/s
! v3 s2 C5 T: C" H9 `3 wWriting application            : Lavf59.16.100
5 f( w' V) p  p
$ V, _7 M$ j3 b; u# W- i6 mVideo6 L" O5 Q( z" x0 h' O' k5 W
ID                             : 1
' ^; a3 K! y4 LFormat                         : AVC- k$ F' Q, h1 ]+ C5 \+ {
Format/Info                    : Advanced Video Codec$ }* U/ t: J8 ?* _. r+ X
Format profile                 : High@L4
# a. h2 @2 z. oFormat settings                : CABAC / 4 Ref Frames
/ w& j1 v* y- dFormat settings, CABAC         : Yes* |; U5 s) L+ u; ~; h) D( b
Format settings, Reference fra : 4 frames) y) M/ G7 H9 V3 f2 l% ]
Codec ID                       : avc1
8 Z2 m/ z- m  @0 Z- b# FCodec ID/Info                  : Advanced Video Coding
) B: _# m5 Z" J- P4 z2 CDuration                       : 1 h 18 min: {2 o$ s, E; ]- |! n) G- \
Source duration                : 1 h 18 min
& d+ A2 U8 C$ c" i8 gBit rate                       : 1 875 kb/s5 H0 G2 `! _! Q* M
Maximum bit rate               : 1 960 kb/s2 F1 f" p1 k, H1 L# I, d
Width                          : 1 920 pixels
) P  V% X' ~. v; Y" ?7 OHeight                         : 740 pixels
; Y, e* m& `+ R3 VDisplay aspect ratio           : 2.595
2 i7 |, M( {! P" Y4 f# eFrame rate mode                : Constant# N! y% V; u) d- S; w$ _. E( w
Frame rate                     : 24.000 FPS+ G* M" y$ b8 t
Color space                    : YUV5 J! _  B) B8 y- X; i1 D+ y
Chroma subsampling             : 4:2:0
" c* V. n  R& X* }Bit depth                      : 8 bits2 V  \8 k8 ?( j& v* S( d. r8 n
Scan type                      : Progressive
6 g# }( B( P# q& m$ ~Bits/(Pixel*Frame)             : 0.0553 x2 c8 c/ q2 n; l
Stream size                    : 1.02 GiB (91%)  W9 h" m: \, `  R" p' W
Source stream size             : 1.07 GiB (95%)
5 t# Q1 J# ^6 h% E* DWriting library                : ptw-1.0.140 rcm-adapt vs-93 vwk
2 ?: l4 S. Q' `* ^3 G0 {5 t# }Color range                    : Limited9 ^; Z) X3 t5 Y# g% K
Color primaries                : BT.709. ]) |5 E$ _+ {, X- D# k- E
Transfer characteristics       : BT.7093 G7 w. o  h$ a
Matrix coefficients            : BT.7094 [  L- T: t, c) i6 m, y
Codec configuration box        : avcC# d/ G% n5 l1 Z
# }! ?5 A3 J2 R5 S
Audio1 N+ g; g0 D  Q; k( ]
ID                             : 2
4 R: r& j% @1 P+ {& e5 Z( y& CFormat                         : AAC LC
" J0 r) m% J1 h( i% p* ZFormat/Info                    : Advanced Audio Codec Low Complexity( I, O' c/ j" M2 y3 }
Codec ID                       : mp4a-40-2
9 k, J1 V+ V  Y" K2 m( xDuration                       : 1 h 18 min
9 R, s7 Y$ W6 g9 u+ X# oBit rate mode                  : Variable/ l* u. m3 i% j1 [( i5 q0 A" _3 d
Bit rate                       : 93.4 kb/s
' q' B  K$ E1 U! ~Maximum bit rate               : 96.6 kb/s / 96.6 kb/s
3 V# z5 O% [. ^2 a8 t8 t, o& UChannel(s)                     : 2 channels
$ W$ @% B2 x1 D) D7 r6 u) HChannel layout                 : L R$ R. n  P/ v* V& Y6 \6 @' k
Sampling rate                  : 48.0 kHz
6 w8 A; x7 P; {- gFrame rate                     : 46.875 FPS (1024 SPF). e0 |* x4 F( T' K3 \5 L$ ~) M! ~# {
Compression mode               : Lossy+ Y# c/ V2 J: S& n- ]
Stream size                    : 52.3 MiB (5%). B3 x' G8 i# e9 m" B" ^
Default                        : Yes) P/ K2 C9 e& e, l$ W) I, v
Alternate group                : 1

7 ~3 k- O- {+ O; ^3 {0 [; e7 b7 [
0 T6 \9 H' O8 L1 c: T3 ]% {3 g

8 B/ Q% n0 c4 g, A# k                               
登录/注册后可看大图
! R, a3 p0 y! C4 r

2 n6 Z# u( r% K5 G5 w! r9 d) H0 ~                               
登录/注册后可看大图
% e, k6 B8 A& Y1 U: N8 \# w
, m+ H  i0 r: m' n9 Q( `
                               
登录/注册后可看大图

; s# c- z% W/ t5 |7 |1 Y
8 T  ]& y5 B0 t! b
/ E$ Z; F, P5 L$ j2 }7 X7 P& r
郑重声明:: t6 @/ }, p) W- f) `& p
本站提供的所有影视综艺作品均是在网上搜集,任何涉及商业盈利目的均不得使用,否则产生的一切后果将由您自己承担!本站将不对本站的任何内容负任何法律责任!该下载内容仅做宽带测试使用,请在下载后24小时内删除。请购买正版!
1 o8 ]/ |: |0 w; [
5 ~" K/ `) H; z1 A" n3 S
3 q' Y: d0 M9 `8 m, G9 g
百度网盘0 s& q0 }: j: u3 _

6 [  V# o( N2 n3 I4 h9 j( R0 b) u: l: N
0 O- f7 Q- R: [' R# C8 [
游客,如果您要查看本帖隐藏内容请回复  VIP可免回复查看隐藏内容 详情请点击
发表于 2022-5-22 10:29:46 | 显示全部楼层
游客无权限浏览该内容
发表于 2022-5-24 07:51:41 | 显示全部楼层
游客无权限浏览该内容
发表于 2022-6-15 00:17:56 | 显示全部楼层
游客无权限浏览该内容
发表于 2022-6-26 10:22:01 | 显示全部楼层
游客无权限浏览该内容
您需要登录后才可以回帖 登录 | 立即注册

本版积分规则

封号公示|电子邮件联系本站hd1tj.net#[换成@]outlook.com|免责申明|HD一条街

GMT+8, 2022-10-8 05:48

Powered by Discuz! X3.4

Copyright © 2001-2021, Tencent Cloud.

快速回复 返回顶部 返回列表