HD一条街

 找回密码
 立即注册
搜索
查看: 123|回复: 4

[1080p] [1988][暂缓逮捕][1080P修复版/2.1G][国语 无字幕][MP4][陈宝国/赵奎娥/金鑫][百度]

[复制链接]
发表于 2022-5-5 23:55:39 | 显示全部楼层 |阅读模式

马上注册,结交更多好友,享用更多功能,让你轻松玩转社区。

您需要 登录 才可以下载或查看,没有帐号?立即注册

x
7 w6 }% S6 i$ E* h2 P  D
                               
登录/注册后可看大图
. B$ h  c" U8 U
◎译  名 Suspended Arrest
8 J% V" v# ?3 d3 B◎片  名 暂缓逮捕% E: j; y6 E. c4 m" r- F! J* S
◎年  代 1988: G" G+ E: E, b" P- _6 u' W5 [
◎产  地 中国大陆* C; E; y" a& w8 L8 K
◎语  言 汉语普通话
* U8 p& j4 |2 S. M◎豆瓣链接 https://movie.douban.com/subject/6755922/  m$ @3 C) H2 H9 v) `
◎片  长 89分钟- u& ]* x: h! s. F( q
◎导  演 凌奇伟 / Qiwei Ling
& a' [0 |) D/ S◎演  员 陈宝国 / Baoguo Chen5 @, T0 }. T( p0 H/ b7 p  C
      赵奎娥 / Kuie Zhao/ `( ]5 m+ Z; N
      史进 / Jin Shi' k  g5 p  z5 o; }
      张玲 / Ling Zhang
* `6 I6 y. y2 ~( e& p) S  N◎编  剧 凌奇伟 / Qiwei Ling% X6 D+ C+ x# C) h3 |* M

( q+ e& V9 p5 }: V$ E◎简  介 
! s: i$ ]7 v- o$ _7 B3 |
7 [8 _# H) T% t% ?  姚克一年前从大陆迁居澳门继承遗产,不料在生意场上被人骗走40万巨款,幸亏他的情人、深圳乐美化妆品公司经理李萍挪用公司大笔外汇,帮他还清了债务,李萍却因此受到检察机关指挥犯有经济贪污罪。多年来,李萍与女儿婷婷相依为命,自从姚克出现,李萍把一切都寄托在深爱她的姚克身上,因此不能眼见他陷入困境而不救助。姚克不忍李萍受牵连,冒险买下两本非法护照,准备携李萍出境。特区检察院的肖宇光以国际刑警的身份到澳门取得了李萍娜用公款的证据后回到深圳,在检察院的会议上提出自己对这一事件的看法。他认为李萍在公司危难之际接任经理,并接连研制了几个创优产品,名扬海内,使公司扭亏为盈,自己也成为特区经济改革中的一位女强人,这样的人陷入经济犯罪案令人惋惜。虽然现有的证据已经可以立即逮捕她,但她掌握着几个主要产品的秘密配方,在第二天的新产品鉴定会上只有她才能代表公司出席答辩,如果逮捕她,该公司很快就得停产,职工和国家的经济利益都会遭受到巨大损失,经过研究,检察长对此案做出了特殊决定:暂缓逮捕,让李萍出席答辩会。肖宇光找到李萍,要她振作精神,用行动争取政府宽大处理。李萍本已心灰意冷,此刻十分感动。姚克密约李萍出走,李萍陷入极度矛盾与痛苦中,在姚克苦求下答应了他。姚克随后用武力追回了被骗走的巨款。李萍出席答辩会之际,女儿突然发病,肖宇光赶来主动留下代她照顾孩子,并对她表示了充分的信任。李萍内心充满感激与悔恨。答辩会结束,李萍步出会场,注视着焦急等候的姚克,凄然摇头离去。姚克陷于孤独之中。在亲友的鼓励下,他终于手提巨款走进检察院的大门。% U( `# O4 y, v. b' ~; i. P8 U3 D/ M
. n4 ~. J1 |. |/ I+ e. ]2 l& U
Quote:
General( p4 a: C: s; ]' k3 d. S8 f
Unique ID                      : 111264132143000540718901632328662432662 (0x53B4B14003EC33FD4D20602317E6BB96)
+ X3 ?1 U" V8 @4 P0 K# ]  T  aComplete name                  : Suspended Arrest 1988 WEB-DL 1080p H264 AAC-Dave.mkv+ t8 U; M( v; Q# f4 H
Format                         : Matroska  }1 B: D* D9 J8 s* M( t
Format version                 : Version 47 O8 P' }% F' \% p. Q& ~
File size                      : 2.11 GiB' e- X* ]( o: l% q( r2 k
Duration                       : 1 h 29 min; l, K( t- [, Y2 B& H) J) f
Overall bit rate               : 3 366 kb/s' t2 I3 K$ U7 E& }7 j  V0 a1 l7 u4 N  y
Encoded date                   : UTC 2022-04-30 23:52:03
% I- E- a' b  \6 |Writing application            : mkvmerge v63.0.0 (‘Everything‘) 64-bit
; v3 J- W. k1 b* }Writing library                : libebml v1.4.2 + libmatroska v1.6.4
2 K6 |7 T5 H  j6 [% w. g% m
) w& G4 l# m7 u7 IVideo
) d! e% e+ g- A$ n. p8 MID                             : 1
+ U4 X* L3 e! ^2 R6 D4 @Format                         : AVC' @; E7 q9 H+ [* [; Q
Format/Info                    : Advanced Video Codec
6 {1 C3 |: n- s& Z; uFormat profile                 : High@L4$ @' u0 ^( o7 o2 k  C" D. P
Format settings                : CABAC / 4 Ref Frames
2 r# y1 `8 z9 EFormat settings, CABAC         : Yes" I# |% K' J+ ~; x
Format settings, Reference fra : 4 frames9 v: ^+ h; Z/ R. W
Codec ID                       : V_MPEG4/ISO/AVC
* V# H- d$ M# b( P! u! uDuration                       : 1 h 29 min
  l$ t5 j3 Y+ Q' BBit rate                       : 3 270 kb/s6 i, i7 G* M- j8 f+ _, O1 w
Width                          : 1 920 pixels; P5 V' w6 |* E+ ~! G! H
Height                         : 1 080 pixels
5 \; r1 V% B! d+ y, p" lDisplay aspect ratio           : 16:9
0 B  {( a& s0 nFrame rate mode                : Constant
* `7 h% \% X! PFrame rate                     : 25.000 FPS
0 Y7 U$ _7 Z$ i. KColor space                    : YUV; s! R0 J* H# c' W
Chroma subsampling             : 4:2:0
& J5 ]: T4 C4 P) z+ X# B( lBit depth                      : 8 bits% G  @8 O7 Z4 K0 `
Scan type                      : Progressive
! N2 U' L* k) P0 ^' j/ ^Bits/(Pixel*Frame)             : 0.063+ L3 A7 t7 i4 s" t' f* B
Stream size                    : 2.05 GiB (97%); ~- Y& V" b$ n8 d7 [# ~  r" s
Writing library                : ptw-1.0.136 rcm-adapt vs-93 vwk
  r" j. R/ N) r" d) Y+ ^! }6 GDefault                        : Yes
5 [; L+ L: L% dForced                         : No
( J8 T+ r$ l: h2 IColor range                    : Limited& k/ P4 x9 c7 ^: b& ^
. C; Q; c. F3 _  v$ v9 p. R
Audio
6 Y8 K0 U2 W; O2 \# v6 q' m. O3 fID                             : 2
, O. s( y! U! ?4 i* d6 g- K: B0 M. a4 qFormat                         : AAC LC/ [  \# D$ q) ]" }3 M& w7 a
Format/Info                    : Advanced Audio Codec Low Complexity
3 d0 y8 Q: k6 h  wCodec ID                       : A_AAC-20 o. X5 F- F4 g
Duration                       : 1 h 29 min
7 h7 a+ P" T1 [- {2 EBit rate                       : 93.4 kb/s9 N5 {3 N1 H5 @( f5 M- O
Channel(s)                     : 2 channels; O7 Q9 [4 R, a* a
Channel layout                 : L R' h* `6 U- y, k8 N
Sampling rate                  : 48.0 kHz1 b1 y% Y* \- t5 r2 [
Frame rate                     : 46.875 FPS (1024 SPF)
# `$ z: c9 |/ a3 E7 s& MCompression mode               : Lossy$ H5 w4 M8 W* G0 ?. Q. f
Delay relative to video        : -42 ms
0 l$ i. b# F. Q, yStream size                    : 59.8 MiB (3%)# Y" I4 l' {! R
Default                        : Yes3 M1 W. b2 X) |
Forced                         : No
% D# g' l* N6 m4 I. M9 \$ [

# v: r; ~! l* ]; o: M3 b' \* M! A; T. F  Y9 `% ~: }7 H' O% \

. s# L: {1 t* k/ N# k" H" Y                               
登录/注册后可看大图

! _0 V6 D4 `- p. r3 \  N2 E

" k! g& a8 `% k8 ]& k                               
登录/注册后可看大图
1 g% V  Y: Z: g5 L: H

+ |" V5 s5 }; l2 u4 h9 {                               
登录/注册后可看大图

) [) H' H7 w5 C
# B; h& h0 S+ T
1 O5 F6 j$ s5 E9 J6 Z  w, ]
郑重声明:5 g, P* n( R) ~6 d+ I
本站提供的所有影视综艺作品均是在网上搜集,任何涉及商业盈利目的均不得使用,否则产生的一切后果将由您自己承担!本站将不对本站的任何内容负任何法律责任!该下载内容仅做宽带测试使用,请在下载后24小时内删除。请购买正版!

8 J8 t8 f1 y+ ?  D- ^. S/ R/ A5 u6 p+ h7 ]
' o3 n2 g* x5 l% H
百度网盘. y# F8 S! `' x; T
* A( Z- M2 {% u
; M6 U* X/ ~) |1 I
  G4 J5 |! _4 g) g5 |- o
游客,如果您要查看本帖隐藏内容请回复  VIP可免回复查看隐藏内容 详情请点击
发表于 2022-5-11 11:54:38 | 显示全部楼层
游客无权限浏览该内容
发表于 2022-6-15 19:20:51 | 显示全部楼层
游客无权限浏览该内容
发表于 2022-6-28 01:33:39 | 显示全部楼层
游客无权限浏览该内容
您需要登录后才可以回帖 登录 | 立即注册

本版积分规则

封号公示|电子邮件联系本站hd1tj.net#[换成@]outlook.com|免责申明|HD一条街

GMT+8, 2022-8-16 07:06

Powered by Discuz! X3.4

Copyright © 2001-2021, Tencent Cloud.

快速回复 返回顶部 返回列表