HD一条街

 找回密码
 立即注册
搜索
查看: 60|回复: 4

[1080p] [1987][港客谋杀案][1080P修复版/1.3G][国语 无字幕][MP4][王建成/柳格格/杜熊文][百度]

[复制链接]
发表于 2022-5-5 23:00:30 | 显示全部楼层 |阅读模式

马上注册,结交更多好友,享用更多功能,让你轻松玩转社区。

您需要 登录 才可以下载或查看,没有帐号?立即注册

x
5 P$ r" ]) e* ?$ \: [+ ~
                               
登录/注册后可看大图

! W  a' D: O& J5 |◎译  名 Murder Or Suicide& `1 J" ~( a, A! u4 q: c
◎片  名 港客谋杀案
5 k! a& R! k' n8 \7 z6 \/ [9 M◎年  代 1987
% W) Q& B. [4 ~1 ~1 w$ `' K! e0 V◎产  地 中国大陆" |8 a7 _! a$ [0 A( r- a, f/ r
◎语  言 汉语普通话
; g; a8 D  l6 V◎上映日期 19875 d+ S( P5 ?( N
◎豆瓣评星 ★★★☆☆
! b* z" |( z' i4 D9 l  T◎豆瓣评分 5.7/10 from 93 users
2 L. I+ f2 ]$ m0 n1 e6 i◎豆瓣链接 https://movie.douban.com/subject/4262219/8 r* N' J+ ^" H) S+ ?% D% G4 a
◎片  长 86分钟
& ~* Y/ z' r: Q8 s* d◎演  员 柳格格 / Gege Liu' m, d' b8 C" S9 }) h1 g0 T
      王建成 / Jiancheng Wang) I* q$ s' P: A/ Z5 g
      王忠超 / Zhongchao Wang | 饰 杨光4 I. a& }1 x; Z$ T6 g! [
      李世玺 / Shixi Li | 饰 宾馆经理( q' G$ o. n; A
◎其  它 杜熊文 / Xiongwen Du
6 K& V8 ?" T. v/ t4 A6 Y* Q* ^3 k) s3 ?8 C0 n& N. n
◎简  介 
; v/ e- ?. P# D$ A% H/ e/ b. o9 J( P: {- n) k
  改革开放的最前沿广州又迎来了阳光明媚的崭新一天,海外有人接踵而来,见证着这座古老国度走向繁荣的最重要时刻。这一天,脑满肠肥的香港某公司老板刘守德带着妖艳的情妇李丽、私人医生包可治以及雇员郭有祥来到广州一处自然风景区观光游览,而李丽的男朋友也尾随而至。他们一路游山玩水,欣赏演出,好不逍遥。谁知无忧无虑的快乐时光并未持续多久,毫无征兆的一个早晨,刘守德被人发现死在宾馆附近的长椅上。因涉及港澳同胞,公安机关迅速组织人员展开调查,期间发现刘所带来的四万元港币也不翼而飞。所有的相关人员均有无法推脱的嫌疑,谁才是真正的凶手……
: ~! j' X) A  [' U4 S9 ^, z" W: S  本片根据周洪方小说《香港来客》改编。
2 N6 V4 ^8 Y$ ?/ p. q; O: B5 S3 n* _% l0 C5 f1 ~$ k$ @3 M
Quote:
General5 y3 X) _0 T# Y
Complete name                  : Murder Or Suicide 1987 WEB-DL 1080p H264 AAC-Dave.mp4+ _. p( p) x8 g# L9 x
Format                         : MPEG-4
0 h, D2 }5 O# s/ Q: W' oFormat profile                 : Base Media1 i4 G3 N# N/ Y) O; ^0 H1 f
Codec ID                       : isom (isom/iso2/avc1/mp41)0 B. L2 A- j9 M* N# h
File size                      : 1.31 GiB
# i/ y5 {5 |/ ?Duration                       : 1 h 26 min9 ]) b7 Y' ~) S! R$ b
Overall bit rate mode          : Variable
  p! P" c. K( ]3 p2 h* YOverall bit rate               : 2 162 kb/s2 O; ~7 J6 j! ~: l
Writing application            : Lavf59.16.100) Z3 r9 {, `, r% j$ }/ Q3 q& u9 Y: S
9 P' \) {) Y" R$ }! B
Video
" @+ e0 X, l1 s$ E0 WID                             : 1
0 Z2 ?6 d( ~2 Z9 |, X. |Format                         : AVC1 w" S, T. X; c, g" l
Format/Info                    : Advanced Video Codec
" w0 O' l  S9 VFormat profile                 : High@L4
" x  `, b) W  h  I+ G0 \Format settings                : CABAC / 4 Ref Frames# k& N$ f; k  t, ]
Format settings, CABAC         : Yes$ r9 ^5 }3 n8 F7 R8 w7 u% p& N
Format settings, Reference fra : 4 frames( w* J5 s% R& z+ U* X
Codec ID                       : avc1
/ V; ^' @9 F' r9 _' }Codec ID/Info                  : Advanced Video Coding  h- M5 Z" r/ R& J$ e
Duration                       : 1 h 26 min+ y  b7 O) B4 q  L! i1 J
Source duration                : 1 h 26 min
4 g5 ^4 n7 k' ^Bit rate                       : 1 975 kb/s& K" N* [4 b; B8 r9 W: f" e
Maximum bit rate               : 2 064 kb/s6 I' r. |. `* }* l  m! Y# p9 a
Width                          : 1 804 pixels
% m# D- O7 h/ E, J- }. e2 `Height                         : 1 080 pixels
: h( H, k( h* m( p+ e+ qDisplay aspect ratio           : 5:3% |0 ~: D" S: `$ X! I
Frame rate mode                : Constant
1 b5 @9 Q- C% N! h$ W" k; WFrame rate                     : 24.000 FPS' L& J8 i# U/ w9 ~3 ?& X
Color space                    : YUV8 A8 H7 @. k6 y$ @& v4 R, E2 m) D* @+ t
Chroma subsampling             : 4:2:0
) X. q  @: I% r) ^8 `9 kBit depth                      : 8 bits
( g4 r9 G3 v' k5 f) y! f( wScan type                      : Progressive
% P% P. n- _6 C9 |0 SBits/(Pixel*Frame)             : 0.042. I: e+ R/ s) G8 H0 D" u
Stream size                    : 1.20 GiB (91%)- T7 a9 g. Z$ c5 B" B
Source stream size             : 1.25 GiB (95%)" n: V# g- C/ e8 ~- y
Writing library                : ptw-1.0.140 rcm-adapt vs-93
9 b8 w( n3 }$ m7 N: OColor range                    : Limited
3 ?4 {2 s8 F7 _+ w+ `3 FColor primaries                : BT.709! {8 o; A3 m) q: E
Transfer characteristics       : BT.709
; [: L. r' P+ x! G0 x: ^3 P" OMatrix coefficients            : BT.709/ |# _8 ^( w/ y- u2 j7 F, N
Codec configuration box        : avcC
8 `+ O5 B4 l8 d6 k% E" Q0 W& G" F1 D& l+ a7 p7 h' K' C5 l( W. h
Audio# ~* j0 t, y; x
ID                             : 2
0 v! Y6 W% Z8 @. {- VFormat                         : AAC LC$ \- }, g9 O3 D: a5 Z% D. J. }1 A; p' f
Format/Info                    : Advanced Audio Codec Low Complexity$ O$ g1 f# `7 t' @. r# P
Codec ID                       : mp4a-40-2( Q# ^+ L# t4 s) t9 {
Duration                       : 1 h 26 min7 f$ H" Z5 }: y
Bit rate mode                  : Variable' W6 D0 @# l* @9 T, P; {
Bit rate                       : 93.4 kb/s8 Z9 g& P" l* B# [
Maximum bit rate               : 96.9 kb/s / 96.9 kb/s
, \1 ]$ _- I+ |5 \: t# AChannel(s)                     : 2 channels
8 \- _* N- |) SChannel layout                 : L R
, T+ A  r$ V3 D* M9 [& A# USampling rate                  : 48.0 kHz% x; K6 |" s) w. D+ I4 h0 J
Frame rate                     : 46.875 FPS (1024 SPF)
7 j) |) f: ~# K! ]2 m  n+ uCompression mode               : Lossy0 N5 i5 A8 q9 r7 A8 M: |3 b! }
Stream size                    : 57.9 MiB (4%)
4 J1 S4 @$ C' Q  J, pDefault                        : Yes' A/ b% @# f# X. {6 y
Alternate group                : 1
6 h5 w; s+ J# u0 m
8 n% y5 H/ l" N7 _! Q& Y3 i4 o
4 ~# W: q9 n2 o7 e+ P3 M
                               
登录/注册后可看大图

) b- Y, M& P" J  `5 T8 K

5 P, `! |' ?5 X. [6 p4 R9 u                               
登录/注册后可看大图

3 g, H1 Z+ H, b( _. |5 n# I

( o" t+ w' r. Y1 y" i$ T; J/ O5 d8 W                               
登录/注册后可看大图
7 j. T% e5 _& g2 E4 {4 u

' k% P  ~1 K8 N% }# {$ ~4 E% n3 u3 R4 w) J/ n$ R; ~; I3 d6 c
郑重声明:, |9 L" A9 E+ V
本站提供的所有影视综艺作品均是在网上搜集,任何涉及商业盈利目的均不得使用,否则产生的一切后果将由您自己承担!本站将不对本站的任何内容负任何法律责任!该下载内容仅做宽带测试使用,请在下载后24小时内删除。请购买正版!

' ]4 D& Y2 a- a5 E3 f5 x( s, `5 A" l1 {

9 U! |6 f, J+ ?0 K6 X- h( T百度网盘
( q" R: u0 Q1 c3 n2 \! O; `# {- O6 X; {% \& p
2 Y: K6 \# `" Q: ~
. z: F1 Z& l+ h- e" s' l" G" L
游客,如果您要查看本帖隐藏内容请回复  VIP可免回复查看隐藏内容 详情请点击
发表于 2022-5-11 11:51:20 | 显示全部楼层
游客无权限浏览该内容
发表于 2022-5-27 11:00:43 | 显示全部楼层
游客无权限浏览该内容
发表于 2022-6-8 20:39:29 | 显示全部楼层
游客无权限浏览该内容
您需要登录后才可以回帖 登录 | 立即注册

本版积分规则

封号公示|电子邮件联系本站hd1tj.net#[换成@]outlook.com|免责申明|HD一条街

GMT+8, 2022-8-17 20:40

Powered by Discuz! X3.4

Copyright © 2001-2021, Tencent Cloud.

快速回复 返回顶部 返回列表