HD一条街

 找回密码
 立即注册
搜索
查看: 90|回复: 5

[1080p] [1990][天皇巨星][1080P修复版/1.2G][国语 中文字幕][MP4][孙浩/史兰芽/任鸣][百度]

[复制链接]
发表于 2022-5-5 22:38:44 | 显示全部楼层 |阅读模式

马上注册,结交更多好友,享用更多功能,让你轻松玩转社区。

您需要 登录 才可以下载或查看,没有帐号?立即注册

x
' W1 k. L7 I. f/ N6 ]- |
                               
登录/注册后可看大图
/ w$ p8 q! M; v, W* `
◎译  名 Giant Star
6 W# R. f* [* ~. V, |◎片  名 天皇巨星' S0 |4 E# R/ s
◎年  代 19903 N$ a) v: E7 c& h" i- p
◎产  地 中国大陆
4 J/ ?7 y4 I; j% ~: m6 H' Q◎语  言 汉语普通话
: |9 v% Y! S/ e1 H9 }◎上映日期 1990
+ n& @( ^4 ?6 v0 O: ^+ h2 D% \◎豆瓣评星 ★★★✦☆7 [3 i# A5 @. l* \$ ^& r
◎豆瓣评分 7.2/10 from 74 users
' ~" \8 @0 ]7 Y! r( R8 Z$ N- V◎豆瓣链接 https://movie.douban.com/subject/1958698/
+ R" Z" @! o5 Q% |* d. h! z◎片  长 93分钟+ y1 r/ p/ n* E: d- H
◎演  员 史兰芽 / Lanya Shi6 s$ A( y( J, y
      孙浩 / Hao Sun
+ C# T2 s- V" _8 W" r5 p      任鸣 / Ming Ren
, L/ y2 _3 O3 V( N) H9 f* D4 l0 c◎编  剧 廖致楷 / Zhikai Liao
9 q) N) z# ~' K* K9 h" q4 J# p2 p◎摄  影 谢平 / Ping Xie5 M& R/ ~& S8 Z! B: n: j% j, q9 q
) G# G& W1 L! M9 o3 U0 K2 g
◎简  介 
$ X! Q6 c9 d: m, J' U0 `, q8 {; f
# R+ F8 \" R! W  马自乐23岁,其貌不扬,因父母离异,被迫独立谋生,为牙膏厂做广告宣传。歌舞是他唯一的乐趣,但几次报考歌舞剧团都因外形欠佳被拒之门外。马自乐不甘心,穿着朋友的大西装、后跟很高的皮鞋在朋友的陪同下再次投考。一进考场,主考老师鲁夫子就对他一身不协调的打扮极为反感,有意出他洋相,让他跳一段牙膏广告舞。马自乐被激怒,拣起掉在地下的鞋跟砸碎一面大镜子逃出考场,无意间闯到舞台上。竟在台上载歌载舞起来。运动健将许飞来歌舞团找妹妹红歌星彤丹,见到这别具一格的表演。经过交谈,他认为马自乐很有才华,只是缺少机遇,便有意介绍他认识彤丹,想让彤丹帮他找到施展才华的机会,同时也希望他能帮助彤丹克服骄傲自大的毛病。彤丹自认为是歌坛皇后,对马自乐盛气凌人。盲目骄傲使她在一次大奖赛中失败,伤心地躲在公园里出神。马自乐用激将法使她从苦闷中摆脱出来。从此,彤丹改变了对马自乐的态度,对他自强自立的精神非常钦佩。她带着马自乐去找鲁夫子,想凭自己台柱的身份和鲁夫子对她特有的感情让鲁夫子允许马自乐参加剧团主办的大型演唱会。不想鲁夫子坚决不接受、软硬不吃。彤丹说服了剧团有关人员,准备让马自乐出其不意地出现在舞台上。鲁夫子略有察觉,演出当天,他坐守后台,巡查严紧。意识到自己即将失去彤丹,他显得越发不近人情。马自乐终于被发现,在鲁夫子言语侮辱下愤而离去。彤丹只好含泪登台。哽咽中,她唱不下去了。忽然观众席上传来了美妙的歌声,满座欢呼——马自乐又回来了。他在观众热烈的欢呼声中步上舞台。鲁夫子只好虚伪地向观众宣布马自乐是剧团最新推出的天皇巨星。激动的彤丹和马自乐在化装间里紧紧拥抱。
( X* S/ U1 z6 y: K& J0 F) Q7 Q& ~0 a0 {) h! U# t: F4 P$ U4 p
Quote:
General
3 [# L+ T* s' O/ r' c9 Y# zComplete name                  : Giant Star 1990 WEB-DL 1080p H264 AAC-Dave.mp4: X7 ?- ]+ c" M; h, A
Format                         : MPEG-4
) f2 S7 M2 Q7 `3 `/ `' h0 |Format profile                 : Base Media7 M* N1 O0 ?% _4 v, _4 G) Q4 H! @
Codec ID                       : isom (isom/iso2/avc1/mp41)) N4 r1 V' G$ s5 f9 k2 m+ g
File size                      : 1.21 GiB
" x4 O+ U% ]) TDuration                       : 1 h 32 min2 V' }' b2 i/ A3 g
Overall bit rate mode          : Variable1 C1 R9 a. O" X8 O* R
Overall bit rate               : 1 867 kb/s5 o& C5 z/ g- M
Writing application            : Lavf59.16.100
: ~9 _/ v3 l: l; |
+ s+ J" |! o  a6 }" R3 v- R8 KVideo, ]8 @: {4 i* S5 p3 w4 Q3 a# }% [- d
ID                             : 14 ]% g1 y+ R# f$ ^# L4 F
Format                         : AVC
. @6 ^4 Q8 v: E6 @3 B& fFormat/Info                    : Advanced Video Codec
7 ]: c8 D( C% L, v& `# q" ZFormat profile                 : High@L4
- I9 T2 b; V1 ~Format settings                : CABAC / 4 Ref Frames
9 X; z: ^5 d9 ^7 GFormat settings, CABAC         : Yes: K# d  c8 s9 w+ D4 f/ Q% |* R
Format settings, Reference fra : 4 frames
; W* g6 w4 i( r& S/ |, S) `2 H' b+ Q( H) ICodec ID                       : avc1
: `+ X+ k: H, B/ h; e2 tCodec ID/Info                  : Advanced Video Coding4 `9 a2 {, K& ?2 L' R
Duration                       : 1 h 32 min
. z, X: k% {1 L5 ZSource duration                : 1 h 32 min
& Z& ?8 m2 L' V( W1 @  @Bit rate                       : 1 691 kb/s
. f9 P5 P; ]+ S( kMaximum bit rate               : 1 768 kb/s# p2 b, V8 P: I( J" B
Width                          : 1 800 pixels
1 m, G4 w, d8 j) K$ s/ B* g$ cHeight                         : 1 080 pixels
; m4 ^* G9 U0 iDisplay aspect ratio           : 5:3
2 y' O, r: p. I4 aFrame rate mode                : Constant
+ A& [5 ^- C; `1 N0 jFrame rate                     : 24.000 FPS2 x% T5 H! I; x
Color space                    : YUV
5 m+ ?" `9 ]/ J% _- dChroma subsampling             : 4:2:0
% Z7 r$ `7 I+ L/ NBit depth                      : 8 bits+ m( `  n' n# h0 b3 \. s
Scan type                      : Progressive
1 N4 K" L8 R/ h# `* G8 GBits/(Pixel*Frame)             : 0.036
1 j  s% I" v; ]% e9 j& OStream size                    : 1.09 GiB (91%)3 C: h: s1 f! X+ w. K+ ]2 Y
Source stream size             : 1.14 GiB (95%)
2 e, y7 o3 u. b- kWriting library                : ptw-1.0.140 rcm-adapt vs-93
( D# t& T1 m- ~Color range                    : Limited
; M% }4 H( W. ZColor primaries                : BT.709# H9 {5 s/ w! M% [/ t
Transfer characteristics       : BT.7092 @- h/ p' D% A
Matrix coefficients            : BT.709$ n% X. g& p3 n/ J8 L
Codec configuration box        : avcC2 j1 ?- r6 Y, |  x. G
4 }* z% @% m4 t
Audio/ K5 V7 c& y& @
ID                             : 2' k1 {! {7 _2 j  ?+ [: y+ `
Format                         : AAC LC
8 ^% Q5 i! r, ^; G" C4 RFormat/Info                    : Advanced Audio Codec Low Complexity
' I5 H, k% ?- _* L' o6 |- oCodec ID                       : mp4a-40-2
5 o% j7 I" e$ l2 [( m5 ^; ?0 EDuration                       : 1 h 32 min
8 G2 e7 W3 Z; Z" nBit rate mode                  : Variable& C5 [. v- P( d: t
Bit rate                       : 93.4 kb/s
' `9 ~. M" O( {+ S5 f  ZMaximum bit rate               : 96.7 kb/s / 96.7 kb/s
) _$ z: V* |6 R( D6 Z1 |  O# DChannel(s)                     : 2 channels& e0 e& a2 z' z$ d; D' G
Channel layout                 : L R
& j7 B& N" T- c. @% RSampling rate                  : 48.0 kHz
% |  }( n/ A4 ]" H* _% tFrame rate                     : 46.875 FPS (1024 SPF). K6 A4 l& v5 k# P, `- j5 E# N) I
Compression mode               : Lossy. }; J2 \0 h4 T  v5 O8 [* ?
Stream size                    : 61.8 MiB (5%)1 o3 l# o' k" t: s) K
Default                        : Yes) |# B7 Z' m7 B8 a$ r$ E% Y. G
Alternate group                : 1
  s. T3 W( W/ y2 z- z
0 H  s8 o9 n3 x2 d

) E5 u2 W6 R0 v+ j
- t' U: i2 [* q' L; T
                               
登录/注册后可看大图
2 i  o  W4 i6 _& B. y9 E
1 p( U+ a4 b; L  a
                               
登录/注册后可看大图

/ M, V* y; f; |5 E  i, f# F. N# @

. {) i; e1 E/ f0 P! A2 N. a" A                               
登录/注册后可看大图
. V) v% O; v: o! ]

- r1 V& N4 L/ J$ {" n7 Z; d$ ~" Z+ W7 R; x4 P% T
郑重声明:+ Q9 v2 r& T0 s- I4 n' O
本站提供的所有影视综艺作品均是在网上搜集,任何涉及商业盈利目的均不得使用,否则产生的一切后果将由您自己承担!本站将不对本站的任何内容负任何法律责任!该下载内容仅做宽带测试使用,请在下载后24小时内删除。请购买正版!
; @! J; e! L/ {- I6 V: M; x

' Q7 M. W. `; [# G! J0 V+ z8 i9 H6 {' Y% N0 b2 e! w
百度网盘
) ^" \# D: P: V, t# M& \  B0 B9 b( w- X, ?% t- Y+ i1 T
4 b0 c% n. B( c1 e8 w4 r
0 k* \: M8 s# U2 u& f! Y1 T4 b
游客,如果您要查看本帖隐藏内容请回复  VIP可免回复查看隐藏内容 详情请点击
发表于 2022-5-13 01:25:56 | 显示全部楼层
游客无权限浏览该内容
发表于 2022-5-14 08:55:47 | 显示全部楼层
游客无权限浏览该内容
发表于 2022-6-2 08:21:17 | 显示全部楼层
游客无权限浏览该内容
发表于 2022-6-16 01:13:59 | 显示全部楼层
游客无权限浏览该内容
您需要登录后才可以回帖 登录 | 立即注册

本版积分规则

封号公示|电子邮件联系本站hd1tj.net#[换成@]outlook.com|免责申明|HD一条街

GMT+8, 2022-8-14 03:01

Powered by Discuz! X3.4

Copyright © 2001-2021, Tencent Cloud.

快速回复 返回顶部 返回列表