HD一条街

 找回密码
 立即注册
搜索
查看: 25|回复: 2

[1080p] [1978][龙拳小子][1080P修复版/1.2G][国语 中文字幕][MP4][罗烈/金永仁/崔星圭][百度]

[复制链接]
发表于 2022-5-5 22:36:48 | 显示全部楼层 |阅读模式

马上注册,结交更多好友,享用更多功能,让你轻松玩转社区。

您需要 登录 才可以下载或查看,没有帐号?立即注册

x
" ^5 w, f" p1 U1 p+ h. t
                               
登录/注册后可看大图
5 B! t) }5 T& S: q$ \
◎译  名 龙拳小子 / 功夫传人之龙拳小子 / Dynamite Shaolin Heroes / Dragoneer 4 - The Dynamite / Master Mok-Ryun
$ l; I  N. [4 E' g! f' J◎片  名 龍拳小子
$ a6 v; O5 Z6 O9 s$ ^, r; h◎年  代 1978
( ~' W; r5 K+ ]* ?% O8 ]◎产  地 中国香港 / 韩国8 Q! ?, q5 m  w3 m$ ~/ }0 L9 B
◎语  言 汉语普通话
& P2 l: U; ?! b: D( {◎IMDb评星  ★★★★★★☆☆☆☆
& n( j+ I/ b* w* i◎IMDb评分  6.2/10 from 66 users
$ y- N4 ~' @/ \2 s( s; P/ m1 ~◎IMDb链接  https://www.imdb.com/title/tt0165740/& U2 N( A3 x! A9 w
◎豆瓣链接 https://movie.douban.com/subject/26715390/
! H$ h7 [2 C2 N% B$ ]+ n$ y  e+ h! p◎导  演 何志强 / Godfrey Ho Jeung-Keung7 \  L3 t  ]0 r+ {! E5 C- B+ W
      李赫洙 / Hyeok-su Lee
, }$ h8 ?5 j# {. A  q◎演  员 罗烈 / Lieh Lo7 @5 w. K! F) a7 Q1 K) \- ^' Y
      金永仁 / Yeong-in Kim
2 |- N, e- X3 u# e) f      崔星圭 / Sung-Kyu Choi$ q9 A( v2 J) v
      金基范 / Ki Bum Kim
9 C, Z2 V/ N" a, V4 J# s      权永文 / Yeong-Mun Kwon1 z( P5 |8 Y, D% n: Y' L3 e2 ~: p
      权一铢 / Il-su Kwon. d) p0 X/ m9 u7 K( A. Y9 Z) _
◎其  它 金永仁 / Yeong-in Kim- X# [# D9 R5 y7 Z
      权一铢 / Il-su Kwon
! D1 {0 p! e* X0 n5 i7 V      崔星圭 / Sung-Kyu Choi4 ~2 o7 N- ~! P; q
$ W3 N# I# H5 f$ O& D
◎简  介 
  M: c* O+ N: Z
' C5 l! Z1 k% [8 Y  江长与明朝两位太子、顺治大师等人决心反清复明,江长掌握着反清义士的名单。莲花客多次出手保护江长及家人安全。戴莫因嫉妒江长之女与忠阳的恋情,假扮莲花客行凶栽赃真莲花客忠阳,终被忠阳铲除。- }; ?$ R; N; W5 L; a6 z8 y8 o. T

' K) G% ~* R/ t4 |( x! @
Quote:
General
7 r2 w0 \2 b6 w) ?- s& t: i  ?/ `Unique ID                      : 37758653083737818182513204033629688913 (0x1C680D540667840C50F861A0CF239451)
- d+ c" f1 M) j2 L+ WComplete name                  : Dragoneer 4 - The Dynamite 1978 WEB-DL 1080p H264 AAC-Dave.mkv: ^$ n- A  V; z. L7 {7 W' B
Format                         : Matroska  y, _  \, ~& |" D0 C
Format version                 : Version 4
& Y3 \( {5 _: X: rFile size                      : 1.21 GiB8 r! t# ]6 E# R6 ~& a/ T- ]3 I
Duration                       : 1 h 16 min( C! I1 q/ c0 J6 d; t
Overall bit rate               : 2 270 kb/s% y; `3 I* N& z$ q7 q
Encoded date                   : UTC 2022-04-29 19:36:53# B' Y3 G5 u$ u
Writing application            : mkvmerge v63.0.0 (‘Everything‘) 64-bit
2 \3 {) T- O* c8 z) kWriting library                : libebml v1.4.2 + libmatroska v1.6.4/ B" C2 i6 V/ f+ s* C1 T6 w5 \. b

* Y! p) r! `1 l, N7 qVideo
" V5 k2 Y9 n" U+ p* T% ZID                             : 10 S9 z, M) R, ~6 d) b( B
Format                         : AVC
  ~2 L9 i& h  e( Y$ B. WFormat/Info                    : Advanced Video Codec
. ?7 T- c7 P# NFormat profile                 : High@L4: M* d7 W! K7 Q6 I: A# u; S* ~2 o
Format settings                : CABAC / 4 Ref Frames; d. d$ e. ~0 S  K
Format settings, CABAC         : Yes/ \* T& H3 r) Q$ M. `
Format settings, Reference fra : 4 frames. d  J& X8 U' Y$ S7 B
Codec ID                       : V_MPEG4/ISO/AVC
2 g) F$ T% @, q; VDuration                       : 1 h 16 min- V/ l( H0 b5 X
Bit rate                       : 2 175 kb/s" \4 @7 M' x( l$ m. T9 c
Width                          : 1 920 pixels
2 W0 X9 w5 q& J. q4 g5 EHeight                         : 858 pixels
) W* r0 ^/ f+ ~5 N5 V" IDisplay aspect ratio           : 2.25:18 F- G. g5 S/ u! @" t* a3 k/ R/ L
Frame rate mode                : Constant
! F  {2 A/ h- N5 ]' d6 d- T( yFrame rate                     : 25.000 FPS) c. k& G7 `6 g0 @
Color space                    : YUV
2 g$ W7 M3 l) E9 qChroma subsampling             : 4:2:0
  d  b  Z  m4 n% g1 C2 JBit depth                      : 8 bits
/ }1 K' X" f9 m- [: s/ ^+ C+ U( uScan type                      : Progressive
, G( x! m2 M3 y8 g0 WBits/(Pixel*Frame)             : 0.053. d' l& ?! L& k3 ^. d9 C
Stream size                    : 1.16 GiB (96%)8 O7 |9 [2 M& S5 }) u; m$ z1 W3 O
Writing library                : ptw-1.0.131 rcm-vary vbl-0 vwk
3 |% {! O* _0 CDefault                        : Yes3 S: A4 Z) `7 d9 u5 ?& V
Forced                         : No% u; ?) z% ~& c% Y6 n2 z6 E7 T# [! O& z
Color range                    : Limited
2 Q: V: B3 ~: h4 {2 o& j1 Y7 r# C/ I9 tColor primaries                : BT.7091 ?0 _. w; S$ D4 A
Transfer characteristics       : BT.709( C7 a( P( l6 W5 X: \
Matrix coefficients            : BT.709% u4 U* B5 U$ f9 {/ n3 e

& o5 B# K1 [9 I( r1 j+ IAudio. M% U8 z2 g0 R1 G: ]
ID                             : 2* ], S: o0 D8 {2 M* M: T
Format                         : AAC LC5 _- f6 m  n  X: V. @
Format/Info                    : Advanced Audio Codec Low Complexity
% [; M0 J( r) d( x7 I/ Z1 b3 GCodec ID                       : A_AAC-2
2 `3 K& ?: o/ F' \& L7 j! `Duration                       : 1 h 16 min
0 l" {. P5 B0 x, WBit rate                       : 93.4 kb/s
  O* o! w5 H3 \/ w' [: ?3 {9 {Channel(s)                     : 2 channels$ s; v! V% R  g# Q9 b
Channel layout                 : L R' F4 b3 ?* J$ J6 p) a
Sampling rate                  : 48.0 kHz1 ~( I  X6 H2 Q# X/ h
Frame rate                     : 46.875 FPS (1024 SPF)% O. s; s2 L  H' B, v- T- k, g
Compression mode               : Lossy1 r0 b/ A8 ~5 Y* \9 z8 O+ H
Delay relative to video        : -42 ms" E. T& W: \' n( c+ ?$ ^
Stream size                    : 50.8 MiB (4%)8 X4 N% g; L& W1 H. t+ _9 ?
Default                        : Yes2 a/ C1 T4 d: ]9 a" F! ~" \0 t
Forced                         : No% W  W3 j7 j3 U% _/ Q
2 ~  e! W$ U/ Z6 R
! l/ f3 c# G- `. Z3 k

/ \* N# g8 R( A$ ^0 t$ M4 @1 \                               
登录/注册后可看大图

3 ?: h6 w6 {2 G7 F/ v$ h
4 r4 c! \* m& F& T
                               
登录/注册后可看大图

! }$ R  r5 j! X

. E4 H5 Z0 j3 C* j                               
登录/注册后可看大图

! p! u* {; [1 Y6 i! c7 w, s
! b: d; a1 v7 p( J1 l
, G5 P4 J$ [# |! w, u
郑重声明:
( Y; M+ o  b" F. ^* p本站提供的所有影视综艺作品均是在网上搜集,任何涉及商业盈利目的均不得使用,否则产生的一切后果将由您自己承担!本站将不对本站的任何内容负任何法律责任!该下载内容仅做宽带测试使用,请在下载后24小时内删除。请购买正版!

9 S/ j2 |( z7 L3 ^' I4 {* R* ]6 C, q  ]$ N! w2 R

- L) j6 p2 h7 p0 F/ V0 Z7 K百度网盘: h' O* |. q( r( r. I: I( j

( J: q% W2 g4 f$ l6 E5 E5 ]4 j. Z8 N; p# x! a

+ F# j( x) A- p5 D9 f3 ]
游客,如果您要查看本帖隐藏内容请回复  VIP可免回复查看隐藏内容 详情请点击
发表于 2022-6-5 00:02:22 | 显示全部楼层
游客无权限浏览该内容
发表于 2022-6-17 01:18:03 | 显示全部楼层
游客无权限浏览该内容
您需要登录后才可以回帖 登录 | 立即注册

本版积分规则

封号公示|电子邮件联系本站hd1tj.net#[换成@]outlook.com|免责申明|HD一条街

GMT+8, 2022-8-17 21:35

Powered by Discuz! X3.4

Copyright © 2001-2021, Tencent Cloud.

快速回复 返回顶部 返回列表