HD一条街

 找回密码
 立即注册
搜索
查看: 63|回复: 2

[1080p] [1978][快拳怪招][1080P修复版/1.9G][国语 中文字幕][MP4][巨龍/張一道/張正義][百度]

[复制链接]
发表于 2022-5-5 22:34:54 | 显示全部楼层 |阅读模式

马上注册,结交更多好友,享用更多功能,让你轻松玩转社区。

您需要 登录 才可以下载或查看,没有帐号?立即注册

x
# x* E/ k* Y2 ^# Z  @6 f) K
                               
登录/注册后可看大图
% a$ v( N# ]6 E
◎译  名 Enter Three Dragons / Dragon on Fire
2 F5 Y9 X5 J1 O! Q◎片  名 快拳怪招
2 J' t% [* {& N4 V1 _2 V◎年  代 1978% G) z& A! L8 P- E5 s
◎产  地 中国香港
5 F  ]+ `4 d5 }- M' h* d3 j◎IMDb评星  ★★★★★✦☆☆☆☆9 N: \) Z2 X9 S' h
◎IMDb评分  5.6/10 from 150 users
! x2 S% H/ i3 g  p! W" V◎IMDb链接  https://www.imdb.com/title/tt0079076// c# r' D% ?8 Y  f! R! @- R8 a* }! c0 [
◎豆瓣链接 https://movie.douban.com/subject/26717676/2 l7 B: Y( N$ [& k* l* Z
◎导  演 江洪 / Joseph Kong Hung
  E8 L# u4 c  g/ Q, H6 s' C: G' T◎演  员 杨斯 / Bolo Yeung) W, s4 D0 s% |! r% M
      江岛 / Tao Chiang8 E* G! b+ {. h; C. T; e1 I# e# T
      张力 / Lik Cheung' z* x% r# ^9 W+ ]' s
◎副  导  演 何志强 / Godfrey Ho Jeung-Keung; @9 z4 ^  W  B" l5 v2 [4 {
◎其  它 杜少明 / Siu-Ming To
5 ]& I+ b: N+ H/ X8 O5 L# c$ K6 g; p+ s- ?3 q/ o  e
◎简  介 # b. E8 p( G, l* u8 k
3 ]; ]: v& j; E7 g  U/ \
  一次黑道交易中,小钢扬被杀,货和钱被抢,黑鬼四处被追杀。这件事是老二史中山做的,他为了坐上老大的位子而借刀杀人,抢货和嫁祸给黑鬼。黑鬼连同洪少龙和几个好友去找史中山报仇,一场血战开始了......
# g. N* G/ a! k0 E& e9 m( e
) H6 D% [1 P$ l* c- c5 \
Quote:
General
2 D$ q9 e! \9 `. B% q0 |Unique ID                      : 286833571451119381936586658813583552013 (0xD7CA22ED29CD8FC06ECEA216D4BFEE0D)
4 s/ C: t! G, ?3 B1 y- d" vComplete name                  : Dragon on Fire 1978 WEB-DL 1080p H264 AAC-Dave.mkv
( h& Y4 }4 M# ^- U: RFormat                         : Matroska2 m. O0 \& w; F0 F# O
Format version                 : Version 4
9 D3 h* l) [$ dFile size                      : 1.96 GiB
3 ]( g* T. \6 J9 u$ F! d# |Duration                       : 1 h 27 min3 u+ f* Y5 d0 Y2 i3 Q9 r1 j: M
Overall bit rate               : 3 215 kb/s
6 k9 l4 [  ]* r7 a! ]Encoded date                   : UTC 2022-04-30 19:22:35
0 C+ @& b3 g* K6 ?! K5 e- w3 R! pWriting application            : mkvmerge v63.0.0 (‘Everything‘) 64-bit
- G3 z4 f" q7 ^8 w9 \Writing library                : libebml v1.4.2 + libmatroska v1.6.4" ]8 E' |# s  k# a
7 s- Y- `1 K- e( l; S
Video
; c' ^! g9 G8 H) g* o$ _ID                             : 1: }3 A- A9 O6 M/ U8 o  _
Format                         : AVC
6 c$ t! d$ W& `' M; fFormat/Info                    : Advanced Video Codec, ~: {$ J2 V0 O; P: [& e% ]9 M  r
Format profile                 : High@L4* a( i4 ?. q! E- d8 j: m1 p7 N0 k/ L
Format settings                : CABAC / 4 Ref Frames
/ D; m7 o( q5 h0 W  u( B: f$ ^Format settings, CABAC         : Yes
  v9 o! E3 Y+ O! vFormat settings, Reference fra : 4 frames
/ s% Q& F4 m, k) g3 V$ FCodec ID                       : V_MPEG4/ISO/AVC" f* h7 ~* l$ r2 c% ]3 X/ N; b
Duration                       : 1 h 27 min
$ k: ]' T% q% `0 v# PBit rate                       : 3 120 kb/s8 }8 _/ Y) d& W& i  a. m* m, R4 m
Width                          : 1 920 pixels2 i; K+ V1 [5 ^, O5 A9 ^, ~& o* D
Height                         : 820 pixels' o! x7 h. N' ]4 v! O* c6 u
Display aspect ratio           : 2.35:15 {# o" O& n+ I/ u' |
Frame rate mode                : Constant, C1 A' o1 S1 l: X5 s4 u, m( B8 @
Frame rate                     : 25.000 FPS2 t$ o+ Y6 |, q2 N7 l9 s
Color space                    : YUV
$ d8 m/ K5 V3 {/ w: G' WChroma subsampling             : 4:2:0# m* T* ^! d% Y/ B  A
Bit depth                      : 8 bits
, g8 c6 d+ D2 H/ m6 }) OScan type                      : Progressive
6 j6 @$ b' M" x% cBits/(Pixel*Frame)             : 0.079
5 r7 _5 b( L7 H( q( k1 y9 XStream size                    : 1.91 GiB (97%)
" v' N, D5 ?- k+ J1 n/ z7 M! HWriting library                : ptw-1.0.134 rcm-adapt vs-93 vwk
) r5 k# n9 P' b" j, X, vDefault                        : Yes8 ?5 }1 ]: A8 u0 I3 x
Forced                         : No$ {* t, \4 X7 t6 F: L/ z9 Y
Color range                    : Limited5 W& ?3 A! U5 h" N2 e
Color primaries                : BT.709
8 U; K9 x% y. u* A/ s4 [! ~Transfer characteristics       : BT.7092 L/ U: q% _5 u2 Y0 @' K
Matrix coefficients            : BT.709* d& e6 z( y6 u) a5 z' X/ L3 o

$ S3 ^3 g% ?" W1 F) kAudio2 B" X: J6 p) }9 Q
ID                             : 25 b) {. n5 x% d8 x
Format                         : AAC LC" ^* Y# M" f7 l6 @
Format/Info                    : Advanced Audio Codec Low Complexity9 f& `- I# W* B9 y5 j5 {  i
Codec ID                       : A_AAC-2
' C4 {! {1 f. p, E) i* V5 tDuration                       : 1 h 27 min
$ k% y' ]- Q& T/ g+ s0 g2 S2 RBit rate                       : 93.4 kb/s! {. u1 m2 F6 m, V- h7 A
Channel(s)                     : 2 channels
; Q0 m% O) d( V6 y, v) hChannel layout                 : L R
% r- W( i! e. Z3 J3 _( X/ E: WSampling rate                  : 48.0 kHz4 M+ f: E, j9 s; w4 G  |# L
Frame rate                     : 46.875 FPS (1024 SPF); }- R+ y& u  T; V6 Z! a
Compression mode               : Lossy
- V# L5 j- o7 H& Z* ~/ O  SDelay relative to video        : -42 ms
; X' n9 h3 K' h8 K5 CStream size                    : 58.4 MiB (3%); K) L% y& _% z3 ~' f
Default                        : Yes- @3 e9 R9 _, B/ U# G
Forced                         : No
4 J. P0 U, ~4 O6 i7 w+ g) u3 K

" y2 ?6 `" T6 N9 z
1 B) J8 d% K$ J5 W3 ?
                               
登录/注册后可看大图
, I' U1 X+ c8 L# F" N9 V
: F, Q/ P! o/ X2 U
                               
登录/注册后可看大图

+ i) U6 S: t) ^  a/ }: K

" U8 H9 H* z, w  X- D                               
登录/注册后可看大图
! o6 b! u  k. R9 i+ j3 g

* y) b' J) b5 ?; {9 |
; R( S) v% h2 Q
郑重声明:+ S& J8 v4 w( v  W0 R
本站提供的所有影视综艺作品均是在网上搜集,任何涉及商业盈利目的均不得使用,否则产生的一切后果将由您自己承担!本站将不对本站的任何内容负任何法律责任!该下载内容仅做宽带测试使用,请在下载后24小时内删除。请购买正版!

& L+ g$ [# w7 Y
4 R9 E2 B7 ?( P
6 B7 S+ E# g1 }8 E( R百度网盘% q8 G" T0 u) H. b- K

2 N9 K" z( S2 e- I' H3 ]
+ X' N" r9 J% L# I% _4 h0 M- B
" B: g& A1 k( r: Z; d9 u
游客,如果您要查看本帖隐藏内容请回复  VIP可免回复查看隐藏内容 详情请点击
发表于 2022-6-11 11:32:43 | 显示全部楼层
游客无权限浏览该内容
发表于 2022-7-7 01:23:27 | 显示全部楼层
游客无权限浏览该内容
您需要登录后才可以回帖 登录 | 立即注册

本版积分规则

封号公示|电子邮件联系本站hd1tj.net#[换成@]outlook.com|免责申明|HD一条街

GMT+8, 2022-8-14 02:07

Powered by Discuz! X3.4

Copyright © 2001-2021, Tencent Cloud.

快速回复 返回顶部 返回列表