HD一条街

 找回密码
 立即注册
搜索
查看: 96|回复: 4

[1080p] [1988][电影人][1080P修复版/766M][国语 无字幕][MP4][斯琴高娃/韩童生/辛明][百度]

[复制链接]
发表于 2022-5-5 22:32:41 | 显示全部楼层 |阅读模式

马上注册,结交更多好友,享用更多功能,让你轻松玩转社区。

您需要 登录 才可以下载或查看,没有帐号?立即注册

x

4 R5 }; Y7 E& e9 f: N1 ]                               
登录/注册后可看大图
: r! h& d: D) W2 }
◎译  名 Dian Ying Ren
1 O. C. C5 R, F◎片  名 电影人
" c. y+ j1 X" A& W' h+ c* c◎年  代 1988
5 C4 Q. t  ]& j/ E2 F3 S◎产  地 中国大陆
5 o4 W0 s6 c8 Q4 @  p$ s: E7 W* |◎类  别 剧情9 |7 o3 Z1 n7 H
◎语  言 汉语普通话
; }2 e  c1 `: B; W1 P5 i◎IMDb链接  https://www.imdb.com/title/tt0352293/# {" t# [  d- ]( E- t! I: ]
◎豆瓣评星 ★★★✦☆
: R& U' }0 L, M7 b1 W! A◎豆瓣评分 7.3/10 from 259 users- n! J8 i/ I, f% i# d
◎豆瓣链接 https://movie.douban.com/subject/1301372/6 o1 f  G( p' Z; i
◎片  长 95分钟: P  K, p8 H! o" `( J  ^6 c$ ]& V9 W
◎导  演 丁荫楠 / Yinnan Ding
$ t! L! d% h+ p# M6 `0 ^◎演  员 斯琴高娃 / Gaowa Siqin
) J% N9 \9 z& ]7 L1 b      韩童生 / Tongsheng Han
( V8 [) _' H& y1 |/ t7 G      辛明 / Ming Xin
4 k5 A4 f' }" m6 _& C; a+ ~" W$ R      邝平 / Ping Kuang5 \- ?% G2 v) R' n$ f
      熊源伟 / Yuanwei Xiong
4 Q" i5 n# ~! ]* q. p& Q% P" S( r, [      普超英 / Chaoying Pu5 Y. o2 s9 u6 m* w1 q
      姚锡娟 / Xijuan Yao5 |/ ?7 Z6 O& A2 R5 _( ]; I( x
◎编  剧 苗月 / Yue Miao
8 Y# z# m( ?3 h! O/ W% f5 x1 w      丁荫楠 / Yinnan Ding  y7 V. j: n9 x, }. _  t7 m
◎制片管理 戴大卫 / Dawei Dai% A& k2 |- S0 w. f
' p# B. @( L1 K* q$ s6 l
◎简  介 2 [7 ]  j, _0 l- z

; [- E/ t4 k1 c  一个电影摄制组正在紧张地工作,但大家的情绪并不高涨。主创人员意见分歧,导演盖寓也是一头雾水,无奈只好求助于编剧默默,发电报催她来修改剧本,否则电影就无法拍下去了。默默遵命赶来,与盖寓互吐心中郁闷:剧本虽经领导通过,但它带给观众的不过是一幅虚假生活画面,就像早已人人皆备的假面具,那么他们的电影应否将真实的生活展现出来,观众又是否有勇气直面生活中真实的自己呢?两人陷入创作前的抉择与苦闷之中。炎热的夏日,摄影棚里却是赶拍隆冬的一场戏。著名女演员舒华扮演的总工程师正向总指挥倾诉情怀。夜,舒华拖着疲惫的身体回到离别很久的家,日思夜念的女儿不在,家里乱作一团。舒华失神地坐在沙发上。宾馆的宴会厅里,各界人士纷至,争睹电影人的风采。年轻美丽的女演员陷在记者群中,闪光灯不停地闪烁,大家似乎合作愉快。舒华安祥地注视着一切,理智地回答人们的问题。衣香鬓影、觥筹交措之间,一项协议达成:摄制组借宾馆拍戏,宾馆依电影扬名,互利互益。盖寓对一切置若罔闻,只管喂饱肚子,躺在沙发上睡着了。宾馆的地下室是摄制组的临时宿舍,也是电影人真正的天地,他们在此无拘无束地生活。由于延期拍摄,招致宾馆人员不满。制片主任东求西告,竭力不突破预算,维持摄制组生存;舒华为这个大家庭‘走穴‘,演出传统节目招来观众嘲笑;默默为揭示生活的真谛,和盖寓在一起苦苦探讨。摄制组随着这一切,给予安慰和理解。电影拍完了,各人按照自己的生活原则继续走在生活的道路上。
3 B$ C- t9 @' ^8 z+ `  j# Z+ D) E+ x# w0 z  M7 v
◎幕后揭秘. K# z3 |, z, r8 {5 ?
) o) l4 Q8 d" m. `. T) f8 U
  影片为中国第一部关于电影的电影,通过一个摄影组摄制电影的故事,展示了电影的制作过程,通过其间的矛盾冲突和片中影片创作者的思想斗争,表现出电影的意识形态特征,引导观众反思电影的本质和社会功能。0 Q1 w) g; M4 G: _+ M6 Z7 K
8 j, e' I' `. |6 B4 H+ p% o8 e  Y
Quote:
General
; M9 M; R4 H5 x0 Z) @. j1 V* uComplete name                  : Dian Ying Ren 1988 WEB-DL 1080p H264 AAC-Dave.mp4
# h/ R, N. C1 `; C6 D" yFormat                         : MPEG-4
9 L. y1 R2 [# _+ F7 ~. T" H* |Format profile                 : Base Media
9 @! t3 z8 {# y* j/ `8 K( Q5 PCodec ID                       : isom (isom/iso2/avc1/mp41)
) _: M6 W) W" g7 d2 r  UFile size                      : 766 MiB
( Y: |2 V6 {" ]; k! ~Duration                       : 1 h 32 min! p) D7 I" d" c% C+ B% {
Overall bit rate mode          : Variable  e0 p5 l$ w( s# ~4 }' S# g
Overall bit rate               : 1 155 kb/s8 Q! |3 S; M3 O( k
Writing application            : Lavf59.16.100# c  F4 p* J8 b2 l

5 K* x3 C/ Q: J. e7 ?Video
; U+ ?: N% t: o# s/ Y1 {2 d2 R) NID                             : 1
  x7 I8 r% V6 h' n8 LFormat                         : AVC
0 s1 c- ?" D+ P0 H% I! N, sFormat/Info                    : Advanced Video Codec
* E0 v( C% C! |0 JFormat profile                 : High@L4; I( n: M7 g2 k: b
Format settings                : CABAC / 4 Ref Frames8 y# k- v( X5 e5 l4 q0 d4 O( Y& i
Format settings, CABAC         : Yes
. b1 j# [4 B' S2 W- u9 AFormat settings, Reference fra : 4 frames$ v; S3 Y, i. ^: T1 \8 o. N6 R
Codec ID                       : avc1
* i' a% l4 r, c  b" p$ B4 GCodec ID/Info                  : Advanced Video Coding
7 `; U5 s6 a6 J7 j! iDuration                       : 1 h 32 min! b3 s/ [5 K1 g
Source duration                : 1 h 32 min
1 S5 D- Y+ h* iBit rate                       : 1 007 kb/s
" ~9 n6 I2 H' W2 d! i( n" Y' E1 HMaximum bit rate               : 1 056 kb/s7 Z! b; L* O2 u! N
Width                          : 1 920 pixels
5 [: A; H; X/ H) n* |/ l0 IHeight                         : 772 pixels
7 Y# e; r# ?& j( O9 g7 QDisplay aspect ratio           : 2.4871 N0 C) }3 ~# f
Frame rate mode                : Constant
4 d0 z' B9 I+ A- e" U3 GFrame rate                     : 24.000 FPS
: W4 H2 O; g' h0 D3 l- N6 zColor space                    : YUV
2 y# B/ V$ e' }  D  UChroma subsampling             : 4:2:05 z6 L. j, c, u
Bit depth                      : 8 bits
! C" P; F8 B: O, @/ ~4 QScan type                      : Progressive: m" m, r7 |8 ~0 L/ h
Bits/(Pixel*Frame)             : 0.028
$ s4 @1 H# P. M5 E2 r  s+ CStream size                    : 668 MiB (87%)- J$ C0 Q7 ~* W. Y, j% R/ M( t1 m, o
Source stream size             : 701 MiB (91%)2 \2 v% B  v: H8 L
Writing library                : ptw-1.0.140 rcm-adapt vs-93 vwk0 r% S2 s8 Q2 ^6 j
Color range                    : Limited
' _- [+ s7 V' `7 E  P$ h9 ]3 r% OColor primaries                : BT.709
4 e6 i- B0 z" W* u" JTransfer characteristics       : BT.7092 x; U3 j9 Y1 r" Y) q7 D3 b; i/ B0 B$ b
Matrix coefficients            : BT.709' d% Z$ f1 ?! W# Y8 F, B
Codec configuration box        : avcC
, R0 U7 f. B$ ?
; |. h& U/ h) N# h2 tAudio* ?1 _$ D3 }3 A/ B$ f
ID                             : 2
) \" V% P# c- T- a6 ~# IFormat                         : AAC LC) U  `7 d# G; w% T
Format/Info                    : Advanced Audio Codec Low Complexity
# N; v  Z( T6 B, D+ J% ZCodec ID                       : mp4a-40-22 d; [+ @$ }7 E5 [$ `1 q, [  u) W( q
Duration                       : 1 h 32 min
7 k- ]) _/ B' {: mBit rate mode                  : Variable$ {# C4 g& r' r* [
Bit rate                       : 93.4 kb/s* ]7 B1 u( B. j8 k
Maximum bit rate               : 96.8 kb/s / 96.8 kb/s
" D# n; s! f$ Y$ P$ `Channel(s)                     : 2 channels
: P0 O# f* O* k' n' V  UChannel layout                 : L R# ^- N2 J, X2 ]& M' B! S
Sampling rate                  : 48.0 kHz9 g- J0 Z3 R1 ~- k+ t( v6 X1 p
Frame rate                     : 46.875 FPS (1024 SPF)
! q* k9 Q/ b# B' UCompression mode               : Lossy
, B7 w: ?1 i/ b1 i% T( c6 R' NStream size                    : 61.9 MiB (8%)
  G: U7 m/ }  n7 J* [! s& O: C% zDefault                        : Yes' k/ ~' I6 e+ A2 Q
Alternate group                : 1

& e5 }" x$ D6 @3 F% H: C7 O+ `+ H+ E6 N- `, [- U; p

+ V, z! m  i! n4 \                               
登录/注册后可看大图

0 d( @$ y" j; s/ a8 ^& r

5 T! w0 o3 a2 `2 }6 {) `                               
登录/注册后可看大图
7 H% R2 Y4 W& @  C
6 Y2 b# ^" o2 w/ f7 L4 ]0 O
                               
登录/注册后可看大图

# r5 f; S6 e3 H
7 H- C  z+ h- i% d* S& f1 c1 e, s7 J& ^8 C$ [
郑重声明:* d0 n" b9 G0 \& M
本站提供的所有影视综艺作品均是在网上搜集,任何涉及商业盈利目的均不得使用,否则产生的一切后果将由您自己承担!本站将不对本站的任何内容负任何法律责任!该下载内容仅做宽带测试使用,请在下载后24小时内删除。请购买正版!
; j' y, w- V* m: P

/ i  A* ?% N. W7 N9 U$ w- o" D( P+ h! I/ y( x  F/ K4 B
百度网盘' s: _/ ]/ n& W1 `5 q  P* R

) d6 Z1 [* O! h' f( @* k! k2 j6 s/ S' o* Y* I: A

2 j* `9 E. p  r0 Y+ p5 T: c
游客,如果您要查看本帖隐藏内容请回复  VIP可免回复查看隐藏内容 详情请点击
发表于 2022-5-8 11:33:41 | 显示全部楼层
游客无权限浏览该内容
头像被屏蔽
发表于 2022-5-8 11:51:46 | 显示全部楼层
提示: 作者被禁止或删除 内容自动屏蔽
发表于 2022-6-11 00:14:56 | 显示全部楼层
游客无权限浏览该内容
发表于 2022-6-11 00:38:52 | 显示全部楼层
游客无权限浏览该内容
您需要登录后才可以回帖 登录 | 立即注册

本版积分规则

封号公示|电子邮件联系本站hd1tj.net#[换成@]outlook.com|免责申明|HD一条街

GMT+8, 2022-8-14 13:37

Powered by Discuz! X3.4

Copyright © 2001-2021, Tencent Cloud.

快速回复 返回顶部 返回列表