HD一条街

 找回密码
 立即注册
搜索
查看: 44|回复: 6

[1080p] [1985][瓜棚女杰][1080P修复版/1.47G][国语 无字幕][MP4][林泉/张九妹/徐东方][百度]

[复制链接]
发表于 2022-5-5 21:59:21 | 显示全部楼层 |阅读模式

马上注册,结交更多好友,享用更多功能,让你轻松玩转社区。

您需要 登录 才可以下载或查看,没有帐号?立即注册

x

/ ~# S; h" |6 \; \3 [/ ~0 _                               
登录/注册后可看大图
1 X- U! L- L8 }' W2 ~( }* l0 d
3 J' k: }( z/ H* V, ]- ?
◎译  名 A Herroine in Melon-Shed
; O6 k5 k3 y& @! @& u$ e◎片  名 瓜棚女杰5 ~5 m8 Y) J& r$ c
◎年  代 19851 A" p7 t7 w: d
◎产  地 中国大陆# v& z* k$ v4 F
◎语  言 汉语普通话- ?) ^' L# H) R) L& o6 N
◎上映日期 1985
# F( [* g/ \& Q: t. {8 z  Z" j◎IMDb链接  https://www.imdb.com/title/tt12517856/
  t0 w" ?( s2 e# z) V" _: o◎豆瓣链接 https://movie.douban.com/subject/4764331/% _9 C( U( E$ E2 P% f+ @' y
◎导  演 王毅 / Yi Wang! h! E8 ~# \* d# H% o5 A
◎演  员 林泉 / Quan Lin
+ f4 z6 Z# d0 {: e& w. X      张九妹 / Jiumei Zhang* l, ]* r, L3 f9 d) Y) X, s
      徐东方 / Dongfang Xu
" a: i9 m1 l# Q' R) D) l& t      颜彼得 / Bide Yan. \. w  [8 k1 o' x
      牛士军 / Shijun Niu | 饰 柳梢青
& B% A. t: I( s5 ?  e) Y& i◎编  剧 吴培民 / Peimin Wu4 C5 c+ Z4 n3 ^# O* F. w- O. v2 R
      于力 / Li Yu
+ G( ]! P" [$ I  L. M* |◎美  术 林洪添 / Hongtian Lin% x( B7 [$ U$ x/ u" C( C6 z, R

$ x8 T) ^3 K/ Q/ r◎简  介 ( }3 K8 k8 P; f& s, `. q. O
3 F" ^" r. k1 S( P9 B+ s" w9 k
  30年代的北运河畔,柳巷村种瓜把式柳梢青青和她的女儿眉子是户侠义人家。眉子自幼丧母,与武艺高强、身怀绝技的父亲相依为命。她对同村的教书先生吴镰一片痴心,但却怕自己的`火`命克了吴镰的`水`命,不敢吐露真情。她常常捧着挂在脖子上的那把刻有`火命忌水`的铜锁,怨恨自己命不好!一次,她堵截了人贩子花子金的`放鹰`船,从船上救出一位如花似玉的姑娘花三春。眉子掩饰住内心难言的痛苦,亲自替吴镰与花三春操办婚事,促成吴镰与花三春的姻缘。花三春是花小金的女儿,她从小受不良环境的熏染,泼辣妖媚,好逸恶劳。但她聪明灵俐,渴望自由,渴望真正的爱情。为此她执意拒绝做大恶霸龙头少爷的九姨太。和吴镰的结合,使她得到了从前所享受不到的家庭温暖与幸福。三春有了身孕,眉子格外地照顾她,经常到吴家帮着做事。没想到,这却引起了三春的误解,她怀疑眉子和吴镰是`明来暗去藤缠树`,大耍泼劲,恶语伤人。为这,柳家和吴家断绝了来往。此时正值抗战前夕,运河两岸风云滚滚。吴镰立志投笔从戎,积极参加抗日救亡活动。他用练武方式团结群众,三番五次恳求柳家父女把武艺传授给乡亲们。柳家父女以大局为重,放弃前嫌,两家终于和解。吴镰从事地下活动,整日早出晚归。三春怀疑丈夫有了外心,便暗中盯梢。一次,吴镰把一位伤员刚刚藏到柳家瓜棚里,敌人便追踪而至。眉子掩护伤员迅速转移后正欲离开瓜棚,花三春跑来闹事,硬要眉子还她吴镰。情况紧急,眉子急中生智,将三春打昏后藏到草垛里。敌人冲进瓜棚,为掩护三春不被敌人发现,眉子临危不惧,只身与敌人拼死搏斗。三春在草垛里看着眼前发生的一切,终于明白了真情,又悔又恨,发誓一定要报答眉子。花子金为报失女之仇,杀气腾腾闯进柳巷村。眉子寡不敌众,被花子金抓住。危急关头,花三春救出眉子,并将计就计,杀死企图侮辱她的人贩子贾二哈。花子金见女儿背叛了自己,恼羞成怒。花三春大义灭亲,举枪打死了作恶多端的父亲,自己也不幸惨死在花子金的冷枪下。北运河滚滚东流。眉子站在河边,望着翻腾的河水,她拽下脖子上的铜锁,把它扔进河中。她将开始自己新生活。
( n" o0 e  _8 M! H: r- \
' S' U$ T3 f' r1 k1 S& h# X
Quote:
General- v  \, ?1 `+ |; }( O2 o
Complete name                  : A Herroine in Melon-Shed 1985 WEB-DL 1080p H264 AAC-Dave.mp4: R& O4 t8 n( y" M5 A6 ]0 s* Q$ p
Format                         : MPEG-4
# p( I! `' g! @" {2 z% oFormat profile                 : Base Media
. q& B& y. G& p+ Y: nCodec ID                       : isom (isom/iso2/avc1/mp41)3 X; r9 n1 r$ Z( Q! R( y
File size                      : 1.47 GiB7 A$ |5 @0 b: e5 e! L
Duration                       : 1 h 36 min0 t: w3 L* z7 x- L* }
Overall bit rate mode          : Variable
) }) S. `; H1 r& J; ]7 h0 uOverall bit rate               : 2 174 kb/s
- ~# q" E! ]4 s5 ]  f! e8 K- m' YWriting application            : Lavf59.16.1003 J* p5 b4 F( K2 P4 }' D
$ L% k1 f1 i& ~
Video
/ T7 k8 ~6 |$ E/ j  F; |% rID                             : 1
% l2 t+ p3 |, OFormat                         : AVC
7 g3 `* [0 {9 [, f7 PFormat/Info                    : Advanced Video Codec5 l" @$ G8 }( ]. N) \1 h- t# T" ^( t
Format profile                 : High@L4' L* d/ Q+ u- A' z, ?9 g. c. r
Format settings                : CABAC / 4 Ref Frames
; a1 A. x: U. v4 hFormat settings, CABAC         : Yes7 u( E2 W& Y: ]  U' ^- z  m* ~% l
Format settings, Reference fra : 4 frames6 s  v; @8 t9 L) V2 H
Codec ID                       : avc1' I: `4 K; ]. M3 C- ^' |: I# _2 j
Codec ID/Info                  : Advanced Video Coding* U( R7 f4 V8 v: e8 C6 {" O% L" c8 T0 }
Duration                       : 1 h 36 min
8 K7 U  `) c" a1 ^4 H3 qSource duration                : 1 h 36 min
5 @! z  D" j$ p* g  ?Bit rate                       : 1 985 kb/s; v( l/ S( @8 Y+ N+ m& u- F" D
Maximum bit rate               : 2 075 kb/s
8 j1 ?' i4 S' L( S; H' YWidth                          : 1 920 pixels
9 p8 v1 G5 [5 KHeight                         : 744 pixels' n6 g$ Y: A" o3 L6 F! k. j
Display aspect ratio           : 2.5816 w% ~% |! [# O* r& o$ A
Frame rate mode                : Constant
0 p8 m6 @, j/ [+ Y/ q( LFrame rate                     : 24.000 FPS
2 P# \/ S; p+ e! nColor space                    : YUV
5 [2 V& E) E5 V% M. U  \. OChroma subsampling             : 4:2:0
. ?; F) x/ r8 C! jBit depth                      : 8 bits0 g) ]* H8 f* N6 {
Scan type                      : Progressive
& ^$ J; i' g- J5 DBits/(Pixel*Frame)             : 0.058' e& y8 {: `! r
Stream size                    : 1.34 GiB (91%)
9 E$ ?0 P9 P, Y: v% wSource stream size             : 1.40 GiB (95%)" R) p9 ]5 x  g; h
Writing library                : ptw-1.0.140 rcm-adapt vs-93: f# A+ ?3 Q; `
Color range                    : Limited
* C4 a" }% b# _6 mColor primaries                : BT.709
2 }3 F+ }) i* ?$ b% jTransfer characteristics       : BT.7097 a- U$ m3 U- ~
Matrix coefficients            : BT.709/ S7 [* Y7 B: w. r% x/ g
Codec configuration box        : avcC
  ?3 G, ^, ?% L3 M4 K6 w1 E7 S7 P: _9 `# p; F* m5 e0 D$ S
Audio* b' U7 A1 e. c, y: D. H: n
ID                             : 2
- C3 c- P9 G  R$ T9 VFormat                         : AAC LC
, W, h$ R0 {- x) b0 \Format/Info                    : Advanced Audio Codec Low Complexity
4 S5 p9 ^6 F/ _  {Codec ID                       : mp4a-40-2
0 v, q) W: y. _& P' XDuration                       : 1 h 36 min  y0 [; z" Z  J5 h! M2 L/ e
Bit rate mode                  : Variable) W6 b) C8 @  |! t: A
Bit rate                       : 93.4 kb/s/ G8 p% d! T  f2 m( `; v" F, S
Maximum bit rate               : 96.0 kb/s / 96.0 kb/s! s6 x. }+ o( F* A; ~! W
Channel(s)                     : 2 channels
+ }1 D. f' ~+ ^8 x: y# r% CChannel layout                 : L R
) i1 @# r* B6 A3 q( d" v# KSampling rate                  : 48.0 kHz$ i. g# v! z1 d: \. x* B* m
Frame rate                     : 46.875 FPS (1024 SPF)
. \+ Y' R9 E, j  s; wCompression mode               : Lossy
9 L7 }' s: n* _Stream size                    : 64.7 MiB (4%)+ k2 m8 U+ t  U7 a* E
Default                        : Yes
& [* j& F9 H+ L9 X+ Y, ^Alternate group                : 1
4 A% y. K" G) Y* e% F+ W6 Y

# ?7 o  n4 t# f8 W$ W( u% J$ d/ _7 O
) X7 D5 m" Q2 {. e
                               
登录/注册后可看大图
2 B' w: b3 G7 i

: k5 g: j- b" z0 C                               
登录/注册后可看大图

8 k7 e; W) k- W2 ?$ S

9 \0 p' Z2 r8 y                               
登录/注册后可看大图

2 J  j8 R3 H; `" i% a) `# ^+ u
2 o/ U5 e/ G: C  K$ k6 p
, d! P8 F/ H4 F1 h6 T0 f) a
郑重声明:0 h3 D8 b5 F. J6 P9 }8 p' F
本站提供的所有影视综艺作品均是在网上搜集,任何涉及商业盈利目的均不得使用,否则产生的一切后果将由您自己承担!本站将不对本站的任何内容负任何法律责任!该下载内容仅做宽带测试使用,请在下载后24小时内删除。请购买正版!
$ `# V  {: m& \0 |6 I3 M
' a5 M  S# H  b- H% {, J; x

( _$ U  g$ \6 ]' Q- T百度网盘
( B5 T6 v4 |5 R: ]0 u) a: l0 P# a

6 u; x6 h8 Y; _8 v, l+ Q8 Y& E# D% @. u2 w# I& i
游客,如果您要查看本帖隐藏内容请回复  VIP可免回复查看隐藏内容 详情请点击
发表于 2022-5-6 07:52:56 | 显示全部楼层
游客无权限浏览该内容
发表于 2022-5-12 09:49:38 | 显示全部楼层
游客无权限浏览该内容
发表于 2022-5-16 09:38:37 | 显示全部楼层
游客无权限浏览该内容
发表于 2022-5-26 00:16:55 | 显示全部楼层
游客无权限浏览该内容
发表于 2022-5-26 06:13:58 | 显示全部楼层
游客无权限浏览该内容
发表于 2022-6-22 01:03:38 | 显示全部楼层
游客无权限浏览该内容
您需要登录后才可以回帖 登录 | 立即注册

本版积分规则

封号公示|电子邮件联系本站hd1tj.net#[换成@]outlook.com|免责申明|HD一条街

GMT+8, 2022-8-17 20:46

Powered by Discuz! X3.4

Copyright © 2001-2021, Tencent Cloud.

快速回复 返回顶部 返回列表