HD一条街

 找回密码
 立即注册
搜索
查看: 86|回复: 10

[1080p] 双鬼血战[国语 无字幕]Forced Nightmare 1992 WEB-DL 1080p H264 AAC-Dave 1.9G

[复制链接]
发表于 2022-4-22 11:43:34 | 显示全部楼层 |阅读模式

马上注册,结交更多好友,享用更多功能,让你轻松玩转社区。

您需要 登录 才可以下载或查看,没有帐号?立即注册

x
. Y5 J, ~0 R' \% f' }  v1 d/ `& v0 j
                               
登录/注册后可看大图

% @1 ~$ A$ n9 r◎译  名 Forced Nightmare / 猛鬼旅行团 / 双鬼血战# ~6 g. S' z2 C) I
◎片  名 哗鬼旅行团3 Z4 ^* o) H  ]3 S. P* ?
◎年  代 1992
: w/ [( S: r3 x4 i; N1 c◎产  地 中国香港# j2 p: x! N" E  Y. N! t
◎类  别 喜剧 / 恐怖
+ V& v+ B' M" e◎语  言 粤语* B7 F* B; U+ C# T7 F
◎上映日期 1992-03-26
0 ]: |2 E; w7 L2 Q& |; E8 D◎IMDb评星  ★★★★★★☆☆☆☆- ^0 \+ A! o1 }$ ~
◎IMDb评分  5.8/10 from 61 users
& m( W2 w% g/ L+ T9 k% j0 R◎IMDb链接  https://www.imdb.com/title/tt0104456/
4 N6 I/ P% ~( ~◎豆瓣评星 ★★★✦☆8 U0 n* w1 a7 ]' Z; }7 U
◎豆瓣评分 6.6/10 from 5,087 users
) t) O$ s' r" c8 H1 R2 J& G◎豆瓣链接 https://movie.douban.com/subject/1301257/% k- A. ~! h. [  @$ {
◎片  长 100分钟
; \" h8 E4 A, ^9 v1 g* b8 v◎导  演 刘仕裕 / Sze Yu Lau9 l  k) O# l  X9 o0 \- x; D
◎演  员 林正英 / Ching-Ying Lam
& {  U/ N" u% k" m7 w- l      吴君如 / Sandra Ng
" R% {$ g' {% J      邱建国 / Jianguo Qiu) c' F' B& ?, D/ _
      曹查理 / Charlie Cho/ x) s, `* z) t4 l- |
      胡枫 / Fung Woo
- a6 ?8 ]: A) _1 `( L: y! O      熊欣欣 / Xinxin Xiong
1 I$ U0 E8 T7 V) a; X      黄一飞 / Yut Fei Wong; o8 M! T$ ?! w/ f  r; L
      李文泰 / Wen Tai Li
& I/ s2 C2 _, z/ p; y      罗维 / Wei Lo) U6 k2 o7 ?0 v8 y" I
      于芷蔚 / Chi-Wai Yu6 m6 M, Z0 e  w* j+ ^7 k! l5 k
      成奎安 / Fui-On Shing) i! F9 `! U9 U9 B
◎编  剧 张华标 / Wah Bill Cheung# I3 a- ?& M3 a4 D0 E1 u
      薛家华 / Ka Wah Sit
. f0 ?4 \7 V  X4 X+ V8 D; I      方世强 / Sai-Keung Fong# N: V7 a: v! A# u* [& _
◎摄  影 黄文云 / Wen Yun Huang
& L+ T. D! W- _$ A- ?+ W- |4 T/ C◎其  它 罗礼贤 / Bruce Law
* G; ~# _( B9 k+ s3 Z' |4 Q
) c. ]  J' r5 v/ ^' L5 p+ h◎简  介 
% K0 r" w/ M* T# Q: N# {" G3 i% j& |' S$ |, i0 w% p
  潮州姑娘李嘉玲(吴君如 饰)拥有特异功能,她经常帮助邻里乡亲解决各种疑难问题,在乡村野里颇有名气。某天她被高官以游客的身份派往九龙执行一项秘密任务,她所乘坐的巴士因司机招惹了孤魂野鬼而遭到报复,车毁人亡。鬼魂纷纷钻入死者体内,唯嘉玲一息尚存幸免遇难。众鬼连同嘉玲乘车继续向九龙前进。. k+ E; N  V6 b/ y
  计划与嘉玲接头的一眉道长(林正英 饰)路遇众鬼所乘之车,情知不好,尾随跟踪,终与嘉玲接头。道长告诫她和其他旅客下榻的宾馆有鬼,嘉玲始终不信,直到……
, c* W/ m0 m" l. P
5 {: Y" J# t' y; ?$ n! G6 v; K
Quote:
General
& F& ?  M# X& b# O' k# y5 gComplete name                  : Forced Nightmare 1992 WEB-DL 1080p H264 AAC-Dave.mp4# J0 U% e: Q' J
Format                         : MPEG-4
" ]$ Q) C6 c, kFormat profile                 : Base Media
, H2 z9 ?+ I! J5 A! C2 Q/ SCodec ID                       : isom (isom/iso2/avc1/mp41)
" k' D" J- E. ^  R9 CFile size                      : 1.90 GiB
; O* w# ?- Q4 J3 f6 IDuration                       : 1 h 21 min
4 C" [4 U8 z7 B, x$ r- u1 \+ Z0 b" a2 sOverall bit rate mode          : Variable0 z5 k+ O4 q0 w: r
Overall bit rate               : 3 335 kb/s
( }% ^2 _! o0 \2 }' WWriting application            : Lavf59.16.100$ S- s$ t/ p/ N* Q  D6 ~5 ?

/ m$ b9 n5 V$ d2 R* M9 d8 |9 ~Video
; H- \7 q, F5 G" ~- q. MID                             : 1
! o. t. Y- L3 O5 q5 |# e' iFormat                         : AVC
. O& ?9 O6 v5 yFormat/Info                    : Advanced Video Codec
: l; D5 b0 R* e# s0 Z9 _7 H6 D4 T( ~Format profile                 : Main@L4
3 G2 Q0 s. x2 J8 |& aFormat settings                : CABAC / 4 Ref Frames/ J1 m  }, y% [: t
Format settings, CABAC         : Yes) x$ e: Z7 i) k5 h0 Y& g
Format settings, Reference fra : 4 frames" o6 o% N/ V% k
Codec ID                       : avc1# Y6 w5 v/ I+ p  F# j: H# @) \' ^
Codec ID/Info                  : Advanced Video Coding
  B7 G6 ^" t8 z4 b+ u( kDuration                       : 1 h 21 min
' ^. p8 s; k% _  C5 x  z. y$ HSource duration                : 1 h 21 min
4 r, O, e# _. J( hBit rate                       : 2 938 kb/s
/ [/ q6 i* v2 n1 QMaximum bit rate               : 3 076 kb/s- [. K% @4 w0 y  F9 A- P" x+ p
Width                          : 1 920 pixels
& k" d" Z# r# W0 sHeight                         : 1 080 pixels
5 ~& i$ q( i1 s7 iDisplay aspect ratio           : 16:97 Q9 H  L2 [/ ~# T
Frame rate mode                : Constant
9 M: u, _# y: n  zFrame rate                     : 25.000 FPS2 u  k- y/ N0 G" }! S! i+ l; w
Color space                    : YUV+ F0 }( b2 V- {" o* ~
Chroma subsampling             : 4:2:0; l2 S( e' Z% [% n! w2 J
Bit depth                      : 8 bits
" n9 ]2 R+ f. m& |! s4 CScan type                      : Progressive# B( x/ y/ ]! ^+ Y
Bits/(Pixel*Frame)             : 0.057+ x" l" C, p- \1 _
Stream size                    : 1.68 GiB (88%)
4 K1 ?  Y& W* d1 Z5 fSource stream size             : 1.76 GiB (92%)
8 V. @+ `  _. {* U. \Color range                    : Limited
5 l/ T! r+ R9 m* R' C3 ^Color primaries                : BT.709
3 G+ D, r+ B3 \# ?6 ]. `Transfer characteristics       : BT.709
* v. V- e, \! K9 nMatrix coefficients            : BT.709# I, d, \+ O1 h2 a. k* G8 B
Codec configuration box        : avcC
6 I1 ?, B) `- h- V
9 ~- [* |6 n0 y" _  \+ Z, {Audio* o8 ^3 d2 t0 x5 ^
ID                             : 21 {- O6 @( U. a8 }  k( I
Format                         : AAC LC
# k  [$ T, Z, mFormat/Info                    : Advanced Audio Codec Low Complexity. B$ x) E1 R0 f6 h' K9 r
Codec ID                       : mp4a-40-2
0 }% r  r' n9 R4 [& o9 x4 ?, SDuration                       : 1 h 21 min
$ ]1 N; y6 g4 b+ l8 v; D) A& RBit rate mode                  : Variable
* q9 W$ Y( M: S) l* ?Bit rate                       : 256 kb/s / 256 kb/s4 ~9 Q0 f! A. z) t
Channel(s)                     : 2 channels
$ D( z4 t2 Y1 {8 z" _9 SChannel layout                 : L R: N% \' `  `% ^# F0 `9 T$ i7 {
Sampling rate                  : 44.1 kHz7 z( a- Z. o6 b3 ~
Frame rate                     : 43.066 FPS (1024 SPF)
3 S- O7 w" U+ D' T6 ?/ T. NCompression mode               : Lossy+ m- O5 G' Z/ t  ^
Stream size                    : 148 MiB (8%)
2 Z( x  U8 ]7 I. M$ u, I+ |) mDefault                        : Yes
- x; f8 \, {) [3 Q( h0 cAlternate group                : 1" M) f+ w1 E; `

  R3 F5 {- @" m, G! o  A! D' t
: f1 u# S  c0 ?3 f6 V
. L) J! ]# v4 ^6 y3 `1 |: G
                               
登录/注册后可看大图

+ v, [/ y1 R& a8 N
0 y9 ]; Z, w4 G* n- ]
                               
登录/注册后可看大图

8 Z% M! v" m% \4 Y

* Y$ m: k( n6 i( ]+ [/ Z5 Y                               
登录/注册后可看大图

3 R) h% K& F% o$ ]+ D7 S3 l% B' o/ q) L/ v  P' K. h
2 b6 ~; s' K" g
郑重声明:
! R; D0 ?" D9 d) }. C本站提供的所有影视综艺作品均是在网上搜集,任何涉及商业盈利目的均不得使用,否则产生的一切后果将由您自己承担!本站将不对本站的任何内容负任何法律责任!该下载内容仅做宽带测试使用,请在下载后24小时内删除。请购买正版!
8 }, ?- y. z) s6 z! @

$ W% P8 e9 O: u' v" m! x. g) B8 {! t0 H" S8 X" ?
百度网盘
6 l; O7 m5 t6 n1 U% `, ~9 Z2 k1 P) p2 W* j' b  `( q

% B: N1 w$ P" h* {- b8 Y9 I& C  Z& U, P9 H
游客,如果您要查看本帖隐藏内容请回复  VIP可免回复查看隐藏内容 详情请点击
发表于 2022-4-22 11:48:07 | 显示全部楼层
游客无权限浏览该内容
发表于 2022-4-22 12:03:40 | 显示全部楼层
游客无权限浏览该内容
发表于 2022-4-22 13:15:51 | 显示全部楼层
游客无权限浏览该内容
发表于 2022-4-25 22:51:42 | 显示全部楼层
游客无权限浏览该内容
发表于 2022-4-26 12:36:04 | 显示全部楼层
游客无权限浏览该内容
发表于 2022-4-28 00:01:55 | 显示全部楼层
游客无权限浏览该内容
发表于 2022-4-28 00:50:25 | 显示全部楼层
游客无权限浏览该内容
发表于 2022-4-28 01:04:47 | 显示全部楼层
游客无权限浏览该内容
您需要登录后才可以回帖 登录 | 立即注册

本版积分规则

封号公示|电子邮件联系本站hd1tj.net#[换成@]outlook.com|免责申明|HD一条街

GMT+8, 2022-5-24 12:04

Powered by Discuz! X3.4

Copyright © 2001-2021, Tencent Cloud.

快速回复 返回顶部 返回列表