HD一条街

 找回密码
 立即注册
搜索
查看: 78|回复: 6

[1080p] 绝桥智多星[国语 无字幕]The Big Score 1990 WEB-DL 1080p H264 AAC-Dave 2.37G

[复制链接]
发表于 2022-4-22 11:33:41 | 显示全部楼层 |阅读模式

马上注册,结交更多好友,享用更多功能,让你轻松玩转社区。

您需要 登录 才可以下载或查看,没有帐号?立即注册

x

" L% f9 p  d: M. [6 b  }- Y8 D                               
登录/注册后可看大图
6 r  m& t9 [; T
◎译  名 The Big Score / 龙虎大老千- D4 |0 I; K0 b$ M/ I
◎片  名 绝桥智多星
2 \, b% w' s/ T( c8 a- Z- ^; y! ~◎年  代 1990
. L9 ?+ t4 H6 _9 E◎产  地 中国香港, b3 }* O5 ]2 p; {6 `8 J
◎类  别 动作 / 犯罪7 Q! ?# i& D" F6 b8 W1 @2 Y
◎语  言 粤语6 F) X5 C6 z1 X1 M  A7 S
◎上映日期 1990-09-27(中国香港)# Z3 J/ _! b8 s0 D
◎IMDb评星  ★★★★★✦☆☆☆☆" Z6 J8 A! r; ]; u
◎IMDb评分  5.5/10 from 40 users6 d5 A$ H" O( Q4 d& @
◎IMDb链接  https://www.imdb.com/title/tt0099905/
( [* r2 @3 \7 b- B" q◎豆瓣评星 ★★★☆☆
6 G4 E) H" G+ O8 d& y◎豆瓣评分 6.4/10 from 487 users9 i% Q, [/ B( L$ L+ e6 ]
◎豆瓣链接 https://movie.douban.com/subject/1298220/
& q1 K: H/ p) A0 o* l% n◎片  长 106 分钟
: _0 U* U# O3 }& \8 _+ V◎导  演 王晶 / Jing Wong- r3 E5 j( \  a/ A9 o  o
◎演  员 李修贤 / Danny Lee
. z4 w& R7 o3 ]& t$ w, i      王晶 / Jing Wong
6 j) h# C  C6 U6 P      王祖贤 / Joey Wong; D' S# O+ m4 M# A3 s9 p% v2 E
      龙方 / Fong Lung
5 Z6 c" W, z8 I3 g$ i8 `      邓萃雯 / Sheren Tang
. U5 T- f7 {4 V% ]      简达华 / Tat-Wah Gan2 Y8 W, Q+ v( d8 B! P9 ~, X9 k
      于芷蔚 / Chi-Wai Yu8 Q2 T6 X% ?% O. f* N# u0 s/ X
      麦克·阿伯特 / Mike Abbott+ [; c; A2 J: D5 a$ ~  w( a
      黄秋生 / Anthony Wong Chau-Sang0 M; e  H$ V& m% {) B2 ?
      王天林 / Tian-lin Wang5 \8 F( ^4 m, d4 v2 G
      伍国健 / Kwok-kin Ng
, l# P9 A- @  K" S$ N( Z# |- G◎编  剧 王晶 / Jing Wong1 J) i. |7 V5 L0 g! n
◎制  片  人 王天林 / Tian-lin Wang
+ ]5 T! Q7 M& j+ R9 I) `; u◎摄  影 李子衡 / Gigo Lee& O& O' l4 |2 ?- p! J6 H
◎其  它 罗礼贤 / Bruce Law* f0 h% S, ?) {' D% K; j
' r& e* P8 [& `; Z- W- r8 U. g: ~7 G
◎简  介 
. h( m+ V  W5 _* S: s2 {. F4 c
2 Y2 q3 G" ?, Q2 k  龚正(李修贤 饰)是一名皇家警察,和好友马坤(黄秋生 饰)里应外合一举破获了一个势力非常强大的犯罪集团,导致集团老大王豹(龙方 饰)遭到了逮捕。然而,让警方没有想到的是,王豹派出自己的手下查明了马坤的卧底身份,不仅令他变为植物人终身残废,还残忍的杀死了他的妻子和小孩。
3 U- E3 ?" p; z" l# w  因为缺少关键证据,王豹被无罪释放,龚正面临停职调查的窘境,愤怒之下,龚正选择了辞职。之后,他于偶然之中结识了马坤曾经救过的一个老千(王晶 饰),两人决定联手为马坤报仇。王豹虽然凶残但是也有弱点,于是老千设下赌局,嗜赌如命的王豹果然自投罗网。- i# w* J  b$ m" u1 R6 |1 |2 f; Q$ x! ~

0 M8 I- a2 m% H
Quote:
General' _7 H6 ]  z) Z% X' W5 K8 a, y: O
Complete name                  : The Big Score 1990 WEB-DL 1080p H264 AAC-Dave.mp41 x3 v$ Z- Q* M. k7 |0 B
Format                         : MPEG-4
# v3 n1 X! |: [+ }+ g& iFormat profile                 : Base Media8 O% X6 p$ f0 V4 t
Codec ID                       : isom (isom/iso2/avc1/mp41)
* p; S: K% J  u, `File size                      : 2.37 GiB+ X4 ]$ L3 g' X, |0 c
Duration                       : 1 h 41 min
; V6 p! m& r- N# K& ^Overall bit rate mode          : Variable# b$ v' x; h: @& x3 t' h( k) d
Overall bit rate               : 3 336 kb/s
) ]8 w" [5 }( e7 x1 HWriting application            : Lavf59.16.100: {* s; J+ L. E6 E, I

8 K/ ]+ n% m. }5 ]6 i* D1 cVideo' m; f1 c9 m, K+ b' U4 j6 ~, d* e3 v
ID                             : 1
4 X0 U4 M. b7 E- K/ z( p- fFormat                         : AVC
6 u5 m" Z% q# B# n. R8 Q" XFormat/Info                    : Advanced Video Codec
6 c( F4 h) Z) Q9 S6 I# m: t0 d% m( Y" OFormat profile                 : Main@L4
9 j$ l* |$ b4 v/ n; P( ZFormat settings                : CABAC / 4 Ref Frames; O9 w$ E  _7 j, p
Format settings, CABAC         : Yes9 d' M) A; n0 a* V5 I( F4 V
Format settings, Reference fra : 4 frames6 K. z. o. I( n) p% r3 c
Codec ID                       : avc1+ f- D1 X. X: O9 t4 }/ m. U" s
Codec ID/Info                  : Advanced Video Coding
: L: X+ Q! S# A+ LDuration                       : 1 h 41 min
' X! F6 \9 r6 j9 Z/ l$ sSource duration                : 1 h 41 min' P% l, d1 }2 b+ o: t
Bit rate                       : 2 939 kb/s9 R' o; [8 o# Y% L
Maximum bit rate               : 3 076 kb/s6 S  j2 `  i1 g, _* R" V! ^' X8 t
Width                          : 1 920 pixels& E* K6 f2 R2 \6 Y% V9 N2 g
Height                         : 1 080 pixels
" E# O1 E1 m7 H# I" I- VDisplay aspect ratio           : 16:9  E( M* F8 A, V9 A
Frame rate mode                : Constant
3 i5 l+ [  G9 f  M; O& y3 C7 tFrame rate                     : 25.000 FPS. M* h1 T8 q- X# h* w# K" T
Color space                    : YUV( B# o* n1 w0 J8 [9 f2 W
Chroma subsampling             : 4:2:0
' U8 \9 k* J% R8 {9 {4 N/ JBit depth                      : 8 bits/ q  x; j* k0 n- B) A( s  @
Scan type                      : Progressive
. O9 ]& _0 T  ]Bits/(Pixel*Frame)             : 0.057
% @3 ]; R4 z6 t9 AStream size                    : 2.09 GiB (88%)
% z6 d* d2 d4 QSource stream size             : 2.19 GiB (92%)
) r9 {& I* s2 r; T; X- mCodec configuration box        : avcC1 L: q- |+ |. ]0 v& T1 u
+ W) \4 D( O5 k) ~# |8 }5 y) Y
Audio
* Q" Z. S" k' ?/ q5 [' PID                             : 2
: c6 A. }# k+ Y3 hFormat                         : AAC LC; B% a  D) d6 ^) n  e2 L% Z' t4 u  O3 d+ u
Format/Info                    : Advanced Audio Codec Low Complexity  Q1 a  {% p8 B4 o
Codec ID                       : mp4a-40-2
) t5 H: G+ u: P5 FDuration                       : 1 h 41 min+ @; F) k: v  v+ Q. U/ ]/ j
Bit rate mode                  : Variable! l# W( r2 c. A, O; b
Bit rate                       : 256 kb/s / 256 kb/s
% N6 U3 d4 [, E! C( VChannel(s)                     : 2 channels
. H$ s2 i0 j$ `; i2 z( M, mChannel layout                 : L R
: l8 K& H+ v) {Sampling rate                  : 44.1 kHz
; r: q* {6 w: P% w% m. l- [: oFrame rate                     : 43.066 FPS (1024 SPF)$ A! W& z' c3 _6 M) q. K
Compression mode               : Lossy3 Z6 ?- D: r4 v* N
Stream size                    : 185 MiB (8%)
; _( |; i* t, O" p9 z% A. e( YDefault                        : Yes
7 k, r8 D1 W  \( o/ KAlternate group                : 1

/ y% E: F$ z* m8 N* l
& ]2 f8 I5 Z' y1 r6 T" F4 {
1 v* ]5 \) e7 Y, U
                               
登录/注册后可看大图

! T4 T# B3 U6 h3 L' [9 b9 C

$ v) m& ^3 w  ~2 N; R9 K( c                               
登录/注册后可看大图
4 m- C  B0 z8 X5 ]" k
' y9 E8 C# j. |( p" T; Y% \
                               
登录/注册后可看大图
9 {7 O( d- V5 c

  H, g  c9 m  F' e4 F  V9 O$ W+ C
  N3 r  |8 s# N- x, v% ^% ^
郑重声明:  s6 z0 \  K( r2 n4 L% Y
本站提供的所有影视综艺作品均是在网上搜集,任何涉及商业盈利目的均不得使用,否则产生的一切后果将由您自己承担!本站将不对本站的任何内容负任何法律责任!该下载内容仅做宽带测试使用,请在下载后24小时内删除。请购买正版!

: P5 P9 O3 w6 l- L( i9 R; S' b5 p% F& p# R/ Z1 U  |) V
& l  G3 C& l5 N
百度网盘7 x' S  {# l4 C% ?# U6 Z
7 G% R- [9 Q" u" ~

# s& j$ S$ |+ d) l/ i- }/ [: H+ \( i, r5 X  I
游客,如果您要查看本帖隐藏内容请回复  VIP可免回复查看隐藏内容 详情请点击
发表于 2022-4-22 16:02:06 | 显示全部楼层
游客无权限浏览该内容
发表于 2022-4-23 00:03:15 | 显示全部楼层
游客无权限浏览该内容
发表于 2022-4-28 02:10:09 | 显示全部楼层
游客无权限浏览该内容
发表于 2022-4-28 08:36:47 | 显示全部楼层
游客无权限浏览该内容
发表于 2022-5-5 11:28:19 | 显示全部楼层
游客无权限浏览该内容
发表于 2022-5-12 01:12:58 | 显示全部楼层
游客无权限浏览该内容
您需要登录后才可以回帖 登录 | 立即注册

本版积分规则

封号公示|电子邮件联系本站hd1tj.net#[换成@]outlook.com|免责申明|HD一条街

GMT+8, 2022-5-25 21:56

Powered by Discuz! X3.4

Copyright © 2001-2021, Tencent Cloud.

快速回复 返回顶部 返回列表