HD一条街

 找回密码
 立即注册
搜索
查看: 190|回复: 13

[1080p] 止杀令 Kingdom.of.Conquerors.2013.CHINESE.1080p.BluRay.x264.DD5.1-EDPH 8.97G

[复制链接]
发表于 2022-3-7 21:50:08 | 显示全部楼层 |阅读模式

马上注册,结交更多好友,享用更多功能,让你轻松玩转社区。

您需要 登录 才可以下载或查看,没有帐号?立即注册

x

- J4 E  ^) V9 S- U6 }( d. T                               
登录/注册后可看大图

* W2 p4 @' A" }( d# U/ N8 K/ e2 ~0 x# r0 T
◎译  名 An End to Killing / 止杀 / 一言止杀 / Kingdom of Conquerors, q9 f1 V. h6 K1 z
◎片  名 止杀令; y: |/ H& I0 L" @$ P  B
◎年  代 2013
# q  T& K8 {  q4 I0 p◎产  地 中国大陆7 w, D7 ?- w, O" h' @" e
◎类  别 剧情 / 动作 / 历史 / 战争- E% S: H' X% D' E, L5 j( \" G
◎语  言 汉语普通话
* D; j. p8 C4 h◎上映日期 2013-03-22(中国大陆)
) f# \2 q1 f- [. n+ m: \* \& r◎IMDb评星  ★★★★★✦☆☆☆☆( A' F7 n% w! t
◎IMDb评分  5.6/10 from 203 users! o3 X% k8 L3 {+ o# O% j# j3 {
◎IMDb链接  https://www.imdb.com/title/tt3176304/: r( Z: q5 g/ C; B6 W
◎豆瓣评星 ★★✦☆☆/ \' b( `! G& ?. L& s
◎豆瓣评分 5.4/10 from 4,361 users
  j$ x* b/ `$ C" ~( A- M6 I; o◎豆瓣链接 https://movie.douban.com/subject/21357362/
& i/ E+ y* j: S2 \2 M" [5 r' z◎片  长 108分钟
% u1 ~, s  g) H# c3 v◎导  演 王坪 / Ping Wang
0 a  B4 n! B6 {2 h' l# B◎演  员 赵有亮 / Youliang Zhao
/ p) o) D9 U) k+ K) G      涂们 / Tumen+ W# S# d5 i9 T0 [2 S
      李小冉 / Xiaoran Li0 J' z7 B4 @# r; S6 G; v
      耿乐 / Le Geng9 l5 y8 A0 u3 }
      余少群 / Shaoqun Yu
8 X3 u& m; ^  N      中泉英雄 / Hideo Nakaizumi& _7 ~8 W+ c1 Q# P
      朴艺珍 / Yeh-jin Park
9 n$ _7 F0 I3 q      徐锦江 / Elvis Tsui
% L3 W5 ?( l+ `! U- e      乔若熙 / Ruoxi Qiao" w/ Q  Y& j; w  m' Z. M  f
      白光福 / Guangfu Bai$ H* x* \, ^! k. H
◎编  剧 冉平 / Ping Ran
! t' C5 A5 a5 W6 e0 n( a4 Z4 a      王坪 / Ping Wang
$ q2 I" j! J) K* X◎制  片  人 陆红实 / Hongshi Lu5 l" d! K  X" `& T3 c- g
◎剪  辑 谭国明 / Stanley Tam% U* N' d* w  ]# d9 L
◎制片管理 高成惠 / Chenghui Gao% L3 P. F: V8 k) b& P5 z$ Q

( A" @4 f2 n2 k$ G% U1 ~! ?# K◎简  介 5 e/ d5 e' \5 v& A/ D8 ?- I
% D0 X7 o; C' Y
  横扫中亚、西亚,跃马欧洲的成吉思汗(涂们 饰)62岁了。面对瘟疫肆虐,勇战沙场的蒙古将士不断倒下,杀人如麻的他,突感死亡的临近。如同历代帝王一样梦想长生不老之术。长春真人丘处机(赵有亮 饰)被传说300岁,懂生死,通晓治国治民之道深居于文登昆嵛山中。金和宋的皇帝曾派人 来请,均遭拒绝。成吉思汗闻知定要会他,命刘仲禄(耿乐 饰)不远万里一定要带回丘处机。
. r2 v# N8 J0 Z& l8 t% p  丘处机算出这一行自己将有去无回,但为了天下百姓免遭战乱之苦,丘处机带着一口棺材,毅然上路。而他的爱徒赵道安(余少群 饰),不愿师父一人前往西域受苦,甘愿一路随行。途中,一心想找成吉思汗报杀夫之仇的契丹女(李小冉 饰),三次变换身份,希望打动丘处机,带她一同前往西域。
4 s8 J) v7 w* T- I2 _; R! G  一行人历经生死险阻,终于到达八鲁湾与成吉思汗相见。成吉思汗向丘处机索要长生不老之药,丘处机却直言“只有卫生之道,而无长生之药”。经过几番波澜不惊的心战,让成吉思汗明白了“天道喜善恶杀,珍惜别人的生命就是延长自己的生命”的道理。并教授蒙古将士们沐浴卫生,使瘟疫锐减。顿悟后的成吉思汗停止了征伐的脚步,班师东归。封丘处机为大国师。# s/ u5 ?4 M4 W  t* V, e; R0 \
5 I' E/ }$ J* O: Y
◎幕后揭秘) D; m) M( l$ T' i3 l3 |/ }' M1 h' a6 R
, V$ o+ d3 u9 J
  拍男人戏 李小冉没有特殊照顾! c' w2 v' p, e7 ~/ ~

1 o5 b- X2 q* z5 {& k0 G  《止杀令》无疑是一部苦戏,拍摄环境恶劣,吊威亚,徒步西行,就连片中的男演员都大呼吃不消,对李小冉来说更是一种挑战。
1 t: o& u5 X" C3 Q
: w- r8 H) A( p" o# |  有一场战争戏在峡谷里拍摄,两边都是悬崖,唯一的出路就是水流速度堪比山洪的河道,两边岩石被水流冲击的痕迹都清晰可见。在河道里拍摄时,全组人马随时都要警惕山洪来袭,还要不停地打。谈及剧组有没有给李小冉特殊照顾时,李小冉说:“一样的,我也不喜欢,如果那样我会看不起自己。”
; n, L) ~" i" N( @- i$ u5 P5 b2 M" t" s9 f2 n$ y
  片中最长的一次打戏足足拍了一个星期。谈及这种实打实的武术风格,李小冉也对自己的打女表现十分期待:“所有的打都特别的真实的,没有飞啊转啊,很接地气的,打得特别过瘾,很有冲击力,当时看这个片头的时候,我就真的觉得好过瘾。”- u& ~  N9 m3 G
, b" ^( I' p. c& H
  真实版“西游”——赵道安保护丘处机西行三万九千里
4 Y% }7 {1 i, g. r
. O+ R0 T3 ~, m+ [* r2 y  “我们这次的《止杀令》是还原历史上真实的丘处机。跟金庸笔下的丘处机,有相似但又很不一样。”据余少群介绍,今次《止杀令》中的丘处机更“传奇”,“他有高深莫测的功夫,能够在对敌时以拂尘四两拨千斤,但功夫在我们这个丘处机只是皮毛,他真正的‘厉害’在于能够以道教的理法对成吉思汗‘一言止杀’。”
7 @6 M5 N& ^2 O
- a6 i- @5 B2 n  吸引余少群接演《止杀令》的最大原因就是对丘处机的“亲切感”。“我从小就是金庸迷,基本是看着‘射雕’长大的,所以看到这个本子我就很喜欢。但越细读,我越觉得这个丘处机不是我知道的那一个。尤其是‘一言止杀’那一段,可以说,我们对丘处机尊重的太少。要不是他当年劝服成吉思汗止杀东归,欧洲人民只怕会有数亿的生灵涂炭,这个人物是很伟大的,这个故事也很感人。听说欧洲到现在都有很多人会祭拜丘处机,我拍摄的时候也是一直心存敬意,所以《止杀令》这个电影有助于帮助国内观众了解这个故事和丘处机到底是个什么样的人物。8 K, J5 A7 Q; }6 E
+ P* I) w+ ^, D$ O
  1.        
      e0 J2 [# S! [! |" j
  2. Video: v- N4 Q5 b9 v/ S
  3. ID : 15 q, l4 n& m2 G" h: ]
  4. Format : AVC& s* ^; O! E! ^5 k0 v
  5. Format/Info : Advanced Video Codec7 L9 b5 w5 B% q3 {0 C' o5 x) q
  6. Format profile : High@L4.1  l5 d4 N% W$ G+ F8 S+ a2 G
  7. Format settings : CABAC / 5 Ref Frames! m- P. R( B7 |5 x, ^9 |3 \1 }" S; P
  8. Format settings, CABAC : Yes
    0 v. p% r) W8 W1 G
  9. Format settings, Reference frames : 5 frames) u; j) g& [7 u2 ?
  10. Codec ID : V_MPEG4/ISO/AVC5 p( u2 d* e& E9 J9 v3 Z) S
  11. Duration : 1 h 40 min
    1 b3 t" k) L1 r$ v% u
  12. Bit rate : 12.2 Mb/s. n' h& E" a. x" {& p
  13. Width : 1 920 pixels' J' S- q. N/ b3 K% ~$ f$ _- g# u, t" W
  14. Height : 818 pixels$ E& O# F/ \3 j" V- V8 p
  15. Display aspect ratio : 2.35:1
    # I, S8 t! Z$ d+ K
  16. Frame rate mode : Constant# H, p2 J$ D* k
  17. Frame rate : 23.976 (24000/1001) FPS4 G1 G; U0 J8 }
  18. Color space : YUV
    : n# k9 O* L; P& m
  19. Chroma subsampling : 4:2:02 u( @/ k" g, [9 j5 ]" @
  20. Bit depth : 8 bits/ Q2 K6 y% T1 P/ S2 e4 P
  21. Scan type : Progressive
    * t$ p8 _( c8 w
  22. Bits/(Pixel*Frame) : 0.324
    + ~& V( T8 m& r6 H. H) y; E5 V+ U
  23. Stream size : 8.52 GiB (95%)
    + y/ G4 ?* G3 I  F( u" K! N: B, K
  24. Writing library : x264 core 163 r3059 b684ebe
    3 t3 Q9 f5 G0 m* B4 |5 H; F/ E
  25. Encoding settings : cabac=1 / ref=5 / deblock=1:-3:-3 / analyse=0x3:0x133 / me=umh / subme=11 / psy=1 / psy_rd=1.02:0.00 / mixed_ref=1 / me_range=32 / chroma_me=1 / trellis=2 / 8x8dct=1 / cqm=0 / deadzone=21,11 / fast_pskip=0 / chroma_qp_offset=-2 / threads=12 / lookahead_threads=3 / sliced_threads=0 / nr=0 / decimate=0 / interlaced=0 / bluray_compat=0 / constrained_intra=0 / bframes=16 / b_pyramid=2 / b_adapt=2 / b_bias=0 / direct=3 / weightb=1 / open_gop=0 / weightp=2 / keyint=250 / keyint_min=23 / scenecut=40 / intra_refresh=0 / rc_lookahead=250 / rc=crf / mbtree=0 / crf=18.3 / qcomp=0.65 / qpmin=0 / qpmax=69 / qpstep=4 / vbv_maxrate=62500 / vbv_bufsize=78125 / crf_max=0.0 / nal_hrd=none / filler=0 / ip_ratio=1.30 / pb_ratio=1.20 / aq=3:0.80
    5 m1 u- {  V( e9 `4 }/ s) l
  26. Default : No
    * T' H/ x9 ^7 j3 t' N
  27. Forced : No
    ) \' [. q$ T* m. d+ B" L
  28. Color range : Limited* t5 F6 `$ N0 d+ ]
  29. Color primaries : BT.709# J0 V: L3 P3 ~" ~# Z
  30. Matrix coefficients : BT.709
    2 f) V" q# z; M% V: q

  31. ( K' [1 V  a! y# s
  32. Audio6 v4 `9 _( s/ [9 ^7 `8 K3 ^! d0 ?
  33. ID : 2) a3 Q8 U- H1 c9 Z6 N
  34. Format : AC-3
    1 ?  ~. x2 B6 w4 W$ r
  35. Format/Info : Audio Coding 3
    + \7 ?- ^: m/ B1 x; D1 }8 G! \8 o1 n4 p
  36. Commercial name : Dolby Digital
      h  j! O0 U6 }3 a5 R( X4 ~
  37. Codec ID : A_AC3$ w* n5 w# [. C# D! F- }
  38. Duration : 1 h 40 min
    ( o5 x& W) N& V3 v( p' G
  39. Bit rate mode : Constant
    ) _6 v. V! R2 g& P8 I% C
  40. Bit rate : 640 kb/s
    + Q) m6 T7 P2 S5 t1 g3 _
  41. Channel(s) : 6 channels( Z6 q0 }9 i6 P) a8 G
  42. Channel layout : L R C LFE Ls Rs" ]9 P1 F8 v7 W5 I
  43. Sampling rate : 48.0 kHz
    ( M0 _7 k0 T7 l% R
  44. Frame rate : 31.250 FPS (1536 SPF)9 S7 H- S. i0 ^
  45. Compression mode : Lossy$ ^# W$ ]# i6 E% u6 [: O
  46. Stream size : 458 MiB (5%)  }: i; l: @# U/ c" L! p7 A. `% k
  47. Title : Mandarin/ r) {3 ?, b2 G/ B# Z& O- d
  48. Language : Chinese
    ; R( P5 e& V. T/ ]! ~) _
  49. Service kind : Complete Main
    / n; ~! y' s; h8 M) C! `
  50. Default : Yes
    , h5 n3 E% y8 u! {$ J$ X0 H. F
  51. Forced : No' G, R& I5 L# R1 d( }0 Y+ K

  52. , O& B8 J0 q9 I9 T! ^8 y
  53. Text" f  Y; o0 @- a+ ~
  54. ID : 3( C9 c3 v+ r1 `4 M% K9 H6 V
  55. Format : UTF-80 c0 s4 `5 M2 E1 F8 S: k3 n  w/ u
  56. Codec ID : S_TEXT/UTF8
    1 ]/ }4 k+ L) r1 t/ X) p
  57. Codec ID/Info : UTF-8 Plain Text
    . \) m0 x2 o' e
  58. Duration : 1 h 36 min& w9 Z+ c% m9 ?9 F$ q1 |
  59. Bit rate : 46 b/s
    # m( b* z4 b9 J. R
  60. Count of elements : 973& [: \5 p9 N2 U; J$ n
  61. Stream size : 33.2 KiB (0%)2 r" G$ [/ W  d6 S  `0 k! t
  62. Language : English4 j( T6 _* I4 S* |
  63. Default : Yes8 M  d0 U( S0 Z: I
  64. Forced : No
    ; t9 G  r+ v2 \
  65. % a6 D& q; g( t4 z+ v" _+ P1 I$ B
  66. Menu
    7 ^! {6 o. U) g* Z; `
  67. 00:00:00.000 : :Chapter 1) o/ v6 z8 N/ A2 r' M( U3 }7 I1 J' l
  68. 00:09:31.738 : :Chapter 2. @$ ~7 g- U7 g9 }: ~4 V
  69. 00:17:53.573 : :Chapter 36 T4 \" n1 G; e& J- l: g
  70. 00:29:31.728 : :Chapter 4# }7 g) d: f5 Z0 U5 B0 c! r5 o
  71. 00:37:17.569 : :Chapter 5
    9 y6 T) R7 [+ n* y" R$ q
  72. 00:47:11.037 : :Chapter 6; U. i2 `# m3 P2 S/ u+ h
  73. 00:57:54.012 : :Chapter 7
    3 S: R$ ]/ K/ {5 t5 j0 c! K" J
  74. 01:05:42.439 : :Chapter 84 U8 b5 O- V$ [1 R9 s; X$ [0 E0 V
  75. 01:13:59.060 : :Chapter 9
    " v$ r# y. I. a
  76. 01:21:53.659 : :Chapter 10
    5 ~: g7 \0 A  S3 r9 v! N
  77. 01:29:28.238 : :Chapter 11
    8 O2 ~) T8 y* m. G! I, e$ H
  78. 01:33:55.839 : :Chapter 12
复制代码
3 e/ c) l. x& \
3 v* U( x  `  \2 r3 U  \
6 C8 f  X. E2 K; j

3 e: V7 n' s0 U( I' Z9 ~8 L0 b3 g( [; ~2 L. }5 Y" @
# ~% F2 ~1 a) D7 {% H& e* {9 F
游客,如果您要查看本帖隐藏内容请回复  VIP可免回复查看隐藏内容 详情请点击
发表于 2022-3-8 08:33:04 | 显示全部楼层
游客无权限浏览该内容
发表于 2022-3-8 10:06:22 | 显示全部楼层
游客无权限浏览该内容
发表于 2022-3-8 18:41:33 | 显示全部楼层
游客无权限浏览该内容
发表于 2022-3-8 21:59:24 | 显示全部楼层
游客无权限浏览该内容
发表于 2022-3-9 01:54:18 | 显示全部楼层
游客无权限浏览该内容
发表于 2022-3-9 02:23:38 | 显示全部楼层
游客无权限浏览该内容
发表于 2022-3-9 10:07:37 | 显示全部楼层
游客无权限浏览该内容
您需要登录后才可以回帖 登录 | 立即注册

本版积分规则

封号公示|电子邮件联系本站hd1tj.net#[换成@]outlook.com|免责申明|HD一条街

GMT+8, 2022-5-25 22:14

Powered by Discuz! X3.4

Copyright © 2001-2021, Tencent Cloud.

快速回复 返回顶部 返回列表