HD一条街

 找回密码
 立即注册
搜索
查看: 97|回复: 12

[1080P和1080i] [无台标][韩剧:顶楼 第三季][1080P网飞版/46G][韩语 英文软字幕][MKV]

[复制链接]
发表于 2022-1-20 12:15:00 | 显示全部楼层 |阅读模式

马上注册,结交更多好友,享用更多功能,让你轻松玩转社区。

您需要 登录 才可以下载或查看,没有帐号?立即注册

x
2 P, G! @% M( l$ u: c! Z) D  u
                               
登录/注册后可看大图

; [9 K& T* v/ f) |# L
8 ~! `' E/ ?: w% w◎译  名 顶楼 第三季 / Penthouse上流战争 3(台) / The Penthouse : War in life 3) F) s/ k  L$ i8 W! n1 D
◎片  名 펜트하우스 시즌3
  j+ g0 c* f. o& p$ @. ?◎年  代 2021
% R' b# }' g, t; l/ t& j2 W1 |◎产  地 韩国
4 @2 }% o/ l7 ]. U3 j( o◎类  别 剧情 / 悬疑/ r0 T- ~- }! x. s
◎语  言 韩语
& a: o: Z9 l; c" U8 \, U◎上映日期 2021-06-04(韩国)
- `- t; K/ I/ }' ~◎豆瓣评星 ★★★✦☆: E+ [4 z% n' l$ B7 T
◎豆瓣评分 6.6/10 from 33,319 users
( b3 E: ~; P# @  n3 D◎豆瓣链接 https://movie.douban.com/subject/35306372/# g/ [$ Q. D$ i3 B$ Q& H
◎集  数 14
4 I. W7 {9 T5 d* r◎导  演 朱东民 / Dong-min Joo
4 x8 [% o! c7 R. y3 A8 Z+ N◎演  员 柳真 / Yoo-jin3 f3 ^3 X$ _6 {$ x; x6 v+ |3 t
      金素妍 / So-yeon Kim
0 `% ~+ I- T0 m7 w( i4 h- B      李智雅 / Ji-ah Lee' A) k! N: }; [) J) T1 r$ t
      严基俊 / Ki-joon Um4 o' Z3 z7 ]# W
      奉太奎 / Tae-gyu Bong( I* y) i, z7 |4 Z0 M
      尹仲勋 / Jong-hoon Yoon
% h0 d; V  \+ K8 d$ l      申恩庆 / Eun-Kyung Shin
& _3 j8 @# n6 r, }" l. ]5 q      尹周熙 / Joo-Hee Yoon: j7 |3 C; ^2 [' _
      朴恩硕 / Eun-Seok Park# T8 o) G7 w1 u# j( u
      河道权 / Ha Do Kwon5 o7 _! F' k$ f; i9 p. ?
      安妍红 / Yang-ho Wi
. W% I. D5 ^# f) c5 r' {' i      朴浩山 / Ho-san Park
- Q4 t8 ~$ Q: u( C4 \) H      温宙完 / Ju-wan On6 Z  J1 S6 }; j/ G
      金永大 / Young-dae Kim
7 V; Q! F  _8 G7 t" I0 V4 o" K      金贤秀 / Hyun-su Kim5 k% r5 T: y) a
      李泰彬 / Tae-vin Lee% j: P% }$ V3 c
      陈智熙 / Ji-hee Jin5 |5 M$ W  h4 d% r0 L; P& b" ^9 N
      崔艺彬 / Ye-bin Choi
7 t7 Y; z! V" [2 t# S      韩智贤 / Ji-hyun Han
( s5 F3 J. q2 o2 Q* Q. d◎编  剧 金顺玉 / Kim Sun-ok! m* a4 s% u* p  r3 Z! _! }
( K" v  U* \2 ^8 ~1 Q
◎简  介 , u5 p; h$ m" g4 [7 M

, e4 ^, F& ?' p( D  众人参加洛根李的葬礼,但洛根李复活归来了。最后的战争开始,朱丹泰出狱,还放狠话说“沈秀莲会死!”
( p5 g+ a5 ^& M, X& I& I
  1.         + n7 r/ Y/ {. q3 q
  2. Video
    5 Y8 d' w0 W) l# H' \$ g3 P
  3. ID : 1
    & M; M) l, k& w3 w+ a* `* A
  4. Format : AVC. Z5 ^8 x! m0 j% x% W
  5. Format/Info : Advanced Video Codec& c) c3 E6 P2 v5 [, @6 t
  6. Format profile : High@L4
    2 K, W# r3 o) c4 V
  7. Format settings : CABAC / 4 Ref Frames
    ; g) }+ w- J+ ~  }! I- |: R) J
  8. Format settings, CABAC : Yes5 c+ T7 L/ d9 S. B' v
  9. Format settings, Reference frames : 4 frames% e) e2 d: l) K
  10. Codec ID : V_MPEG4/ISO/AVC/ `+ E9 H9 ^: b9 }4 D
  11. Duration : 1 h 20 min
    9 x1 G  w3 z5 Y6 w3 D5 K
  12. Bit rate mode : Variable" M7 u) X; Y- n& {
  13. Bit rate : 7 256 kb/s. Q7 G9 Q7 a% M9 T  r
  14. Maximum bit rate : 20.0 Mb/s; u9 @" ~& @$ f- o# U3 E" ~
  15. Width : 1 920 pixels# Z8 d3 h  D9 @' ?' f
  16. Height : 1 080 pixels
    + E! ~) T, E2 W: T: D
  17. Display aspect ratio : 16:9
    4 S4 R, @0 x" m) ~4 g
  18. Frame rate mode : Constant
    " b! y- k$ q. _5 Z1 g: {
  19. Frame rate : 23.976 (24000/1001) FPS. p8 Y( i9 g8 D0 O& h6 g2 V9 X, b
  20. Color space : YUV8 x7 j4 S4 f, }' K
  21. Chroma subsampling : 4:2:0
    ' q" p: p$ `( a9 Y7 b' A
  22. Bit depth : 8 bits% d+ w% F" }7 ?& A/ p4 k( `
  23. Scan type : Progressive
    # P& ]% M& |. ~" {% o0 U5 G
  24. Bits/(Pixel*Frame) : 0.146! N, L% v* y1 u# _' j
  25. Stream size : 4.06 GiB (98%)
    + A* \& ^3 b& Q7 O; o6 [7 o) K, u
  26. Writing library : x264 core 148 r2727 7d026e88 e' ~. G9 t) ]4 @* N. k$ P( ?
  27. Encoding settings : cabac=1 / ref=4 / deblock=1:0:0 / analyse=0x3:0x111 / me=umh / subme=10 / psy=1 / psy_rd=1.00:0.00 / mixed_ref=1 / me_range=120 / chroma_me=1 / trellis=2 / 8x8dct=1 / cqm=0 / deadzone=21,11 / fast_pskip=1 / chroma_qp_offset=-2 / threads=8 / lookahead_threads=2 / sliced_threads=0 / nr=0 / decimate=1 / interlaced=0 / bluray_compat=0 / stitchable=1 / constrained_intra=0 / bframes=16 / b_pyramid=2 / b_adapt=2 / b_bias=0 / direct=3 / weightb=1 / open_gop=0 / weightp=2 / keyint=240 / keyint_min=121 / scenecut=0 / intra_refresh=0 / rc_lookahead=240 / rc=crf / mbtree=1 / crf=16.0 / qcomp=0.50 / qpmin=6 / qpmax=51 / qpstep=4 / vbv_maxrate=20000 / vbv_bufsize=25000 / crf_max=0.0 / nal_hrd=vbr / filler=0 / ip_ratio=1.40 / aq=1:0.80: \5 X9 y2 |! a3 V0 F
  28. Default : Yes- G8 \6 P# E0 ]' z
  29. Forced : No. o8 I2 A  R) A' P
  30. 4 Y2 S& ^* z+ I/ Z
  31. Audio
    * Y, w5 Z8 ]2 j+ U
  32. ID : 2
    - i7 N9 a; I7 @+ e) d7 X& }2 t$ L
  33. Format : E-AC-3
    & W3 ]; B1 s5 @' P, M  b6 l
  34. Format/Info : Enhanced AC-3
    - H" r. W2 C! b8 E- X
  35. Commercial name : Dolby Digital Plus
    5 Z" O6 D' j( x9 f1 d
  36. Codec ID : A_EAC3( H" U+ Q  Q9 T) l  a
  37. Duration : 1 h 20 min
    ; B7 ^, l8 T3 n; {+ {
  38. Bit rate mode : Constant
    5 j# n$ @- L: z: h0 m
  39. Bit rate : 128 kb/s
    0 q/ C+ _7 R0 d4 r: D
  40. Channel(s) : 2 channels
    3 _* O( v/ Z& {) }7 u5 ^6 h0 |
  41. Channel layout : L R/ _2 w% i% c+ ^
  42. Sampling rate : 48.0 kHz& U2 h& T8 w0 s& A/ X& Y! s
  43. Frame rate : 31.250 FPS (1536 SPF). A. H5 T" O3 E
  44. Compression mode : Lossy, h2 C2 ?. P3 d- Z
  45. Stream size : 73.4 MiB (2%)+ k) S- D" {. d4 K
  46. Title : Korean
    , X- ?* ?4 p. }8 }* ~( L6 k3 z
  47. Language : Korean; N4 O4 ]( `7 j. x# G
  48. Service kind : Complete Main. l0 x" A! r7 Q6 C
  49. Default : No
    1 V" Z* j7 g5 w' O- i3 t1 i
  50. Forced : No# o! u) x$ A+ x! X+ j% S8 h
  51. / I+ b( _, j0 b' y, N% _: y8 t
  52. Text #1. P) s' Q; X0 R; J. X' k  V
  53. ID : 3$ R8 K: n& b. R+ b3 ?" \0 }- ~
  54. Format : UTF-8
    , K* G* d( j& T2 M) Z& V4 F: E( a
  55. Codec ID : S_TEXT/UTF81 p9 O' S# H# D+ y1 o
  56. Codec ID/Info : UTF-8 Plain Text4 n5 m9 N7 n6 A( l* W7 ]0 |
  57. Duration : 1 h 19 min
    1 m$ p/ S! ], e5 C' j
  58. Bit rate : 62 b/s
    * e2 E% s2 h3 c4 C
  59. Count of elements : 1076
    , q8 e% E! ^4 y0 p2 Y) Z& L, t5 D
  60. Stream size : 36.1 KiB (0%)( r- D, h" n+ x
  61. Title : English7 j& t( W9 q3 B0 @4 E
  62. Language : English3 O  \/ m( k0 V, Y. H( Z7 Q
  63. Default : No; l9 M; O6 Q3 R3 @$ C5 y
  64. Forced : No" D& N( t" T& v0 M

  65. & U+ @- w% V" Q
  66. Text #2% }* w' @7 ?$ l% e4 B
  67. ID : 4, l/ n9 Z- x* s0 k; p+ J9 B% \$ n
  68. Format : UTF-8* ^; r0 r  O8 N+ D3 _+ z7 ~/ l! L/ r
  69. Codec ID : S_TEXT/UTF8
    ' F* a, j+ e% m2 S
  70. Codec ID/Info : UTF-8 Plain Text3 e5 ]0 S; e5 @
  71. Duration : 1 h 19 min! L: ]* r3 G" b; A* S% j- y
  72. Bit rate : 64 b/s
    ( F# e& l8 @6 _; b7 H/ F
  73. Count of elements : 10734 t" h. j& E' E2 K
  74. Stream size : 37.8 KiB (0%)6 c  j3 ?( r, ?! h
  75. Title : French
    ! k& B. I) J& ]4 f3 O! {
  76. Language : French
    . _$ t% G- L% a5 ?8 W+ M+ c0 l3 i
  77. Default : No4 N+ }0 @+ K- n: v/ O
  78. Forced : No
    / l& K" m' c: r: y/ p% A

  79. ! f$ }1 h, X& T. ~1 e
  80. Text #3
    " `- _! L- Y' L! n
  81. ID : 52 V8 ^2 Y  {0 }; C( r
  82. Format : UTF-8
    0 E) }* |+ Q' H! r) X! G- J
  83. Codec ID : S_TEXT/UTF82 J/ O, a& w* C; D
  84. Codec ID/Info : UTF-8 Plain Text0 y/ w4 S$ j1 f9 T( x8 y
  85. Duration : 1 h 19 min$ a9 R9 @# H# z4 p. L# L# |
  86. Bit rate : 61 b/s
    + ?7 @& x$ J5 X- u, E' h
  87. Count of elements : 1084/ ~( v- ?. A( O) n& j% h: W" B% r
  88. Stream size : 36.1 KiB (0%)
    ( x  }; k+ Y* P1 q: r- g9 V
  89. Title : Indonesian: |/ |' U  W5 Y1 m" \* Q
  90. Language : Indonesian
    7 p9 N- l: v; a5 J+ x* _
  91. Default : No
    3 i. O! D8 x8 @( O
  92. Forced : No* b/ z3 H. M. M, `5 x
  93. # ]& R$ m9 G/ P
  94. Text #40 W9 X4 X! B" M3 g7 A: z
  95. ID : 6% M6 w! h/ ?) z8 G
  96. Format : UTF-8- q$ e9 j) ]: U
  97. Codec ID : S_TEXT/UTF89 p0 o. R: [/ r# f
  98. Codec ID/Info : UTF-8 Plain Text  K5 Q; j% w9 O# T* d. A
  99. Duration : 1 h 19 min* D5 T$ J: P7 @! O6 C
  100. Bit rate : 62 b/s4 U! r: B  R* v8 F6 I3 G4 U
  101. Count of elements : 1083
    # t, y: b7 q4 A# d5 w2 P
  102. Stream size : 36.6 KiB (0%)* u- I4 R$ u5 C
  103. Title : Malay) B4 c+ l: `2 J9 f
  104. Language : Malay
    ' g% [( g+ o( U" p  c
  105. Default : No
    , S' j4 x# @, J
  106. Forced : No
    8 l9 H2 Z/ E- _4 }# N# l
  107. 2 C7 ?* Z$ d" j' e0 X  R
  108. Text #51 }* B) y/ D/ w! x0 L
  109. ID : 7* P% e7 |6 e4 A: |( F7 |1 q8 R/ i
  110. Format : UTF-8
    # _- n" U8 N$ f, R- I
  111. Codec ID : S_TEXT/UTF82 N2 q8 h! E1 L$ V  r$ ^( s
  112. Codec ID/Info : UTF-8 Plain Text* j! Q0 e+ X  @" i8 R, L  A2 P
  113. Duration : 1 h 19 min  R, H, x( Q  J! t
  114. Bit rate : 61 b/s
    ( b& X9 U/ e6 |/ J$ P) \/ b* s' P
  115. Count of elements : 1083
    ) E, H; c2 A) J& `* h
  116. Stream size : 35.8 KiB (0%)6 c# G, T  p1 ^! i* j
  117. Title : Spanish
    $ e# b" U0 ?: i& H$ s1 w3 ~
  118. Language : Spanish
    ) z) K: H/ ^/ a
  119. Default : No0 \& y2 F! @8 F: |3 j  i! d  t
  120. Forced : No
    3 p5 d9 x  C  A1 i& S- [1 r% _

  121.   @* K5 L, v. f- h' q
  122. Text #6
    . O& u8 g& W& v( m  f; K% X5 g
  123. ID : 8$ c5 _9 {/ S  e- Q
  124. Format : UTF-8+ m% k* x* I3 a0 s- J4 \+ ?! w3 u: l
  125. Codec ID : S_TEXT/UTF8
    9 Y& W2 t& p0 N4 M7 b0 k: R5 Q" J# V8 d
  126. Codec ID/Info : UTF-8 Plain Text6 w& _3 Q2 k6 ]
  127. Duration : 1 h 19 min! [7 \6 G) v  O! j# h
  128. Bit rate : 151 b/s0 N; V9 R& g( |' L# a' z) @
  129. Count of elements : 1084
    4 f- m6 X- c* u+ U) l
  130. Stream size : 88.5 KiB (0%). ]; D5 X  W* E- N9 P+ `
  131. Title : Thai
    / e6 A* @6 h1 |; s% J
  132. Language : Thai
    & ~1 a7 \; a" i% B  Y$ `, m8 J
  133. Default : No$ h6 [/ o# R' M& {3 Q% d) c' N
  134. Forced : No  v* b- x* B# Q1 x( f

  135. " J( B# Z( S3 x2 z# V) L
  136. Text #7) W) Q9 y' X) W9 \0 \2 z
  137. ID : 9
    - h) g4 [( s, s8 M6 ^% w
  138. Format : UTF-81 y  ?( C6 ^1 a& m
  139. Codec ID : S_TEXT/UTF86 }9 p$ n1 M  A% @4 L  Y! h$ o
  140. Codec ID/Info : UTF-8 Plain Text+ }7 B0 p4 c; h/ R, ]. p" X
  141. Duration : 1 h 19 min  ], \: n8 k# v7 |1 o
  142. Bit rate : 78 b/s
    ! m4 q2 K9 K3 W( N  ~: J; U
  143. Count of elements : 1084# A5 l  r0 F. t, B, f+ S) O! U8 ^
  144. Stream size : 45.7 KiB (0%)
    4 O0 _# w! H" G0 P/ G, D
  145. Title : Vietnamese
    & v! X& [3 e$ S& z9 D$ Y- Y: E: B" w
  146. Language : Vietnamese$ T$ x4 `7 ^( J& N" u: i; D
  147. Default : No& c- Z' I$ y1 T& h5 V% p. O
  148. Forced : No
复制代码

- J2 x9 m0 E5 q& |* F  ~* u
' b) T6 d" o' i. _9 r; T* z; T3 j4 T/ V/ j0 E2 |! Z9 m; w+ ?( R
  m* {$ n3 U* d
. o  ^1 [5 {' u8 z3 J
8 [* j7 R& }7 q- J) {: u

7 a; ]; r% N# H% w7 Z' N& K
游客,如果您要查看本帖隐藏内容请回复  VIP可免回复查看隐藏内容 详情请点击
发表于 2022-1-20 14:36:39 | 显示全部楼层
游客无权限浏览该内容
发表于 2022-1-21 10:25:11 | 显示全部楼层
游客无权限浏览该内容
发表于 2022-1-21 11:31:47 | 显示全部楼层
游客无权限浏览该内容
发表于 2022-1-21 22:38:26 | 显示全部楼层
游客无权限浏览该内容
发表于 2022-1-22 00:11:30 | 显示全部楼层
游客无权限浏览该内容
发表于 2022-2-21 21:07:42 | 显示全部楼层
游客无权限浏览该内容
发表于 2022-4-1 00:30:11 | 显示全部楼层
游客无权限浏览该内容
您需要登录后才可以回帖 登录 | 立即注册

本版积分规则

封号公示|电子邮件联系本站hd1tj.net#[换成@]outlook.com|免责申明|HD一条街

GMT+8, 2022-8-14 15:30

Powered by Discuz! X3.4

Copyright © 2001-2021, Tencent Cloud.

快速回复 返回顶部 返回列表