HD一条街

 找回密码
 立即注册
搜索
查看: 52|回复: 3

[1080p] [1995][鼠胆龙威][1080P/MKV/7.71G][李连杰/张学友/邱淑贞][国粤双语][简繁中字][High.Risk.1995.JPN.BluRay.1080p.HEVC.10bit.AC3.2Audio]

[复制链接]
发表于 2022-1-9 20:19:14 | 显示全部楼层 |阅读模式


[attach]82539[/attach]

◎译  名 鼠胆龙威/High Risk/Meltdown/Terror en Hong Kong
◎片  名 鼠膽龍威
◎年  代 1995
◎产  地 中国香港
◎类  别 喜剧/动作/犯罪
◎语  言 汉语普通话
◎上映日期 1995-07-01(中国香港)
◎IMDb评分 6.1/10 from 3,802 users
◎IMDb链接 https://www.imdb.com/title/tt0114437/
◎豆瓣评分 7.2/10 from 29623 users
◎豆瓣链接 https://douban.com/subject/1295106/
◎片  长 97 分钟
◎导  演 王晶 Jing Wong
◎编  剧 王晶 Jing Wong
◎主  演 李连杰 Jet Li
       张学友 Jacky Cheung
       邱淑贞 Chingmy Yau
       曹查理 Charlie Cho
       周比利 Billy Chow
       杨采妮 Charlie Yeung
       周嘉玲 Valerie Chow
       午马 Wu Ma
       李力持 Lik-Chi Lee
       王霄 Kelvin Wong
       关秀媚 Suki Kwan
       段伟伦 William Duan
       卢雄 Paul Lo
       魏伯勤 Billy
       蔡业信 Raven Choi Yip-San
       元德 Tak Yuen
       林国斌 Ben Lam

◎标  签 李连杰 | 动作 | 香港 | 张学友 | 香港电影 | 喜剧 | 王晶 | 邱淑贞

◎简  介

  爆破专家李杰(李连杰 饰)一次因执行任务判断失误,亲眼目睹妻儿被活活炸死,伤心欲绝辞去公职,一面寻找杀死妻儿的凶手,一面化名大胆,为天皇巨星龙威(张学友 饰)出任保镖及替身,不时为他演出亡命的镜头。除了记得凶手的声音之外,并无其它线索。电视台主持人乐慧贞(邱淑贞 饰)对龙威的表演有所怀疑,因此不惜日夜跟从。龙威受邀参加一个大型珠宝展览会,自称医生(王霄 饰)的匪徒正策划盗取展览会钻饰,并派助手朱菲(周嘉玲 饰)混入酒店当公关作卧底。钻饰展览当日,李杰护送龙威到场后就离开,回家途中偶然在车上认出了医生的声音,于是拼命返回狂追匪徒,演绎了一场生死混战……


◎获奖情况

  第32届台北金马影展 (1995)
  金马奖最佳男配角(提名) 张学友
  金马奖最佳动作设计(提名) 元德 / 元奎
General
Unique ID                      : 295187451057303347615623903912673664632 (0xDE1308FD9D7B0F52F8700C576BFFDE78)
Complete name                  : E:\鼠胆龍威.1995.BDRip.2AC3.mkv
Format                         : Matroska
Format version                 : Version 4
File size                      : 4.21 GiB
Duration                       : 1 h 41 min
Overall bit rate               : 5 962 kb/s
Encoded date                   : UTC 2022-01-04 14:54:03
Writing application            : mkvmerge v64.0.0 ('Willows') 32-bit
Writing library                : libebml v1.4.2 + libmatroska v1.6.4

Video
ID                             : 1
Format                         : AVC
Format/Info                    : Advanced Video Codec
Format profile                 : High@L4.1
Format settings                : CABAC / 4 Ref Frames
Format settings, CABAC         : Yes
Format settings, Reference fra : 4 frames
Codec ID                       : V_MPEG4/ISO/AVC
Duration                       : 1 h 41 min
Bit rate                       : 5 000 kb/s
Width                          : 1 920 pixels
Height                         : 1 036 pixels
Display aspect ratio           : 1.85:1
Frame rate mode                : Constant
Frame rate                     : 23.976 (24000/1001) FPS
Color space                    : YUV
Chroma subsampling             : 4:2:0
Bit depth                      : 8 bits
Scan type                      : Progressive
Bits/(Pixel*Frame)             : 0.105
Stream size                    : 3.53 GiB (84%)

Audio #1
ID                             : 2
Format                         : AC-3
Format/Info                    : Audio Coding 3
Commercial name                : Dolby Digital
Codec ID                       : A_AC3
Duration                       : 1 h 41 min
Bit rate mode                  : Constant
Bit rate                       : 320 kb/s
Channel(s)                     : 2 channels
Channel layout                 : L R
Sampling rate                  : 48.0 kHz
Frame rate                     : 31.250 FPS (1536 SPF)
Compression mode               : Lossy
Stream size                    : 231 MiB (5%)
Title                          : 國語
Language                       : Chinese
Service kind                   : Complete Main
Default                        : Yes
Forced                         : Yes

Audio #2
ID                             : 3
Format                         : AC-3
Format/Info                    : Audio Coding 3
Commercial name                : Dolby Digital
Codec ID                       : A_AC3
Duration                       : 1 h 41 min
Bit rate mode                  : Constant
Bit rate                       : 640 kb/s
Channel(s)                     : 2 channels
Channel layout                 : L R
Sampling rate                  : 48.0 kHz
Frame rate                     : 31.250 FPS (1536 SPF)
Compression mode               : Lossy
Stream size                    : 463 MiB (11%)
Title                          : 粵語
Language                       : Chinese
Service kind                   : Complete Main
Default                        : No
Forced                         : No

Text #1
ID                             : 4
Format                         : UTF-8
Codec ID                       : S_TEXT/UTF8
Codec ID/Info                  : UTF-8 Plain Text
Duration                       : 1 h 38 min
Bit rate                       : 42 b/s
Count of elements              : 1290
Stream size                    : 31.0 KiB (0%)
Title                          : 簡體中文
Language                       : Chinese
Default                        : Yes
Forced                         : Yes

Text #2
ID                             : 5
Format                         : UTF-8
Codec ID                       : S_TEXT/UTF8
Codec ID/Info                  : UTF-8 Plain Text
Duration                       : 1 h 38 min
Bit rate                       : 42 b/s
Count of elements              : 1290
Stream size                    : 31.0 KiB (0%)
Title                          : 繁體中文
Language                       : Chinese
Default                        : No
Forced                         : No


[attach]82538[/attach]



购买主题 已有 2 人购买  本主题需向作者支付 30 金币 才能浏览 VIP+用户组可免费查看,详情请点击
发表于 2022-2-17 08:31:20 | 显示全部楼层
此帖仅作者可见
您需要登录后才可以回帖 登录 | 立即注册

本版积分规则

封号公示|电子邮件联系本站hd1tj.net#[换成@]outlook.com|免责申明|HD一条街

GMT+8, 2022-5-17 19:57

Powered by Discuz! X3.4

Copyright © 2001-2021, Tencent Cloud.

快速回复 返回顶部 返回列表