HD一条街

 找回密码
 立即注册
搜索
查看: 83|回复: 0

[1080p] [1977][邵氏][唐人街功夫小子][国语][简繁中字][1080P/MKV/7.20G][Chinatown.Kid.1977.GER.BluRay.1080p.x264.DTS]

[复制链接]
发表于 2022-1-1 13:47:14 | 显示全部楼层 |阅读模式



[attach]82420[/attach]

◎译  名 Chinatown Kid / 以毒攻毒 / 唐人街功夫小子
◎片  名 唐人街小子
◎年  代 1977
◎产  地 中国香港
◎类  别 剧情 / 动作
◎语  言 汉语普通话
◎上映日期 1977-12-02(中国香港)
◎IMDb评分  6.7/10 from 220 users
◎IMDb链接  https://www.imdb.com/title/tt0076797
◎豆瓣评分 6.3/10 from 450 users
◎豆瓣链接 https://movie.douban.com/subject/1308391/
◎片  长 1 h 30 min
◎导  演 张彻 Cheh Chang
◎编  剧 张彻 Cheh Chang / 倪匡 Kuang Ni
◎主  演 傅声 Sheng Fu
       余莎莉 Shirley Yu
       邵音音 Yin-Yin Shaw
       郭追 Zhui Guo
       孙建 Chien Sun
       王龙威 Lung Wei Wang


◎标  签 邵氏 | 张彻 | 香港 | 动作 | 香港电影 | 傅声 | 1977 | 郭追

◎简  介  

  故事发生在繁华的大城市香港,谭东(傅声 饰)和爷爷靠经营一个橙汁摊维持生计。谭东大字不识一个,却有着一身了得的功夫和力气,仅凭一双厚实的大手便能够榨出橙汁,爷孙两人的生意因此格外的好。
  很快,一个名叫徐豪(王龙威 饰)的小混混便注意到了谭东,他先发制人挑衅后者却在比武之中一败涂地。羞愤之中,徐豪设下诡计令谭东背负上了贩毒的罪名,谭东因此遭到了警方的通缉。无奈之下,谭东踏上了逃亡的旅途,一路来到了美国旧金山,藏匿在唐人街上的一间餐厅之中。在那里,谭东结识了留学生杨坚文(孙建 饰),志同道合的两人之间结下了坚实的友谊。


电影参数:
General
Unique ID                      : 186853452948270810636136311857396007624 (0x8C92AA809546FBEE982B0105AF7342C8)
Complete name                  : [唐人街功夫小子].Chinatown.Kid.1977.GER.BluRay.1080p.x264.DTS.国语.简繁中字.mkv
Format                         : Matroska
Format version                 : Version 4
File size                      : 7.20 GiB
Duration                       : 1 h 30 min
Overall bit rate               : 11.3 Mb/s
Encoded date                   : UTC 2020-08-31 12:07:14
Writing application            : mkvmerge v6.5.0 ('Isn't she lovely') built on Oct 20 2013 12:50:05
Writing library                : libebml v1.3.0 + libmatroska v1.4.1
Attachments                    : STKaiti.ttf / cronospro.otf


Video
ID                             : 1
Format                         : AVC
Format/Info                    : Advanced Video Codec
Format profile                 : High@L4.1
Format settings                : CABAC / 4 Ref Frames
Format settings, CABAC         : Yes
Format settings, Reference fra : 4 frames
Codec ID                       : V_MPEG4/ISO/AVC
Duration                       : 1 h 30 min
Bit rate                       : 10.5 Mb/s
Width                          : 1 920 pixels
Height                         : 1 080 pixels
Display aspect ratio           : 16:9
Frame rate mode                : Constant
Frame rate                     : 23.976 (24000/1001) FPS
Color space                    : YUV
Chroma subsampling             : 4:2:0
Bit depth                      : 8 bits
Scan type                      : Progressive
Bits/(Pixel*Frame)             : 0.212
Stream size                    : 6.57 GiB (91%)
Language                       : Chinese
Default                        : Yes
Forced                         : No


Audio
ID                             : 2
Format                         : DTS
Format/Info                    : Digital Theater Systems
Codec ID                       : A_DTS
Duration                       : 1 h 30 min
Bit rate mode                  : Constant
Bit rate                       : 768 kb/s
Channel(s)                     : 6 channels
Channel layout                 : C L R Ls Rs LFE
Sampling rate                  : 48.0 kHz
Frame rate                     : 93.750 FPS (512 SPF)
Bit depth                      : 16 bits
Compression mode               : Lossy
Stream size                    : 500 MiB (7%)
Title                          : 国语DTS
Language                       : Chinese
Default                        : Yes
Forced                         : No


Text #1
ID                             : 3
Format                         : ASS
Codec ID                       : S_TEXT/ASS
Codec ID/Info                  : Advanced Sub Station Alpha
Compression mode               : Lossless
Title                          : 简体中文
Language                       : Chinese
Default                        : Yes
Forced                         : No


Text #2
ID                             : 4
Format                         : ASS
Codec ID                       : S_TEXT/ASS
Codec ID/Info                  : Advanced Sub Station Alpha
Compression mode               : Lossless
Title                          : 繁体中文
Language                       : Chinese
Default                        : No
Forced                         : No



购买主题 本主题需向作者支付 20 金币 才能浏览 VIP+用户组可免费查看,详情请点击
您需要登录后才可以回帖 登录 | 立即注册

本版积分规则

封号公示|电子邮件联系本站hd1tj.net#[换成@]outlook.com|免责申明|HD一条街

GMT+8, 2022-5-25 21:10

Powered by Discuz! X3.4

Copyright © 2001-2021, Tencent Cloud.

快速回复 返回顶部 返回列表