HD一条街

 找回密码
 立即注册
搜索
查看: 85|回复: 3

[1080P和1080i] [无台标][韩剧:顶楼 第二季][1080P网飞版/41.96G][韩语 英文软字幕][MKV]

[复制链接]
发表于 2022-1-1 13:27:56 | 显示全部楼层 |阅读模式

马上注册,结交更多好友,享用更多功能,让你轻松玩转社区。

您需要 登录 才可以下载或查看,没有帐号?立即注册

x
9 P( h5 n0 |" j
                               
登录/注册后可看大图

* h8 Q: ~2 g+ v; U/ Z; A
" `3 q# m0 l- Q! B" b3 `◎译  名 顶楼 第二季 / Penthouse上流战争 2(台) / The Penthouse : War in life 2 / Episode #2.1' r. R) i, l! O6 `5 T  C
◎片  名 펜트하우스 시즌2# r  N* c+ F7 S$ L# a" C) W1 E
◎年  代 20213 }2 e0 i; O) m0 k7 J) z
◎产  地 韩国2 y( |" O/ a: V
◎类  别 剧情, o8 A2 }+ o! s. g3 D
◎语  言 韩语7 U! q! {# @7 ^/ A
◎上映日期 2021-02-19(韩国)
3 D' \1 h9 d( u7 i3 Y◎IMDb评星  ★★★★★★★✦☆☆# g# o5 G% k# i) k" Y3 b
◎IMDb评分  7.7/10 from 41 users1 a) C; s! f9 {; O3 w' ^' [1 M+ z3 x
◎IMDb链接  https://www.imdb.com/title/tt14055524/- p  j9 x. r0 G( w0 [- O8 P  b
◎豆瓣评星 ★★★★☆, d" Q. ]+ T, j- {
◎豆瓣评分 7.5/10 from 58,068 users' i) l  Y5 x' x
◎豆瓣链接 https://movie.douban.com/subject/35306371/
1 ^$ o/ |+ @% M2 {, s# f◎单集片长 50分钟
( l: d1 N) |+ `" h$ G# n◎集  数 13
& Y& f2 n0 [. K& n- G7 K9 X4 K% T◎导  演 朱东民 / Dong-min Joo
1 }5 C6 V  `' b! |◎演  员 李智雅 / Ji-ah Lee | 饰 沈秀莲
1 i- M# Z/ G: d9 y2 Q# q0 V$ b; S      金素妍 / So-yeon Kim | 饰 千瑞琎
* U# c4 I4 M" t& B7 ^& c      柳真 / Yoo-jin | 饰 吴赟熙
2 K9 b+ C1 U7 g$ O      严基俊 / Ki-joon Um | 饰 朱丹泰
0 E- N9 g& ^3 h! l; `      奉太奎 / Tae-gyu Bong | 饰 李奎镇
7 p- u/ s1 r) ]9 k6 P3 \" J# ^      李尚禹 / Sang-woo Lee
; T1 y6 D, B4 r0 U+ Q      尹仲勋 / Jong-hoon Yoon | 饰 河尹哲/ S& F$ d+ i" `* u. t9 b/ b
      申恩庆 / Eun-Kyung Shin | 饰 姜玛莉
  k) Z: X1 X* H      尹周熙 / Joo-Hee Yoon | 饰 高尚雅) U7 r% @- f) \4 t- z5 O4 x- Q8 B
      朴恩硕 / Eun-Seok Park: R' T6 B, g. [5 p2 w1 C7 X( L4 _
      韩智贤 / Ji-hyun Han | 饰 朱硕景3 ]: }  J& l) H. {4 c
      罗素艺 / Na So-ye | 饰 朱慧仁5 _& r3 ]) _( p. R4 B
      崔成希 / Bada
& v0 V% y; L8 v8 I- R/ ]+ k      金罗莎 / Kim Rosa | 饰 杨美玉( j( v# ?; O. r. V
      崔艺彬 / Ye-bin Choi | 饰 恩星
, r$ Y- O. Y0 ~7 z! L& D: V' H5 a      朴秀娥 / Su-a Park | 饰 宋艺里
; d' ]0 _+ Z' y4 S2 c7 o* L, S      金贤秀 / Hyun-su Kim& a) [2 B+ L, V6 ?3 e$ V9 N; d: W
      金永大 / Young-dae Kim
# f( c/ E2 y) L5 p( e5 T5 \      陈智熙 / Ji-hee Jin
; l- h# M' ^- k9 T' G' l) }      李泰彬 / Tae-vin Lee' A; [8 d, G' _* i
      赵秀敏 / Soo-min Cho
. L. I- f5 O( X1 h7 r' ?; D9 {7 R" F      杨正敏 / Yang Jung-Min | 饰 卢智雅. x* x: m9 r5 n" l" z
◎编  剧 金顺玉 / Kim Sun-ok
) ?# f' b/ t0 A1 V/ W% M- n: Q1 R  R6 i7 p$ N* F' N
◎标  签 韩剧 | 人性 | 韩国 | 报仇 | 恶人 | 女性 | 电视剧 | 2021
+ _  V2 g( S) l1 l( S- e7 r
9 }7 w$ w& X7 z- w+ J3 r3 d◎简  介 
7 f' k) b8 x# U8 L
% A5 K, j4 |( {- N( y/ E  该剧讲述为了跻身上流社会而赌上人生、奋力奔走的女主的欲望和母性,以及置业暴富的成功故事。* M% E1 U: G$ E9 j( F) `

* F2 i' v) G# ]  @/ y5 bVideo  Q* ^3 M1 p) }6 g8 h
ID : 14 c; Z9 e; R3 y- f/ x% ?) A
Format : AVC
0 a1 I4 h; I6 f& F( [: t6 RFormat/Info : Advanced Video Codec3 ]( G3 X7 r9 L# ?1 B$ ~1 N* Q& a3 m
Format profile : High@L48 F$ O9 [' p; d& Q+ s. E
Format settings : CABAC / 4 Ref Frames
0 k8 S6 d, A& j* X/ dFormat settings, CABAC : Yes
7 P5 I( o. c: s5 m) i# d6 jFormat settings, Reference frames : 4 frames3 A; Q6 K6 t" t( t; J; q: q. X, @
Codec ID : V_MPEG4/ISO/AVC3 X' X" ^, i' X% X4 m& [/ k% ]
Duration : 1 h 17 min
# ^2 ?9 y9 H% E/ x: I# u  dBit rate mode : Variable
9 d" p$ f$ I; _1 Q2 C% C4 ^) s& KBit rate : 7 344 kb/s( Y7 z0 ^9 ~9 l9 c/ L5 B
Maximum bit rate : 20.0 Mb/s
# \; K" M: t5 X5 Q9 Q; d$ ~Width : 1 920 pixels
* r* F* [, m7 K" `9 A  z: _Height : 1 080 pixels
0 J% c0 S6 k" Y2 R  ODisplay aspect ratio : 16:9
8 d" N% z; U) L8 f( ^Frame rate mode : Constant- h6 Z% r! d1 [
Frame rate : 23.976 (24000/1001) FPS2 R* K. Y- M3 l4 U
Color space : YUV/ H( S0 B$ g+ T" F; f
Chroma subsampling : 4:2:0# M! B1 I/ v! G9 [' u
Bit depth : 8 bits
/ i" v8 S) f+ ?% @7 J  yScan type : Progressive- f, \, @! R1 X  @" p/ d
Bits/(Pixel*Frame) : 0.148
2 P2 h$ T. i" K" [Stream size : 3.96 GiB (98%)
; W% B/ `% E0 c5 VWriting library : x264 core 148 r2727 7d026e87 y5 i8 v, _- F' h& S0 f7 I0 ]! R
Encoding settings : cabac=1 / ref=4 / deblock=1:0:0 / analyse=0x3:0x111 / me=umh / subme=10 / psy=1 / psy_rd=1.00:0.00 / mixed_ref=1 / me_range=120 / chroma_me=1 / trellis=2 / 8x8dct=1 / cqm=0 / deadzone=21,11 / fast_pskip=1 / chroma_qp_offset=-2 / threads=8 / lookahead_threads=2 / sliced_threads=0 / nr=0 / decimate=1 / interlaced=0 / bluray_compat=0 / stitchable=1 / constrained_intra=0 / bframes=16 / b_pyramid=2 / b_adapt=2 / b_bias=0 / direct=3 / weightb=1 / open_gop=0 / weightp=2 / keyint=240 / keyint_min=121 / scenecut=0 / intra_refresh=0 / rc_lookahead=240 / rc=crf / mbtree=1 / crf=16.0 / qcomp=0.50 / qpmin=6 / qpmax=51 / qpstep=4 / vbv_maxrate=20000 / vbv_bufsize=25000 / crf_max=0.0 / nal_hrd=vbr / filler=0 / ip_ratio=1.40 / aq=1:0.80- ]5 Q# v% D+ e. s, O: [$ L8 n
Default : Yes
$ B  }7 U& P. w4 M; A( NForced : No
0 E8 w: U* ?+ F) t% r. c% n0 _
Audio
8 j5 o1 d3 I/ Q. {  O  A6 f# FID : 2. G' P$ |) B% e6 N% j
Format : E-AC-3
7 q& D" K& z( f/ ~& |( p4 VFormat/Info : Enhanced AC-3
) _: A0 w4 s- d& R4 }: QCommercial name : Dolby Digital Plus
# N  y  m/ h. Z, wCodec ID : A_EAC34 z  a' ^( W; [0 }0 ?, x6 C) `8 @& \
Duration : 1 h 17 min
% {5 M( ?" y+ M* aBit rate mode : Constant
) q; {8 g7 ?) Q+ o* |$ |: u3 ABit rate : 128 kb/s+ }. q# }7 g8 r& b2 L# @! b/ |; l
Channel(s) : 2 channels
; k3 Q" w) O- C% w& d$ a5 YChannel layout : L R
, i3 b0 t* u$ XSampling rate : 48.0 kHz
/ f  D3 j) M0 Y# ?, ?Frame rate : 31.250 FPS (1536 SPF)
7 X8 }  |+ t# i6 _& vBit depth : 32 bits
0 a, |! R" b( X0 }+ p5 kCompression mode : Lossy8 s$ Y# i; R& `# @4 ~" N
Stream size : 70.6 MiB (2%)  g9 s4 V( K/ A: `  [
Title : Korean# Z; X" k- ?* S. v3 E7 W  [
Language : Korean
# \: ?3 b  N8 B% b: O1 xService kind : Complete Main
" X* a  }/ L4 G! z/ CDefault : Yes
+ Z" v1 ~8 `. vForced : No( J5 f7 U7 s4 {9 m! D0 \

( _) L3 `& p8 v/ Y) t' w8 OText #1$ o7 ]+ p" ]! J' I: ~
ID : 3
5 ]: r; p3 S1 v9 a2 MFormat : UTF-83 Y3 V& y' P8 u* X
Codec ID : S_TEXT/UTF8
* k7 K' E$ s/ `# u$ C  XCodec ID/Info : UTF-8 Plain Text
0 B! a( \4 Q' y( u& Z8 XDuration : 1 h 16 min% ?1 e8 J% g. r4 |
Bit rate : 56 b/s2 I1 A' i1 j) t8 a/ ]$ s, e$ m
Count of elements : 1082/ K' M* R- T5 R6 u- h
Stream size : 31.7 KiB (0%)
$ s- G7 P7 e( p( QLanguage : English2 l8 f/ I9 h7 C, ?4 V6 R7 q' B
Default : No
% k3 ~2 F$ k6 m" M. tForced : No
- X4 U1 j4 A( ~6 H1 B, q) S
& ~, L% p2 N% o9 t9 _, ]( H; mText #24 ?" b# c) R0 v# j% t7 m
ID : 4; _! L3 \4 t9 ?! d) f0 i1 h' j
Format : UTF-8
1 X/ m# R0 `1 ^! B' nCodec ID : S_TEXT/UTF8' j- w8 F9 Q0 ?% U1 A
Codec ID/Info : UTF-8 Plain Text& h& x7 N2 B4 O2 p8 D/ V8 e
Duration : 1 h 16 min: O+ ~9 j1 }: J1 j' c
Bit rate : 55 b/s4 v% H  A* _9 Y7 G, [
Count of elements : 1088. {: H+ F/ `' C1 K7 q' B, S
Stream size : 31.3 KiB (0%)) m  J4 `/ ]( A/ f
Title : Neutral3 o- S- ^& B; _; t
Language : Spanish8 `% f- f" r2 \
Default : No" b( L2 T/ N0 R' s& \# Z& U
Forced : No$ h9 l( \, i% [: c' X# O
+ ~9 @) m/ W% {0 w% a8 L0 B$ k& J
Text #30 P% d" c; V0 \& {! ]! A
ID : 5
; f$ C8 b9 C8 zFormat : UTF-8# b/ D3 d9 @/ `! {
Codec ID : S_TEXT/UTF8
0 _$ o9 K. b0 {% \; |0 aCodec ID/Info : UTF-8 Plain Text
+ T+ c$ l2 m' sDuration : 1 h 16 min3 h) A3 d, @" Q7 s
Bit rate : 58 b/s
4 i4 g* D0 ?" B; UCount of elements : 1084% K, E/ |& O! D4 Y# v% ]' O
Stream size : 32.8 KiB (0%)
  Q% K7 B$ D# g+ |Language : French
0 Q4 F, K3 a% c; f' W+ a3 MDefault : No
5 m3 o2 y4 d, L. VForced : No
2 V; g+ A3 x9 U& t, o' E; H
) ^, S" q' X# o0 l* ^  [Text #4
( |4 r5 c) [0 E7 BID : 6
# |/ _8 }: P4 c! D+ |Format : UTF-8! v* F, A) [1 _, q
Codec ID : S_TEXT/UTF85 m/ w: `6 Y. L/ L- B* a: B: S6 m
Codec ID/Info : UTF-8 Plain Text
& T* v( @3 k3 ~7 I4 ]2 h- G5 ~4 `Duration : 1 h 16 min
' ^5 s) C2 a  I8 }Bit rate : 57 b/s  g7 o1 |$ j' H* M) x3 `0 n! D0 d; s# L
Count of elements : 10892 D, |* s; s" B5 A4 P3 w$ M
Stream size : 32.2 KiB (0%)- t$ Q* e, O- J% h) q
Language : Malay
6 w5 C1 d2 B* ^Default : No
, P/ W& f& \# a; T2 sForced : No1 b& J; O2 E# \+ q
9 s# v! ~7 b: n: H, Z
Text #5
4 w/ w" z/ ~9 Z; D7 j# X9 y7 u2 T" pID : 7
9 b# T) R5 X: |# F: iFormat : UTF-8
7 {5 `) [0 @7 `1 j0 I- i2 PCodec ID : S_TEXT/UTF8
* }4 j' ~" f- Q( W( A+ L" nCodec ID/Info : UTF-8 Plain Text4 q+ Q) o, K/ d- A% ^7 `
Duration : 1 h 16 min5 r  v" a4 l" \# Y. y9 d7 S
Bit rate : 140 b/s7 y, U  b, O. F
Count of elements : 1089
, L, C2 a# e9 O1 Y% p% C, d9 KStream size : 78.5 KiB (0%)0 f% j) Y6 b9 S: M! w6 O& m, j
Language : Thai
# M$ v1 A1 U: t. NDefault : No; R7 H6 A; ?: W  R4 {. B
Forced : No
2 s+ H* f# h$ I1 K
) a. M8 r# [* A  g0 `3 KText #65 n1 y9 B' o4 K8 w
ID : 8- o6 K8 f; ^) g" y3 i
Format : UTF-8: ^* L: q4 C5 ~( n6 g9 h$ D
Codec ID : S_TEXT/UTF8
* I. ^" B- ?# p9 |( ECodec ID/Info : UTF-8 Plain Text
1 S/ X2 z& n8 P; d0 W6 bDuration : 1 h 16 min0 |* X( K, ]8 h: W9 h+ P; i( t
Bit rate : 72 b/s
0 v3 H: l, z, f/ I( j1 ~( |' ?Count of elements : 1086' Z2 f( W6 H8 ?$ x9 h: M# U) G
Stream size : 40.6 KiB (0%)4 A! `4 f# j6 b
Language : Vietnamese$ w/ z- o% G0 u5 R! M
Default : No( y" Z- G$ y& E& U  Z; E) d
Forced : No% I8 Q6 \$ _4 B4 y. f1 d  K
9 O7 C4 Z6 u0 y4 k/ ~8 O) \: m

2 X" V: ^- C% }2 K
游客,如果您要查看本帖隐藏内容请回复  VIP可免回复查看隐藏内容 详情请点击
发表于 2022-1-4 10:40:00 | 显示全部楼层
游客无权限浏览该内容
发表于 2022-1-5 00:01:21 | 显示全部楼层
游客无权限浏览该内容
您需要登录后才可以回帖 登录 | 立即注册

本版积分规则

封号公示|电子邮件联系本站hd1tj.net#[换成@]outlook.com|免责申明|HD一条街

GMT+8, 2022-8-17 21:05

Powered by Discuz! X3.4

Copyright © 2001-2021, Tencent Cloud.

快速回复 返回顶部 返回列表