HD一条街

 找回密码
 立即注册
搜索
查看: 31|回复: 3

[1080P和1080i] [无台标][韩剧:顶楼 第二季][1080P网飞版/41.96G][韩语 英文软字幕][MKV]

[复制链接]
发表于 2022-1-1 13:27:56 | 显示全部楼层 |阅读模式

马上注册,结交更多好友,享用更多功能,让你轻松玩转社区。

您需要 登录 才可以下载或查看,没有帐号?立即注册

x
7 h1 |8 e+ @$ [/ ~4 d  g( g
                               
登录/注册后可看大图

% E* b4 G& Z; t  Q1 V& q, i1 C9 N. C) ?2 T( Y! v  r
◎译  名 顶楼 第二季 / Penthouse上流战争 2(台) / The Penthouse : War in life 2 / Episode #2.1& p( d& f- J; B8 [6 @9 M
◎片  名 펜트하우스 시즌2
7 R7 R9 _7 }# M; Z7 f% F: `& m◎年  代 20214 G3 N  u- N/ \( g
◎产  地 韩国
2 {( `6 q$ d7 S; M* c5 y) C◎类  别 剧情4 ~; W) `# s: f" X9 q8 D
◎语  言 韩语3 \9 @' N9 }, n0 o6 c& b+ k2 W: A
◎上映日期 2021-02-19(韩国)' E1 ]; r# Z0 \0 m
◎IMDb评星  ★★★★★★★✦☆☆
, e6 P: r  @, h◎IMDb评分  7.7/10 from 41 users
! P1 w$ }7 @9 w( p6 V4 Q◎IMDb链接  https://www.imdb.com/title/tt14055524/& [& F4 C# p8 P! T+ t( z
◎豆瓣评星 ★★★★☆
+ X7 b/ C- O3 Q$ u' }6 A- B( [◎豆瓣评分 7.5/10 from 58,068 users
: q: y, N8 m% P1 C' R◎豆瓣链接 https://movie.douban.com/subject/35306371/) _9 k  v. ~$ u2 T( ~" {
◎单集片长 50分钟- w0 X: Y6 h/ R) Y- B
◎集  数 13! h9 Y' q1 J7 k; E3 P6 g( i
◎导  演 朱东民 / Dong-min Joo. L3 ?/ |0 }7 G& O/ X, ]. v( H
◎演  员 李智雅 / Ji-ah Lee | 饰 沈秀莲
" E+ K. i- t, A3 i4 }      金素妍 / So-yeon Kim | 饰 千瑞琎
/ r/ B6 K& |+ v! |9 _0 P      柳真 / Yoo-jin | 饰 吴赟熙" O: k; N) i: G/ ~$ ^2 ]9 r
      严基俊 / Ki-joon Um | 饰 朱丹泰
& G$ x) C) g8 z1 ]1 a      奉太奎 / Tae-gyu Bong | 饰 李奎镇' V, W; U9 i) B2 i/ n( W3 o
      李尚禹 / Sang-woo Lee
7 }; b8 {; b9 e4 T7 O      尹仲勋 / Jong-hoon Yoon | 饰 河尹哲2 J1 [- ?' L6 W; |
      申恩庆 / Eun-Kyung Shin | 饰 姜玛莉6 Y: C4 e% j4 Q7 M4 |  {
      尹周熙 / Joo-Hee Yoon | 饰 高尚雅/ Q- m& T  r0 {9 ]9 N/ H
      朴恩硕 / Eun-Seok Park
4 V" _; o% A# A! a) j4 q- X$ p      韩智贤 / Ji-hyun Han | 饰 朱硕景, {5 ^' |1 U, e5 B; J+ H1 Y
      罗素艺 / Na So-ye | 饰 朱慧仁" B* a* m/ H  h( C( U0 t: `
      崔成希 / Bada6 P5 e6 a% v1 y
      金罗莎 / Kim Rosa | 饰 杨美玉
9 h! B/ J- \8 [8 j7 [      崔艺彬 / Ye-bin Choi | 饰 恩星
+ U4 b' _- [; P, Z% c      朴秀娥 / Su-a Park | 饰 宋艺里  g: I& R2 l9 f+ k3 H3 d
      金贤秀 / Hyun-su Kim
& ^3 p4 c$ @' d" M) f3 |1 v4 N/ D      金永大 / Young-dae Kim, ?& p$ Q5 D9 x6 H- ]0 t% n& I
      陈智熙 / Ji-hee Jin+ H" a/ \. Q  e! d
      李泰彬 / Tae-vin Lee) v  E( X4 L, R
      赵秀敏 / Soo-min Cho
9 H2 I% `/ n+ P* o      杨正敏 / Yang Jung-Min | 饰 卢智雅  L$ ~( h6 \; s$ Y& W" Q
◎编  剧 金顺玉 / Kim Sun-ok3 Z+ G. w* G5 u" z9 K' X

# g( @3 ~  P% a9 y* ]# `4 s0 M3 y◎标  签 韩剧 | 人性 | 韩国 | 报仇 | 恶人 | 女性 | 电视剧 | 2021
- k' {$ o7 r- m5 S
' l2 j; l4 S7 d4 _◎简  介 
( q$ R1 ~4 x; @
3 H6 ?( z) p3 s3 ?  该剧讲述为了跻身上流社会而赌上人生、奋力奔走的女主的欲望和母性,以及置业暴富的成功故事。9 v8 b* U7 N/ E4 ~4 B9 H
7 Z+ [% y( h5 j% ~
Video
" k5 a/ {- t  L# r; x$ n7 y* x+ rID : 1- Y# r) B& ^0 w7 [  w9 i$ g# v5 [' S( B5 c
Format : AVC
. S% g& [' ^8 F  d5 I( sFormat/Info : Advanced Video Codec  Y( C+ s) I+ ^
Format profile : High@L45 b& i7 ]: F* G$ w8 q* X: `
Format settings : CABAC / 4 Ref Frames
- V/ n' u; ?* P/ ~Format settings, CABAC : Yes
# |3 P5 D* ]8 b- h, U* j% c8 `% YFormat settings, Reference frames : 4 frames
. n1 }7 k$ J* a+ g$ p8 `+ Z# rCodec ID : V_MPEG4/ISO/AVC( t8 K( j" `; O+ E/ k4 r$ ~6 t  f. D1 ]
Duration : 1 h 17 min
- n$ x/ c5 t. @Bit rate mode : Variable
& q8 f5 e3 i7 s' s% b( Q7 U! a8 _Bit rate : 7 344 kb/s- h4 l* ?3 k6 `5 e* ~2 i
Maximum bit rate : 20.0 Mb/s  ~8 ~6 ]( r) @/ c$ Q: T& T
Width : 1 920 pixels
7 j2 x' j  v. xHeight : 1 080 pixels
1 B6 [. F) V2 ^% M" E) A% u) x" fDisplay aspect ratio : 16:9
- _+ o5 X, [3 g1 v- d1 T& \Frame rate mode : Constant! D( x* w$ j/ r0 H! }+ E
Frame rate : 23.976 (24000/1001) FPS7 C, G% O4 B  M+ j+ B7 G$ K
Color space : YUV
7 s% U. s7 h+ N! W: D% GChroma subsampling : 4:2:03 ]/ ^) X) g6 ?7 t) T
Bit depth : 8 bits0 V3 z1 Q2 p  q% k& {) y
Scan type : Progressive; J) Y4 W1 H& G8 @0 P
Bits/(Pixel*Frame) : 0.148
* L  {6 c' q! p. |* G# D) Y: VStream size : 3.96 GiB (98%)
" J  t1 C7 Z+ E/ W: p9 k( X: cWriting library : x264 core 148 r2727 7d026e8( ~+ S5 q6 j/ ~/ J4 L
Encoding settings : cabac=1 / ref=4 / deblock=1:0:0 / analyse=0x3:0x111 / me=umh / subme=10 / psy=1 / psy_rd=1.00:0.00 / mixed_ref=1 / me_range=120 / chroma_me=1 / trellis=2 / 8x8dct=1 / cqm=0 / deadzone=21,11 / fast_pskip=1 / chroma_qp_offset=-2 / threads=8 / lookahead_threads=2 / sliced_threads=0 / nr=0 / decimate=1 / interlaced=0 / bluray_compat=0 / stitchable=1 / constrained_intra=0 / bframes=16 / b_pyramid=2 / b_adapt=2 / b_bias=0 / direct=3 / weightb=1 / open_gop=0 / weightp=2 / keyint=240 / keyint_min=121 / scenecut=0 / intra_refresh=0 / rc_lookahead=240 / rc=crf / mbtree=1 / crf=16.0 / qcomp=0.50 / qpmin=6 / qpmax=51 / qpstep=4 / vbv_maxrate=20000 / vbv_bufsize=25000 / crf_max=0.0 / nal_hrd=vbr / filler=0 / ip_ratio=1.40 / aq=1:0.809 X7 h7 c: [7 k0 j
Default : Yes8 |, I  K3 a* s& W0 `; G7 ^! x+ S
Forced : No
/ m6 n# T6 ]' g- O& W& L8 u
3 \. C- t5 `: V! q3 K9 q( X2 j- DAudio) D) C. ~. `5 C$ X! O2 q/ _
ID : 2; J8 Q0 A4 ]5 }' J0 a, l" y
Format : E-AC-34 R7 B' G5 L: ~
Format/Info : Enhanced AC-3$ h! F' _9 O/ @6 F" g
Commercial name : Dolby Digital Plus, ^1 R/ z. n( G/ H
Codec ID : A_EAC3
2 M" H/ Y; K' @Duration : 1 h 17 min
% H4 _8 x3 E1 z- {( d" mBit rate mode : Constant  x" R, {2 @. N. ^1 \
Bit rate : 128 kb/s
8 S$ t1 }, F. ]9 bChannel(s) : 2 channels
9 x; ?0 Q$ g$ y6 ~( ?3 Q' p* H9 eChannel layout : L R
! X* u) |! t+ N5 P$ HSampling rate : 48.0 kHz$ M  [+ a$ J  Z- w
Frame rate : 31.250 FPS (1536 SPF)
  y0 _2 ?( h1 O! SBit depth : 32 bits
/ V9 w( Y( v+ D  }Compression mode : Lossy+ _' ^- O  t( |- d: |3 }  j
Stream size : 70.6 MiB (2%)
1 A2 Q0 w6 B+ L+ |6 K7 uTitle : Korean
7 m, a' T2 _$ R5 K2 _/ [- RLanguage : Korean
2 B* ^9 i) x  m4 KService kind : Complete Main; r  S, k; O9 m" S! Q) |
Default : Yes1 x0 ~: ~7 u$ W6 Z9 T" c* l1 _% \
Forced : No+ A4 e8 a" q# C  K( p% K. C

; z1 n6 P# e% r  G& _9 dText #1% y; E! m" |8 W# R7 ?1 h9 R: g
ID : 3' C, i4 F" j( F. m$ ^+ o8 \
Format : UTF-83 e2 T; A( }% o
Codec ID : S_TEXT/UTF8
+ F- k  c: I* I. ^! z  tCodec ID/Info : UTF-8 Plain Text
) Z2 h; r3 Q* B3 M5 V+ o. b: w# M! y1 {Duration : 1 h 16 min
9 m6 T) T/ B- ?7 b2 U. e; lBit rate : 56 b/s
8 E& P  G" {# tCount of elements : 1082
, L' U0 p, T1 x/ f/ [! DStream size : 31.7 KiB (0%)/ ^7 A) t2 Y8 Q2 m5 V  ^. Z
Language : English7 Y& V4 C8 a( w* w/ V( @' `
Default : No2 A+ r7 H5 b" R' _
Forced : No
2 P4 n; A1 B% o* m; e( v- l, [4 D1 Z* P; `' m. |  k4 z
Text #27 V# n3 M' ]1 I$ X
ID : 4
/ t% f' v0 C" `; p: I9 sFormat : UTF-8
" I5 \' h& ^! T0 ]6 U0 \Codec ID : S_TEXT/UTF8$ |$ `' F7 M3 d6 G) E# ^- D
Codec ID/Info : UTF-8 Plain Text: R( ^+ ^. r( c6 d; G- t4 \% t% [
Duration : 1 h 16 min( f/ D+ w( C7 }
Bit rate : 55 b/s
4 m, O* C% Z3 [# K' uCount of elements : 1088* q5 T( X5 i% \2 q# A' \1 ]
Stream size : 31.3 KiB (0%)
* ^' h7 X  q+ i% l& m9 H! VTitle : Neutral
  T: N1 V; C1 [7 I+ HLanguage : Spanish
/ n. N5 k8 w, ^Default : No# [5 Q/ x1 {# Q+ }. J; h
Forced : No7 ]# w2 T9 ^( y5 s5 R. G/ C
9 Q. L- k2 _7 V4 J
Text #3
9 Z7 g7 i0 [( _; F: j3 x4 @0 ?ID : 5
0 q% {0 H3 L" q& @7 lFormat : UTF-8$ h& y1 ~* r" z/ U# g/ O
Codec ID : S_TEXT/UTF8& \4 R/ _. k' Y3 a3 q/ |6 [
Codec ID/Info : UTF-8 Plain Text5 d, B1 T, x) e! J: Q* d2 _
Duration : 1 h 16 min7 o, ]# K% E4 O, N
Bit rate : 58 b/s) k4 _* }$ r- @! m' g5 X% g
Count of elements : 10842 U- x  T% d2 B2 a& H
Stream size : 32.8 KiB (0%)" w4 h  ?3 r- ]( w: R
Language : French9 J0 ^) l, o6 D: L! Z; _. \
Default : No5 g5 f$ o5 e& X2 q  w/ O: b) f: V: u+ Q
Forced : No/ b' J1 c3 t+ N; h/ ]
+ ~/ ?6 A- r6 s& Z
Text #4
* T7 c3 ]/ v8 V% S9 x, m  n+ B8 {7 oID : 63 z  j/ k9 o6 ~* U
Format : UTF-8
8 |" \. F$ i# K# ]/ i% aCodec ID : S_TEXT/UTF8
, J- C; L  e2 J& V1 A( O; _. O; kCodec ID/Info : UTF-8 Plain Text: w; x/ n: C  @# a% i
Duration : 1 h 16 min0 `" ]0 u8 L# y1 u- Z: r3 m( V
Bit rate : 57 b/s
! e' P; Z* o2 c( N8 E6 \, X1 w) w$ ]Count of elements : 1089
! a* e) t( _" n. p$ ?6 FStream size : 32.2 KiB (0%)
/ \  j8 \7 z! y: BLanguage : Malay
5 r9 n+ k, W0 K' h4 P5 J4 UDefault : No
' r9 o5 y) d+ c& c8 AForced : No
" c: [* F# @. x/ m7 p8 k9 d' G
7 C4 Y' `) S1 ]+ k3 L+ RText #5
, K8 S! e& a- _( {ID : 7# e1 P2 X  T; H0 |8 [( Z; y1 `! V
Format : UTF-8
$ B+ h. d- Q6 eCodec ID : S_TEXT/UTF8
0 U2 [: }0 [, K) |" N9 K, UCodec ID/Info : UTF-8 Plain Text
0 L1 z: V7 m, _  H- Z0 ^+ `Duration : 1 h 16 min& `8 W& o+ }+ u( \6 W4 K
Bit rate : 140 b/s9 ~4 P* A7 U, g' c/ W( ~' m" \0 C
Count of elements : 10897 I- w( z4 Z1 E4 ]+ x( E
Stream size : 78.5 KiB (0%)
0 d0 t1 K2 M5 wLanguage : Thai
1 W3 Q) T( ~0 f& `Default : No
- X" K4 c/ S$ ?: q1 nForced : No
+ W" o& h1 ~  f5 M6 }& ?1 P0 s  Q) y
Text #6
$ `1 H- h. E2 r3 x* jID : 8
! P  g% c' x% ^( P+ AFormat : UTF-8" \2 g1 M( e1 h% I% {. d
Codec ID : S_TEXT/UTF83 |3 k; v5 K. ]) ^( f- `6 j
Codec ID/Info : UTF-8 Plain Text
, k  p& S' _9 {0 F! |% ZDuration : 1 h 16 min& ]9 L4 P9 w1 e+ x$ v) H
Bit rate : 72 b/s/ G' {$ p& r2 ~# o; G
Count of elements : 1086& p# E! d3 h1 |, T( c
Stream size : 40.6 KiB (0%)
2 Q. ^0 g" m2 x3 N6 @Language : Vietnamese) H3 b2 L8 ], D( E4 G# n, w" I$ y
Default : No; ]7 O8 I  i0 K9 h
Forced : No
" y6 s1 W. [$ ]) ~( L2 `# W
  g& A3 m0 J2 [, s8 X1 N: F5 C
+ a9 H( p% Q8 p: y9 \0 j
游客,如果您要查看本帖隐藏内容请回复  VIP可免回复查看隐藏内容 详情请点击
发表于 2022-1-4 10:40:00 | 显示全部楼层
游客无权限浏览该内容
发表于 2022-1-5 00:01:21 | 显示全部楼层
游客无权限浏览该内容
您需要登录后才可以回帖 登录 | 立即注册

本版积分规则

封号公示|电子邮件联系本站hd1tj.net#[换成@]outlook.com|免责申明|HD一条街

GMT+8, 2022-1-22 18:45

Powered by Discuz! X3.4

Copyright © 2001-2021, Tencent Cloud.

快速回复 返回顶部 返回列表