HD一条街

 找回密码
 立即注册
搜索
查看: 51|回复: 0

[1080p] [1976][邵氏][流星蝴蝶剑.德版][1080P/MKV/3.62G][国语中字][Killer.Clans.1976.BluRay.1080p.x265.10bit.DD2.0]

[复制链接]
发表于 2021-12-31 23:46:30 | 显示全部楼层 |阅读模式






◎译  名 流星蝴蝶剑 / Killer Clans
◎片  名 流星蝴蝶劍
◎年  代 1976
◎产  地 中国香港
◎类  别 剧情 / 动作 / 武侠 / 古装
◎语  言 汉语普通话
◎上映日期 1976-03-20
◎IMDb评分  6.7/10 from 546 users
◎IMDb链接  https://www.imdb.com/title/tt0074745
◎豆瓣评分 7.6/10 from 3240 users
◎豆瓣链接 https://movie.douban.com/subject/1301180/
◎片  长 94分钟
◎导  演 楚原 Yuen Chor
◎编  剧 古龙 Lung Ku
◎主  演 岳华 Hua Yueh
       井莉 Li Ching
       李修贤 Danny Lee
       王憾尘 Han Chen Wang
       陈国权 Kwok Kuen Chan
       徐少强 Norman Chu
       黄梅 Wong Mei
       冯克安 Hark-On Fung
       钱似莺 Tsi-Ang Chin
       刘俊辉 Chun Fai Lau
       江洋 Yang Chiang
       徐发 Fat Tsui
       艾飞 Ai Fei
       伍元勋 Ng Yuen-Fan
       杜伟和 Wei Ho Tu
       山怪 Kwai Shan
       夏萍 Ping Ha
       钱月笙 Yuet Sang Chin
       梁尚云 Shang-yun Liang
       强汉 Chiang Han
       金天柱 Tien-Chu Chin
       林伟图 Wai-Tiu Lam
       徐忠信 Alan Chui Chung San
       凌云 Yun Ling
       顾冠忠 Kuan-chung Ku
       田青 Ching Tien
       井淼 Miao Ching
       詹森 Shen Chan
       李寿祺 Sau Kei Lee
       罗烈 Lieh Lo
       陈萍 Ping Chen
       谷峰 Feng Ku
       杨志卿 Chih-Ching Yang
       元彪 Biao Yuen
       袁信义 Shun-Yee Yuen
       袁祥仁 Cheung-Yan Yuen
       元奎 Corey Yuen
       任世官 Shi-Kwan Yen
       宗华 Hua Chung
       沈劳 Lao Shen
       王侠 Hsieh Wang
       樊梅生 Mei Sheng Fan
       王清河 Ching-Ho Wang
       郑康业 Kang-Yeh Cheng
       王钟 Chung Wang


◎标  签 邵氏 | 楚原 | 武侠 | 香港 | 古龙 | 香港电影 | 1976 | 岳华

◎简  介  

  高老大(陈萍 饰)是神秘杀手组织“快活林”的当家,孟星魂(宗华 饰)和叶翔(凌云 饰)都是她一手栽培出来的刺客,对她忠心耿耿。某日,孟星魂接受了刺杀江湖盟主孙玉伯(谷峰 饰)的任务,却在执行任务之时结识了名为小蝶(井莉 饰)的美丽女子,两人一见钟情。孙玉伯和飞鹏堡有着不共戴天之仇,为了报仇,孙玉伯决心比武招贤,孟星魂在擂台上胜出,得到了孙玉伯的赏识。律香川(岳华 饰)是孙玉伯的养子,孟星魂和他联手,最终歼灭了飞鹏堡。正当孟星魂准备执行刺杀任务之时,得知了小蝶竟然就是孙玉伯的女儿,与此同时,律香川人面兽心勾搭高老大和飞鹏堡,企图加害孙玉伯。


General
Unique ID                   : 262173036940211669575509590660271420654 (0xC53CB0B3EC53D75E4262762FC311B4EE)
Format                      : Matroska
Format version              : Version 4
File size                   : 3.35 GiB
Duration                    : 1 h 36 min
Overall bit rate mode       : Variable
Overall bit rate            : 4 960 kb/s
Encoded date                : UTC 2021-01-29 09:45:29
Writing application         : mkvmerge v51.0.0 ('I Wish') 64-bit
Writing library             : libebml v1.4.0 + libmatroska v1.6.2

Video
ID                          : 1
Format                      : HEVC
Format/Info                 : High Efficiency Video Coding
Format profile              : Main 10@L4@Main
Codec ID                    : V_MPEGH/ISO/HEVC
Duration                    : 1 h 36 min
Bit rate                    : 4 671 kb/s
Width                       : 1 920 pixels
Height                      : 812 pixels
Display aspect ratio        : 2.35:1
Frame rate mode             : Constant
Frame rate                  : 25.000 FPS
Color space                 : YUV
Chroma subsampling          : 4:2:0
Bit depth                   : 10 bits
Bits/(Pixel*Frame)          : 0.120
Stream size                 : 3.16 GiB (94%)
Writing library             : x265 2.8+1-478bfe2b7673:[Windows][GCC 7.3.0][64 bit] 10bit
Language                    : Chinese
Default                     : Yes
Forced                      : No
Color range                 : Limited
Color primaries             : BT.709

Audio
ID                          : 2
Format                      : FLAC
Format/Info                 : Free Lossless Audio Codec
Codec ID                    : A_FLAC
Duration                    : 1 h 36 min
Bit rate mode               : Variable
Bit rate                    : 247 kb/s
Channel(s)                  : 2 channels
Channel layout              : L R
Sampling rate               : 48.0 kHz
Frame rate                  : 11.719 FPS (4096 SPF)
Bit depth                   : 16 bits
Compression mode            : Lossless
Stream size                 : 171 MiB (5%)
Writing library             : libFLAC 1.2.1 (UTC 2007-09-17)
Language                    : Chinese
Default                     : Yes
Forced                      : No

Text #1
ID                          : 3
Format                      : UTF-8
Codec ID                    : S_TEXT/UTF8
Codec ID/Info               : UTF-8 Plain Text
Duration                    : 1 h 35 min
Bit rate                    : 41 b/s
Count of elements           : 1402
Stream size                 : 29.2 KiB (0%)
Title                       : CHS
Language                    : Chinese
Default                     : Yes
Forced                      : No

Text #2
ID                          : 4
Format                      : PGS
Muxing mode                 : zlib
Codec ID                    : S_HDMV/PGS
Codec ID/Info               : Picture based subtitle format used on BDs/HD-DVDs
Duration                    : 1 h 35 min
Bit rate                    : 24.5 kb/s
Count of elements           : 2506
Stream size                 : 16.7 MiB (0%)
Title                       : 简体
Language                    : Chinese
Default                     : No
Forced                      : No

Text #3
ID                          : 5
Format                      : PGS
Muxing mode                 : zlib
Codec ID                    : S_HDMV/PGS
Codec ID/Info               : Picture based subtitle format used on BDs/HD-DVDs
Duration                    : 1 h 35 min
Bit rate                    : 24.5 kb/s
Count of elements           : 2452
Stream size                 : 16.7 MiB (0%)
Title                       : 繁体
Language                    : Chinese
Default                     : No
Forced                      : No

Text #4
ID                          : 6
Format                      : PGS
Muxing mode                 : zlib
Codec ID                    : S_HDMV/PGS
Codec ID/Info               : Picture based subtitle format used on BDs/HD-DVDs
Duration                    : 1 h 35 min
Bit rate                    : 26.1 kb/s
Count of elements           : 2188
Stream size                 : 17.8 MiB (1%)
Title                       : 英文
Language                    : English
Default                     : No
Forced                      : No



购买主题 本主题需向作者支付 20 金币 才能浏览 VIP+用户组可免费查看,详情请点击
您需要登录后才可以回帖 登录 | 立即注册

本版积分规则

封号公示|电子邮件联系本站hd1tj.net#[换成@]outlook.com|免责申明|HD一条街

GMT+8, 2022-5-25 21:22

Powered by Discuz! X3.4

Copyright © 2001-2021, Tencent Cloud.

快速回复 返回顶部 返回列表