HD一条街

 找回密码
 立即注册
搜索
查看: 58|回复: 4

[1080p] [1986][表哥到][MKV/7.35G][国粤双语][简繁中字][My.Cousin.The.Ghost.1986.BluRay.1080p.LPCM2.0.x265.10bit.2Audio]

[复制链接]
发表于 2021-12-28 21:35:15 | 显示全部楼层 |阅读模式


[attach]82372[/attach]

◎译  名 表哥到 The Ghost / 原来我是鬼
◎片  名 表哥到
◎年  代 1987
◎产  地 中国香港
◎类  别 喜剧 / 恐怖 / 奇幻
◎语  言 国语/粤语
◎上映日期 1987-01-09
◎IMDb评分  5.9/10 from 46 users
◎IMDb链接  https://www.imdb.com/title/tt0092650
◎豆瓣评分 6.5/10 from 1565 users
◎豆瓣链接 https://movie.douban.com/subject/1306677/
◎片  长 94 分钟
◎导  演 午马 Wu Ma
◎编  剧 张丽玲 Lai Ling Cheung / 司徒卓汉 Chuek-Hon Szeto
◎主  演 吴耀汉 Richard Ng
       钟镇涛 Kenny Bee
       午马 Wu Ma
       黄韵诗 Wan-Si Wong
       孟海 Hoi Mang
       太保 Po Tai
       李志杰
       田俊 James Tien Chun
       叶荣祖 Wing-Cho Yip
       田青 Ching Tien
       西瓜刨 Gwa-pau Sai


◎标  签 喜剧 | 香港 | 香港电影 | 午马 | 鬼片 | 吴耀汉 | 钟镇涛 | 1987

◎简  介  

  吴德大(吴耀汉 饰)早年移民英国,开餐馆为生。他为人刻薄,经常斥责羞辱非法移民英国的表弟小马(午马 饰)。两人争吵时口无遮拦,导致阿马被遣送回港。
  阿马返港后与小勇(钟镇涛 饰)、Q仔(孟海 饰)、肥婆(李志杰 饰)、史太保(太保 饰)四个表弟供职同一家酒楼,因阿马的女友嫁给别人而引发一场误会,导致表兄弟们同时丢掉工作。众人失意之时,突然接到德大即将返港的消息。阿马誓死不愿和阿大住同一间屋,四兄弟突然想起他们曾将公寓一间房子租给一位化妆小姐玫瑰,而玫瑰已经许久不归。万般无奈之下,他们决定打扫玫瑰的房间,迎接表哥大的到来。但是……

General
Unique ID                      : 83341839392971863836533545540535079495 (0x3EB30DEDDC7684BB810F315E6A065247)
7.35GB\My.Cousin.The.Ghost.1987.Bluray.1080p.LPCM2.0.x265.10bit.mkv
Format                         : Matroska
Format version                 : Version 4
File size                      : 7.35 GiB
Duration                       : 1 h 35 min
Overall bit rate               : 11.0 Mb/s
Encoded date                   : UTC 2021-12-26 10:47:58
Writing application            : mkvmerge v62.0.0 ('Apollo') 64-bit
Writing library                : libebml v1.4.2 + libmatroska v1.6.4

Video
ID                             : 1
Format                         : HEVC
Format/Info                    : High Efficiency Video Coding
Format profile                 : Main 10@L5@Main
Codec ID                       : V_MPEGH/ISO/HEVC
Duration                       : 1 h 35 min
Bit rate                       : 6 360 kb/s
Width                          : 1 920 pixels
Height                         : 1 080 pixels
Display aspect ratio           : 16:9
Frame rate mode                : Constant
Frame rate                     : 24.000 FPS
Color space                    : YUV
Chroma subsampling             : 4:2:0
Bit depth                      : 10 bits
Bits/(Pixel*Frame)             : 0.128
Stream size                    : 4.25 GiB (58%)
Writing library                : x265 3.5+10-82786fccc:[Windows][MSVC 1929][64 bit] 10bit
Encoding settings              : cpuid=1111039 / frame-threads=5 / numa-pools=36,36 / wpp / no-pmode / no-pme / no-psnr / no-ssim / log-level=2 / input-csp=1 / input-res=1920x1080 / interlace=0 / total-frames=0 / level-idc=0 / high-tier=1 / uhd-bd=0 / ref=6 / no-allow-non-conformance / repeat-headers / annexb / no-aud / no-eob / no-eos / no-hrd / info / hash=0 / no-temporal-layers / no-open-gop / min-keyint=24 / keyint=250 / gop-lookahead=0 / bframes=8 / b-adapt=2 / b-pyramid / bframe-bias=0 / rc-lookahead=24 / lookahead-slices=6 / scenecut=40 / hist-scenecut=0 / radl=0 / no-splice / no-intra-refresh / ctu=64 / min-cu-size=8 / no-rect / no-amp / max-tu-size=32 / tu-inter-depth=1 / tu-intra-depth=1 / limit-tu=0 / rdoq-level=0 / dynamic-rd=0.00 / no-ssim-rd / signhide / no-tskip / nr-intra=0 / nr-inter=0 / no-constrained-intra / no-strong-intra-smoothing / max-merge=3 / limit-refs=1 / no-limit-modes / me=2 / subme=7 / merange=48 / temporal-mvp / no-frame-dup / no-hme / weightp / weightb / no-analyze-src-pics / deblock=0:0 / sao / no-sao-non-deblock / rd=4 / selective-sao=4 / early-skip / rskip / no-fast-intra / no-tskip-fast / no-cu-lossless / b-intra / no-splitrd-skip / rdpenalty=0 / psy-rd=2.00 / psy-rdoq=0.00 / no-rd-refine / no-lossless / cbqpoffs=0 / crqpoffs=0 / rc=crf / crf=16.0 / qcomp=0.60 / qpstep=4 / stats-write=0 / stats-read=0 / ipratio=1.40 / pbratio=1.30 / aq-mode=3 / aq-strength=1.00 / cutree / zone-count=0 / no-strict-cbr / qg-size=32 / no-rc-grain / qpmax=69 / qpmin=0 / no-const-vbv / sar=0 / overscan=0 / videoformat=5 / range=0 / colorprim=2 / transfer=2 / colormatrix=2 / chromaloc=0 / display-window=0 / cll=0,0 / min-luma=0 / max-luma=1023 / log2-max-poc-lsb=8 / vui-timing-info / vui-hrd-info / slices=1 / no-opt-qp-pps / no-opt-ref-list-length-pps / no-multi-pass-opt-rps / scenecut-bias=0.05 / hist-threshold=0.03 / no-opt-cu-delta-qp / aq-motion / no-hdr10 / no-hdr10-opt / no-dhdr10-opt / no-idr-recovery-sei / analysis-reuse-level=0 / analysis-save-reuse-level=0 / analysis-load-reuse-level=0 / scale-factor=0 / refine-intra=0 / refine-inter=0 / refine-mv=1 / refine-ctu-distortion=0 / no-limit-sao / ctu-info=0 / no-lowpass-dct / refine-analysis-type=0 / copy-pic=1 / max-ausize-factor=1.0 / no-dynamic-refine / no-single-sei / no-hevc-aq / no-svt / no-field / qp-adaptation-range=1.00 / scenecut-aware-qp=0conformance-window-offsets / right=0 / bottom=0 / decoder-max-rate=0 / no-vbv-live-multi-pass
Default                        : Yes
Forced                         : No

Audio #1
ID                             : 2
Format                         : PCM
Format settings                : Little / Signed
Codec ID                       : A_PCM/INT/LIT
Duration                       : 1 h 35 min
Bit rate mode                  : Constant
Bit rate                       : 2 304 kb/s
Channel(s)                     : 2 channels
Sampling rate                  : 48.0 kHz
Frame rate                     : 25.000 FPS (1920 SPF)
Bit depth                      : 24 bits
Stream size                    : 1.54 GiB (21%)
Language                       : Chinese
Default                        : Yes
Forced                         : No

Audio #2
ID                             : 3
Format                         : PCM
Format settings                : Little / Signed
Codec ID                       : A_PCM/INT/LIT
Duration                       : 1 h 35 min
Bit rate mode                  : Constant
Bit rate                       : 2 304 kb/s
Channel(s)                     : 2 channels
Sampling rate                  : 48.0 kHz
Frame rate                     : 25.000 FPS (1920 SPF)
Bit depth                      : 24 bits
Stream size                    : 1.54 GiB (21%)
Language                       : Chinese
Default                        : Yes
Forced                         : No

Text #1
ID                             : 4
Format                         : PGS
Muxing mode                    : zlib
Codec ID                       : S_HDMV/PGS
Codec ID/Info                  : Picture based subtitle format used on BDs/HD-DVDs
Duration                       : 1 h 30 min
Bit rate                       : 45.3 kb/s
Count of elements              : 2200
Stream size                    : 29.5 MiB (0%)
Language                       : Chinese
Default                        : Yes
Forced                         : No

Text #2
ID                             : 5
Format                         : PGS
Muxing mode                    : zlib
Codec ID                       : S_HDMV/PGS
Codec ID/Info                  : Picture based subtitle format used on BDs/HD-DVDs
Duration                       : 1 h 30 min
Bit rate                       : 46.4 kb/s
Count of elements              : 2200
Stream size                    : 30.2 MiB (0%)
Language                       : Chinese
Default                        : Yes
Forced                         : No

Text #3
ID                             : 6
Format                         : PGS
Muxing mode                    : zlib
Codec ID                       : S_HDMV/PGS
Codec ID/Info                  : Picture based subtitle format used on BDs/HD-DVDs
Duration                       : 1 h 30 min
Bit rate                       : 42.0 kb/s
Count of elements              : 2200
Stream size                    : 27.3 MiB (0%)
Language                       : Chinese
Default                        : Yes
Forced                         : No

Menu
00:00:00.000                   : en:第 01 章
00:07:19.000                   : en:第 02 章
00:17:21.042                   : en:第 03 章
00:25:17.792                   : en:第 04 章
00:32:09.500                   : en:第 05 章
00:42:58.417                   : en:第 06 章
00:51:35.208                   : en:第 07 章
01:00:05.458                   : en:第 08 章
01:07:51.083                   : en:第 09 章
01:15:25.000                   : en:第 10 章
01:22:17.333                   : en:第 11 章
01:30:50.708                   : en:第 12 章

◎截       图
[attach]82373[/attach]


购买主题 已有 2 人购买  本主题需向作者支付 10 金币 才能浏览 VIP+用户组可免费查看,详情请点击
发表于 2022-5-4 20:25:44 | 显示全部楼层
此帖仅作者可见
发表于 2022-1-4 12:37:59 | 显示全部楼层
此帖仅作者可见
发表于 2022-1-2 12:24:23 | 显示全部楼层
此帖仅作者可见
发表于 2021-12-29 01:40:11 | 显示全部楼层
此帖仅作者可见
您需要登录后才可以回帖 登录 | 立即注册

本版积分规则

封号公示|电子邮件联系本站hd1tj.net#[换成@]outlook.com|免责申明|HD一条街

GMT+8, 2022-5-20 17:59

Powered by Discuz! X3.4

Copyright © 2001-2021, Tencent Cloud.

快速回复 返回顶部 返回列表