HD一条街

 找回密码
 立即注册
搜索
查看: 114|回复: 6

[1080p] [1996][赌神3之少年赌神][1080P/6.11G][国粤双语][简繁英字][God.Of.Gamblers.3:The.Early.Stage.BluRay.1080p.TrueHD5.1.x265.10bit.2Audio]

[复制链接]
发表于 2021-12-28 18:07:39 | 显示全部楼层 |阅读模式




[attach]82370[/attach]



◎译  名 赌神3之少年赌神/赌神3/God of Gamblers 3: The Early Stage
◎片  名 賭神3之少年賭神
◎年  代 1996
◎产  地 中国香港
◎类  别 剧情/喜剧/动作
◎语  言 粤语/英语
◎上映日期 1996-12-14
◎豆瓣评分 7.0/10 from 27834 users
◎豆瓣链接 https://douban.com/subject/1301381/
◎片  长 01:42:32
◎导  演 王晶 Jing Wong
◎编  剧 王晶 Jing Wong
◎主  演 黎明 Leon Lai
       袁咏仪 Anita Yuen
       陈小春 Jordan Chan
       梁咏琪 Gigi Leung
       吴镇宇 Francis Ng
       张达明 Tat-Ming Cheung
       徐锦江 Elvis Tsui
       陈豪 Moses Chan
       邹兆龙 Collin Chou
       龙方 Fong Lung
       吴志雄 Chi Hung Ng

◎简  介
  
  高进(黎明)在同师父千王靳能(钟景辉)学过将近10年技艺后,熟练掌控一切千门技巧,加上与靳能的女儿靳轻(梁咏琪)情投意合,17岁的他可谓春风得意,为了与靳轻风风光光的成婚,他答应靳轻将事业推向高峰,决定参加在澳门举行的新一届“赌神大赛”。
  
  令他没想到的是自己会马失前蹄。高进大赛中被靳能出卖,虽因爱慕他的细七(袁咏仪)与好友龙五(陈小春)伸手相助得以侥幸保命,却也几乎成为废人。在细七的精心照料下,高进奇迹般痊愈,晓得了事情的真相,同时发现多年前父亲死的真正原因,新仇加旧恨促使他振作,决意与师兄高傲(吴镇宇)及靳能在赌桌上再战生死,取回属于自己的东西


General
Unique ID                      : 256631178767716427929881161383370242089 (0xC1115DFFD9A5398BE5AFA038B8573829)
Complete name                  : E:\God.of.Gamblers.3.The.Early.Stage.1996.Bluray.1080p.TrueHD5.1.x265.10bit.mkv
Format                         : Matroska
Format version                 : Version 4
File size                      : 6.11 GiB
Duration                       : 1 h 42 min
Overall bit rate mode          : Variable
Overall bit rate               : 8 533 kb/s
Encoded date                   : UTC 2021-12-26 13:52:42
Writing application            : mkvmerge v62.0.0 ('Apollo') 64-bit
Writing library                : libebml v1.4.2 + libmatroska v1.6.4

Video
ID                             : 1
Format                         : HEVC
Format/Info                    : High Efficiency Video Coding
Format profile                 : Main 10@L5@Main
Codec ID                       : V_MPEGH/ISO/HEVC
Duration                       : 1 h 42 min
Bit rate                       : 5 262 kb/s
Width                          : 1 920 pixels
Height                         : 1 080 pixels
Display aspect ratio           : 16:9
Frame rate mode                : Constant
Frame rate                     : 24.000 FPS
Color space                    : YUV
Chroma subsampling             : 4:2:0
Bit depth                      : 10 bits
Bits/(Pixel*Frame)             : 0.106
Stream size                    : 3.77 GiB (62%)
Writing library                : x265 3.5+10-82786fccc:[Windows][MSVC 1929][64 bit] 10bit
Encoding settings              : cpuid=1111039 / frame-threads=5 / numa-pools=36,36 / wpp / no-pmode / no-pme / no-psnr / no-ssim / log-level=2 / input-csp=1 / input-res=1920x1080 / interlace=0 / total-frames=0 / level-idc=0 / high-tier=1 / uhd-bd=0 / ref=6 / no-allow-non-conformance / repeat-headers / annexb / no-aud / no-eob / no-eos / no-hrd / info / hash=0 / no-temporal-layers / no-open-gop / min-keyint=24 / keyint=250 / gop-lookahead=0 / bframes=8 / b-adapt=2 / b-pyramid / bframe-bias=0 / rc-lookahead=24 / lookahead-slices=6 / scenecut=40 / hist-scenecut=0 / radl=0 / no-splice / no-intra-refresh / ctu=64 / min-cu-size=8 / no-rect / no-amp / max-tu-size=32 / tu-inter-depth=1 / tu-intra-depth=1 / limit-tu=0 / rdoq-level=0 / dynamic-rd=0.00 / no-ssim-rd / signhide / no-tskip / nr-intra=0 / nr-inter=0 / no-constrained-intra / no-strong-intra-smoothing / max-merge=3 / limit-refs=1 / no-limit-modes / me=2 / subme=7 / merange=48 / temporal-mvp / no-frame-dup / no-hme / weightp / weightb / no-analyze-src-pics / deblock=0:0 / sao / no-sao-non-deblock / rd=4 / selective-sao=4 / early-skip / rskip / no-fast-intra / no-tskip-fast / no-cu-lossless / b-intra / no-splitrd-skip / rdpenalty=0 / psy-rd=2.00 / psy-rdoq=0.00 / no-rd-refine / no-lossless / cbqpoffs=0 / crqpoffs=0 / rc=crf / crf=17.0 / qcomp=0.60 / qpstep=4 / stats-write=0 / stats-read=0 / ipratio=1.40 / pbratio=1.30 / aq-mode=3 / aq-strength=1.00 / cutree / zone-count=0 / no-strict-cbr / qg-size=32 / no-rc-grain / qpmax=69 / qpmin=0 / no-const-vbv / sar=0 / overscan=0 / videoformat=5 / range=0 / colorprim=2 / transfer=2 / colormatrix=2 / chromaloc=0 / display-window=0 / cll=0,0 / min-luma=0 / max-luma=1023 / log2-max-poc-lsb=8 / vui-timing-info / vui-hrd-info / slices=1 / no-opt-qp-pps / no-opt-ref-list-length-pps / no-multi-pass-opt-rps / scenecut-bias=0.05 / hist-threshold=0.03 / no-opt-cu-delta-qp / aq-motion / no-hdr10 / no-hdr10-opt / no-dhdr10-opt / no-idr-recovery-sei / analysis-reuse-level=0 / analysis-save-reuse-level=0 / analysis-load-reuse-level=0 / scale-factor=0 / refine-intra=0 / refine-inter=0 / refine-mv=1 / refine-ctu-distortion=0 / no-limit-sao / ctu-info=0 / no-lowpass-dct / refine-analysis-type=0 / copy-pic=1 / max-ausize-factor=1.0 / no-dynamic-refine / no-single-sei / hevc-aq / no-svt / no-field / qp-adaptation-range=1.00 / scenecut-aware-qp=0conformance-window-offsets / right=0 / bottom=0 / decoder-max-rate=0 / no-vbv-live-multi-pass
Default                        : Yes
Forced                         : No

Audio #1
ID                             : 2
Format                         : AC-3
Format/Info                    : Audio Coding 3
Commercial name                : Dolby Digital
Codec ID                       : A_AC3
Duration                       : 1 h 42 min
Bit rate mode                  : Constant
Bit rate                       : 384 kb/s
Channel(s)                     : 2 channels
Channel layout                 : L R
Sampling rate                  : 48.0 kHz
Frame rate                     : 31.250 FPS (1536 SPF)
Compression mode               : Lossy
Stream size                    : 282 MiB (5%)
Service kind                   : Complete Main
Default                        : Yes
Forced                         : No

Audio #2
ID                             : 3
Format                         : MLP FBA
Format/Info                    : Meridian Lossless Packing FBA
Commercial name                : Dolby TrueHD
Codec ID                       : A_TRUEHD
Duration                       : 1 h 42 min
Bit rate mode                  : Variable
Bit rate                       : 2 778 kb/s
Maximum bit rate               : 3 246 kb/s
Channel(s)                     : 6 channels
Channel layout                 : L R C LFE Ls Rs
Sampling rate                  : 96.0 kHz
Frame rate                     : 1 200.000 FPS (80 SPF)
Compression mode               : Lossless
Stream size                    : 1.99 GiB (33%)
Default                        : Yes
Forced                         : No

Text #1
ID                             : 4
Format                         : PGS
Muxing mode                    : zlib
Codec ID                       : S_HDMV/PGS
Codec ID/Info                  : Picture based subtitle format used on BDs/HD-DVDs
Duration                       : 1 h 40 min
Bit rate                       : 37.6 kb/s
Count of elements              : 2203
Stream size                    : 27.1 MiB (0%)
Language                       : Chinese
Default                        : Yes
Forced                         : No

Text #2
ID                             : 5
Format                         : PGS
Muxing mode                    : zlib
Codec ID                       : S_HDMV/PGS
Codec ID/Info                  : Picture based subtitle format used on BDs/HD-DVDs
Duration                       : 1 h 39 min
Bit rate                       : 38.6 kb/s
Count of elements              : 2198
Stream size                    : 27.5 MiB (0%)
Language                       : Chinese
Default                        : Yes
Forced                         : No

Text #3
ID                             : 6
Format                         : PGS
Muxing mode                    : zlib
Codec ID                       : S_HDMV/PGS
Codec ID/Info                  : Picture based subtitle format used on BDs/HD-DVDs
Duration                       : 1 h 39 min
Bit rate                       : 44.5 kb/s
Count of elements              : 2198
Stream size                    : 31.7 MiB (1%)
Language                       : English
Default                        : Yes
Forced                         : No

Menu
00:00:00.000                   : en:第 01 章
00:06:56.458                   : en:第 02 章
00:15:27.042                   : en:第 03 章
00:23:43.667                   : en:第 04 章
00:33:09.667                   : en:第 05 章
00:41:07.917                   : en:第 06 章
00:49:08.917                   : en:第 07 章
00:57:49.500                   : en:第 08 章
01:03:57.125                   : en:第 09 章
01:13:32.083                   : en:第 10 章
01:21:45.208                   : en:第 11 章
01:31:57.000                   : en:第 12 章

[attach]82371[/attach]


购买主题 已有 1 人购买  本主题需向作者支付 10 金币 才能浏览 VIP+用户组可免费查看,详情请点击
发表于 2022-1-22 21:48:15 | 显示全部楼层
此帖仅作者可见
发表于 2022-1-1 11:35:27 | 显示全部楼层
此帖仅作者可见
发表于 2022-1-1 10:18:33 | 显示全部楼层
此帖仅作者可见
发表于 2021-12-29 01:37:17 | 显示全部楼层
此帖仅作者可见
发表于 2021-12-28 20:51:47 | 显示全部楼层
此帖仅作者可见
您需要登录后才可以回帖 登录 | 立即注册

本版积分规则

封号公示|电子邮件联系本站hd1tj.net#[换成@]outlook.com|免责申明|HD一条街

GMT+8, 2022-5-25 21:11

Powered by Discuz! X3.4

Copyright © 2001-2021, Tencent Cloud.

快速回复 返回顶部 返回列表