HD一条街

 找回密码
 立即注册
搜索
查看: 39|回复: 3

[1080p] 赵氏孤儿 Sacrifice.2010.CHINESE.1080p.BluRay.x264.DD5.1-EDPH 8.49G

[复制链接]
发表于 2021-11-8 15:38:44 | 显示全部楼层 |阅读模式

马上注册,结交更多好友,享用更多功能,让你轻松玩转社区。

您需要 登录 才可以下载或查看,没有帐号?立即注册

x

! L- U7 `/ |7 O4 ?+ [: q/ j                               
登录/注册后可看大图

6 e" H/ J, ~5 t1 K& K% i% d
2 J) l/ P1 F2 l( D* W) d! f" ~1 }: ^◎译  名 Sacrifice) @% x3 X8 U/ [* S" u
◎片  名 赵氏孤儿7 U% E9 N: Q* E4 ?
◎年  代 2010( d- B/ ?' }- q1 s
◎产  地 中国大陆
, I% x# V- t. B1 D0 I. S( j◎类  别 剧情 / 动作 / 历史 / 武侠 / 古装/ w' B$ D- d) e9 Y) g
◎语  言 汉语普通话
+ o- k0 v, ^$ k- f+ s7 {◎上映日期 2010-12-04(中国大陆)
0 g4 T% D3 d4 X9 u$ |; {1 ~7 _◎IMDb评星  ★★★★★★☆☆☆☆
3 U5 m9 u5 E2 E  {" t0 C◎IMDb评分  6.2/10 from 2,297 users
3 Q5 s, ^. Z# ^0 [' G( b/ h◎IMDb链接  https://www.imdb.com/title/tt1726738/
! Z) O" g. a/ y0 R3 z◎豆瓣评星 ★★★☆☆) Q: W9 ~4 Y/ [2 Q% ]9 l) s2 X
◎豆瓣评分 6.0/10 from 164,546 users
% e7 ~3 U9 \3 l& \◎豆瓣链接 https://movie.douban.com/subject/3546019/
- g+ m+ b+ K( S2 _' W: v# m◎片  长 128分钟
+ W' ^. y  m! C0 H' `+ C/ L/ ~& l◎导  演 陈凯歌 / Kaige Chen) ~6 V; N6 J( z) X; w5 O# ~
◎演  员 葛优 / You Ge | 饰 程婴
) T3 k: s0 y" y  H5 t      王学圻 / Xueqi Wang | 饰 屠岸贾" ^) n5 @6 r2 j- D0 w% q8 G. ~9 j0 _' v
      黄晓明 / Xiaoming Huang | 饰 韩厥
. Z) ^' }$ u( j3 d      范冰冰 / Bingbing Fan | 饰 庄姬. r" H: i5 E4 ]* u" G2 x1 S! X
      海清 / Qing Hai | 饰 程婴妻
1 f8 s' }# ~5 e  n- v, _/ {: \& J      赵文浩 / Wenhao Zhao | 饰 赵武程勃
  Z* v& d1 _% y& b( |+ L/ i5 N      王翰 / William Wang | 饰 赵武程勃. k/ `, L+ W& _& Q0 c1 P1 e' q
      赵文卓 / Man Cheuk Chiu | 饰 赵朔
: }" d! A' I. V8 [5 j; a- B. m4 @( P4 D      鲍国安 / Guo'an Bao | 饰 赵盾; Q7 B9 n" o) A$ m" o0 ~
      张丰毅 / Fengyi Zhang | 饰 公孙杵臼
$ S1 R5 Q6 O' ]5 C8 @$ X7 t      大庆 / Da Qing
" M# N2 k9 K; `4 B9 G% J      陈飞宇 / Feiyu Chen | 饰 新君
* Y% P3 \8 g, I* x* P      李东学 / Ethan Li | 饰 提弥明5 u" v3 f- K8 @! {- E
      毛毅 / Yi Mao | 饰 田将军
  B4 u& H7 M. C3 e( x: w      刘亚津 / Yajin Liu | 饰 病人. x% m$ q) x0 j% L2 o
      王劲松 / Jinsong Wang | 饰 谋士8 U) f: q) g7 |& `3 p
      李耕 / Geng Li | 饰 吃面人! S6 T0 k" ~2 q6 }
      彭波 / Bo Peng | 饰 晋灵公6 v) z3 D6 d6 L" M: C
◎编  剧 陈凯歌 / Kaige Chen- @& @, q; i6 `$ e1 q
      高璇 / Xuan Gao- e! W4 a- k* p' M& W- t9 ~
      任宝茹 / Baoru Ren
! {6 g9 h' [  l3 B! `      赵宁宇 / Ningyu Zhao
4 C3 h$ J! b8 Z3 X  X7 y◎制  片  人 覃宏 / Hong Qin
. ]7 E6 g6 o! ^  }- Y      陈红 / Hong Chen
$ {+ [+ z, Z6 a; N$ M. E◎音  乐 马上又 / Shangyou Ma
, b( p6 _! i* r0 S2 ~- ~. s; N2 m1 y4 y◎摄  影 杨述 / Shu Yang
$ C4 p; |( L0 ]' R% b0 z1 C' X◎剪  辑 许宏宇 / Derek Hui
" f; I4 w- Q  E9 ~- j& N* t( X◎美  术 柳青 / Qing Liu9 n4 o2 v1 l0 @0 I
◎服  装 陈同勋 / Tongxun Chen
( ?# I7 b& B( G4 R# \- y& W◎副  导  演 王辉 / Hui Wang
* U$ ~2 U5 K$ |, h      杜军 / Jun Du
4 b; h5 x; Q$ ]* F  Y2 E. U" D◎动作特技 谷轩昭 / Huan-Chiu Ku5 l; \' K8 `' l5 l, T* D

% S3 Z& P! R1 F" t0 S' K◎标  签 陈凯歌 | 葛优 | 赵氏孤儿 | 历史 | 中国电影 | 中国 | 王学圻 | 范冰冰
; j$ U. z" T# W5 ]3 L0 z( m  N& q% F
◎简  介 
" z4 d1 k# s& `% }9 C6 d) d4 C0 g8 c. _3 I5 ~
  《赵氏孤儿》豆瓣官方小站:9 f3 h1 L# q3 g: l0 ?. i) {& k* _2 ?

4 L" r9 l! M8 j9 P0 |  春秋时期,晋灵公不喜权臣屠岸贾(王学圻 饰)当道,且厌丞相赵盾(鲍国安 饰)专横。赵盾之子赵朔(赵文卓 饰)双喜临门,不仅战功卓著,而且妻子庄姬(范冰冰 饰)也身怀六甲。屠岸贾视之为 心腹大患,设计在朝堂上投毒,借灵公之口,灭赵氏九族。
* Q. D) j8 k( I* ?; t' @  庄姬在大夫程婴(葛优 饰)诊脉时,目睹夫君赵朔身亡,悲痛中决定生下婴儿。此时,屠岸贾手下韩厥(黄晓明 饰)前来灭种。临危之际,庄姬将婴儿托付程婴,让他交给公孙杵臼(张丰毅 饰),后拔剑自刎。韩厥因此被屠岸贾砍伤,后者下令封城,挨家挨户搜查婴儿。情急之下,程妻(海清 饰)把赵孤交上。程婴前去认领赵孤,程妻去见公孙杵臼。因封城,程妻母子被藏于影壁墙内。屠岸贾设苦肉计,逼程婴说出婴儿下落,相继诛杀公孙杵臼及程妻母子。程婴强忍悲痛,独自抚养赵孤。韩厥在求医时了解到真相,与程婴结下生死同盟。程婴携赵孤投奔屠岸贾门下,并让屠岸贾认下赵孤为义子。从此,展开了长达 15年的复仇计划……
( g; n0 h* r4 \7 N7 d, Y' H1 d
* ]! ]- y3 ?! O0 v5 \& Z◎获奖情况 
* d) e/ T, ]' X! {' O, t# t3 D
! x: n1 J& y( ^. }5 h9 ?4 S  第14届中国电影华表奖 (2011)2 n9 A0 G" N0 o/ v- F( M' `, s1 H
  优秀故事片奖 5 m! a/ Y$ `6 z9 |  c* b
  优秀男演员奖 葛优- }) {+ ], c! a4 z8 c/ j* C

1 i: F% b- A0 {- A  ]- ?% E  第5届亚洲电影大奖 (2011)
5 P: D- i; A7 e$ x& j  我最喜爱的男女主角 我最喜爱的男主角(提名) 葛优4 X2 o, ]. }, v0 B1 d0 s
  最佳男主角(提名) 葛优8 a5 T" o! [" M; Y' e
  最佳男配角(提名) 黄晓明
' B8 j9 e1 g& |' {9 p0 [
. @+ K1 m1 K' x& r* Y  C  第11届华语电影传媒大奖 (2011); h/ A) g' J/ n  q" j- R1 O
  百家传媒年度致敬电影(提名) 4 M( s/ s7 v$ B
  观众票选最受瞩目男演员 黄晓明
  N7 z2 U' {+ G4 k9 P, F3 W! a+ f  Z. V' |) _& ]
  第18届北京大学生电影节 (2011)
$ S/ s0 m7 @1 X) O  最佳影片奖(提名)
9 l# G3 ^! O1 D6 c) g1 }  最佳男演员奖 葛优, D9 ?2 E* O: R2 ]% S5 Z% ^
  最佳新人奖(提名) 赵文浩
# n/ L7 c! ?! L
" f& |/ z. |& X6 f6 F  第1届豆瓣电影鑫像奖 (2011)
  J& v& j8 c6 H. H4 W  u0 i  豆渣单元 最渣男演员(华语) 黄晓明
; S, S# q1 [% Y$ R9 n1 ?1 M& ]+ v
. e9 p4 K: v$ Q3 w! A# \◎台词金句& P& a4 o& {% x5 O

2 m+ F8 o4 Z7 R! r  敌人是谁,你还有敌人吗?你不把别人当敌人,你就没有敌人。程婴:我就是要养大这个孩子,让他替我儿子报仇。
% x& x% S* m0 L
( t# |% i* L+ Y9 W& V  Q2 ?! X◎幕后揭秘: y  H0 Z, W) V( y

+ _, B/ c* G& c1 F( d+ W1 x  拍摄缘起
8 A( s/ x$ g1 s" y% i* }0 @, r7 I5 q, u5 u) _  i( ]* {0 V/ W
  在电影《赵氏孤儿》中,陈凯歌把一个大家都熟悉的中国经典搬上大银幕,并且抛出了几个特别值得思考但又几乎无法回答的问题:你会不会用自己的儿子,去换100个婴儿的命?到底该不该复仇?在故事发生2000多年之后的今天,人们同样面临着如此种种的价值观与人性的思考。改编还原人性4 A% q' y( |, z  F7 M

. |! u8 N# }- ~& V  陈凯歌说,拍《赵氏孤儿》让他想起了“革命”两个字,“《赵氏孤儿》就像是颗新的种子,让我焕发活力。我拍了那么多年电影,有机会拍这样的片子,我觉得这是我的幸运。”为了一部好的剧本,陈凯歌在情节的真实感上下足了功夫。他说:“原著中程婴为保全赵氏孤儿大义凛然地送自己的骨肉去死,这点不仅违反常识,也反人性反人伦。在如今这个自己为自己争取利益的时代,我们花了一年半的时间把故事尽量往常识上靠,只有这么做,人物才是活生生的,才是可信的。只要回归真实,感动自然就来了,因为这就是真实的力量。” ' V: S) L6 v- I3 S1 M9 o3 h
' @. T" k$ E- {9 L

1 x/ }) g+ t) X; D2 K: v& s+ j- ^! A5 ~* |4 N4 l% u/ G
: \* N1 h+ v' s4 F" X
+ X+ W) T! c$ k, k1 S
  陈凯歌认为,《赵氏孤儿》不仅是真情实感的回归,也是自己影片题材的回归。比较《赵氏孤儿》与《霸王别姬》,陈凯歌说:“如果观众比较两部电影里面的主角程婴和程蝶衣,一定会发现他们又像又不像。像在他们的心都很大,都有自己的坚持,但程蝶衣不忍,程婴却忍。”4 \0 p0 q. ?0 p" s" i7 d
) \* }4 r9 R( r! f7 t8 x! Q# `3 ~
  关于葛优% z/ c# N+ }- J3 V

7 [9 s* T8 Z& E  ]8 ?  《赵氏孤儿》是元杂剧经典之一,陈凯歌坦言在十几岁时就第一次看了这个故事。“那时‘文革’刚开始,家里有一本《赵氏孤儿》,后来书被红卫兵烧了,但程婴救孤的故事我记住了。那时我父亲被批斗,家里特别困难,我心里特别想有一个程婴这样的人来帮我,那多好啊!几十年过去了,这样的朋友都没有出现。”陈凯歌解释,自己正因少年时的理想拍摄了这部影片。剧中的所有人都相信程婴,因为他是一个可靠的朋友。“葛优演的程婴就两个字:可靠!”
+ Q* F$ P% I4 l+ s; K' z9 t+ I1 I1 x6 X8 h5 g
  元杂剧突出程婴的忠义,而电影更强调小人物的大智慧。“我想拍一个可信的故事。传统的忠义挺好,但得让观众相信。首先就让程婴戴着一个大帽子,会跟观众隔得比较远。”陈凯歌说,电影里的程婴就是被小人物的人性推着走,老老实实讲故事,不向观众唱高调。程婴没有对赵氏孤儿从小就进行仇恨教育,而是给了他一个很阳光的童年。为此陈凯歌还特意找了一个性格活泼的小演员来演童年时的赵氏孤儿。+ ?0 k, v6 `# x: h- v, P

0 {. b; L6 P! t: I1 |  葛优一直都有深度失眠,但在这次的拍摄中,为了保证拍摄质量,葛大爷“非常不容易”地每天上午10点前就已经化好妆,开始跟陈凯歌导演讨论当天的戏码,而且会跟扮演赵武的小威廉姆探讨不少表演技巧。# M' E! V9 |: Y& W
# l/ W2 L# K; [  w- G/ I
  葛优在《赵氏孤儿》中的哭戏,几乎都是背着拍的。这也是他和陈凯歌在现场“磨”出来的“你注意到没有,生活中的哭全都是有掩饰的,除非你是想闹事的那种,只要是悲伤的哭,全都是避着人的,收着的那种,这次我们就用了。”关于王学圻
( D/ Q" d5 x+ [5 P1 f! F0 N9 _" c9 r& s9 F3 [
  王学圻在《赵氏孤儿》中饰演的屠岸贾,他是权倾朝野的大将军,拥有十分强硬手腕政治手腕,是一个反派人物。
: \+ P( e. `2 p( p$ M8 Z7 k5 e' L3 @! x: H
  王学圻在接受媒体访问的时候,错把记者说的“大反派”听成了“造反派”,幽默表示自己在影片中就是一个十足的“造反派”,“看不惯的挡我路的,像是赵家那样有权有势还得瑟的,都得处理掉!”引得笑场连连,气氛十分愉悦。王学圻坦言自己没有完全刻意去表现屠岸贾的狠毒和凶残,把他塑造成一个彻头彻尾的坏蛋,人没有绝对的好坏,屠岸贾这个人也一样。
0 f0 `5 d! {  T; D% I+ U; T
  y7 R1 C. I" `" K6 l  屠岸贾这个人物并不是大奸大恶,他的内心十分复杂,亦有着相当充沛强烈的情感,其实是一个充满了悲剧色彩的人物,他爱了一辈子的女人嫁给了仇家,疼了半生的孩子最后竟然血刃相见向自己报仇。这样情感复杂、层次性极强的角色在塑造起来也相当有难度,对演员来讲是一个很具难度的挑战。王学圻在影片中表现十分出色,大到骑马射箭,小到一个眼神,都被他赋予了丰富的含义。关于黄晓明5 ?( d* b1 Z, t" s/ P$ A9 Z& |6 x
* V3 a, b3 e. G, E& I
  黄晓明演的是一个叫韩厥的将军,这个角色在戏里变化很大。起先他是非常秀气俊美的白面将军,是屠岸贾的亲信。不过救赵孤中,脸上被屠岸贾砍了一刀。这样的经历让角色彻底转变,甚至在后面戏份中代表复仇的欲望。
8 g9 M; {" y$ d8 z- k4 k
8 a2 Y+ [9 B: S2 i  原著中韩厥的是断胳膊,后来导演建议把伤疤弄在脸上。黄晓明看过后建议这刀要划得够狠,还可以在眼睛里放个玻璃花。这个“刀疤脸”的妆非常麻烦。那个日本进口的化妆水要把皮肤收紧,一抹到脸上就很痛。拍一天就痛一天,卸妆后还有凹坑,红色疤几天消不掉。有一次甚至还把仿血浆的道具液体滴到:眼睛里,眼睛肿到不行,回北京一查是化学性烧伤。关于海清
- |+ `8 ]) R' X1 L; S7 L' W
! S' E# i8 {1 v, `  关于哺乳的一场戏,海清表示,任何演员都不会用替身的。这场戏拍得非常“顺其自然”,是导演临时加的,因为想着两个婴儿不能饿着,当时想都没想就演了。在戏里能成为陈凯歌导演为葛优选定的“媳妇”很开心,跟王学圻、张丰毅、葛优几位戏骨对戏也非常过瘾,为好戏什么都可以不在乎。其实,尺度都是杂念,底线也是杂念,因为都不是从角色出发的,都是从自我出发的。海清说:“一个好演员应该在表演时不设底线,但是我现在还真的没做到,我希望有一天我能做到。这是我希望以后能达到的一个境界吧。”
1 o- n+ v% Q$ Y& D  f3 i! ]) ?6 y; p
  作为海清第一部真正意义上的大银幕作品。有场戏是,她推门出去,只是拍的背影,根本看不到表情,陈凯歌就说,“海清,你这感觉不对,有演的痕迹,要‘不演’。”是陈凯歌看到了海清那种演员都有那种起范儿的习惯,海清说:“在学校的时候老师是教我们怎么演戏,但出来以后发现表演的最高境界,其实是“不演”,不露痕迹的表演。可以说《赵氏孤儿》是我迟来的一部毕业作品。”陈凯歌谈表演0 m0 e6 j1 r* t

! a8 @8 t& c! i5 F" X  我觉得葛优的表演吧,说个词可能会误导观众,演的很妩媚。妩媚这两个字可以放在葛优身上,妩媚就是什么都有了,什么都没有。比如你形容一个女人妩媚,可是说不出到底是什么感觉。他就是一锅汤,所有的肉、菜都化里头了。味道都在,形看不见。
# d9 ~  f) N. Y4 w& g' r; w1 f+ @6 j" b* f2 \+ S9 L4 |$ k
  黄晓明就是多情,死心塌地跟着程婴。三个原因让他们有这样的关系,第一个共享一个15年的秘密;第二俩人一块受过刺激,一女人在他俩面前自杀了,俩人也没招;第三个他俩都是好人。0 \* \" S4 W8 ~' v1 R" }

8 e6 C% f  d) m) h) K* K  范冰冰演的是平静。角色多可怜啊,头天风光无限,第二天全变了。能平静的对待这个事,在这么大的危险面前淡然处之,这个人有性格。
; `( i; X  \+ N" q; r  p* n. e+ G+ s; W+ a
  王学圻老师演的是个平常,他没使劲往坏人演,也没特鸡贼说我不想演反派,把他演成个好人吧。他就是演平常人,美女和权力都丢了,他这样的性格还没说哪里丢了哪里找回来。那边赵家太高调了,不灭你灭谁啊,给人家300多口都杀了,杀了又后悔,得了,我对你儿子好吧。' E& _1 y4 E6 ?; w% E" B, C

: ]6 `8 t- J; F! C( @1 q  海清就是一妈,两边都要顾着,就是把一妈演活了。1 [$ u' T3 G- u
6 Z) w' ]. K2 N
  1.        
    6 r6 `2 t+ C/ ^4 @& D! n+ d9 Q
  2. Video
    . Y' n* n1 r  {4 s% A
  3. ID : 1% |' P; ?+ P! @  Q  S5 ^; V
  4. Format : AVC, c# E5 ?+ @3 g* T4 k5 L8 c9 @# s  ]
  5. Format/Info : Advanced Video Codec: {; t  ~* B, m; e
  6. Format profile : High@L4.1
    4 l" [- C! Z! {/ f
  7. Format settings : CABAC / 4 Ref Frames
    1 g" F- l0 U# v. K* G1 X, C, ]. v4 G
  8. Format settings, CABAC : Yes8 D; y$ `7 i2 {" c8 B9 B0 w
  9. Format settings, Reference frames : 4 frames
    5 L7 h/ R0 p. i$ a* V
  10. Codec ID : V_MPEG4/ISO/AVC
    9 y3 \# V% D8 g
  11. Duration : 2 h 7 min5 V8 v6 C9 I5 p& F
  12. Bit rate : 8 852 kb/s. P! s3 b* O( s2 q
  13. Width : 1 920 pixels
    3 S6 L) @5 h0 N3 ]
  14. Height : 872 pixels
    4 D- d. C% f( }$ K6 C: Z
  15. Display aspect ratio : 2.2:1/ {+ x0 m, Y% F6 i( \1 ~  j
  16. Frame rate mode : Constant  [$ Q# o2 T) F- G/ J: A# r  s
  17. Frame rate : 23.976 (24000/1001) FPS
    - y- r# I9 X3 A; J, A) w
  18. Color space : YUV4 ?1 z& c# l- C( n* P
  19. Chroma subsampling : 4:2:0
    * p# f/ E% V$ l
  20. Bit depth : 8 bits
    9 Q. }/ @- w+ R
  21. Scan type : Progressive- s8 c) ~! B% Y) G
  22. Bits/(Pixel*Frame) : 0.2213 X3 _1 b/ X6 o
  23. Stream size : 7.89 GiB (93%)
    3 R4 u) F6 l* b' O
  24. Writing library : x264 core 161 r3027 4121277) K. Q: x$ ^  C3 j$ ^
  25. Encoding settings : cabac=1 / ref=4 / deblock=1:-3:-3 / analyse=0x3:0x133 / me=umh / subme=11 / psy=1 / psy_rd=1.02:0.00 / mixed_ref=1 / me_range=32 / chroma_me=1 / trellis=2 / 8x8dct=1 / cqm=0 / deadzone=21,11 / fast_pskip=0 / chroma_qp_offset=-2 / threads=12 / lookahead_threads=3 / sliced_threads=0 / nr=0 / decimate=0 / interlaced=0 / bluray_compat=0 / constrained_intra=0 / bframes=16 / b_pyramid=2 / b_adapt=2 / b_bias=0 / direct=3 / weightb=1 / open_gop=0 / weightp=2 / keyint=250 / keyint_min=23 / scenecut=40 / intra_refresh=0 / rc_lookahead=250 / rc=crf / mbtree=0 / crf=21.8 / qcomp=0.65 / qpmin=0 / qpmax=69 / qpstep=4 / vbv_maxrate=62500 / vbv_bufsize=78125 / crf_max=0.0 / nal_hrd=none / filler=0 / ip_ratio=1.30 / pb_ratio=1.20 / aq=3:0.80
    - |3 D. V: z9 \
  26. Default : No( Y3 q, W" Q& _0 j' d' a& y
  27. Forced : No& k( S6 v3 p1 A9 M; Z  L
  28. Color range : Limited
    5 _- J( b- v0 S0 ]- A
  29. Color primaries : BT.709
    " j1 r( E# D' W( ~3 ~/ d! k  z
  30. Matrix coefficients : BT.7095 Z% [# P& _. o" X* j

  31. + T' e8 W% ?7 J/ l9 W+ t
  32. Audio2 t+ M; H2 N7 y
  33. ID : 2
    & k2 a& h7 K+ \# r% y4 T# O; G' e6 `
  34. Format : AC-3- u) y$ }$ A% [* \" X$ a
  35. Format/Info : Audio Coding 3
    , h  C5 S- Q+ t& D* D% a
  36. Commercial name : Dolby Digital  P6 X" M( b% a) i8 a9 h) u
  37. Codec ID : A_AC31 b3 l+ z- e$ a" X! Q1 N! I
  38. Duration : 2 h 7 min
    ) X! L! u: y$ C0 l
  39. Bit rate mode : Constant
    0 T. {- S7 r9 P: [* \
  40. Bit rate : 640 kb/s
    % X6 g- U& K9 `0 O% @- J3 ^) K
  41. Channel(s) : 6 channels
    8 I1 b9 x% t# u; x8 l& v, P% T
  42. Channel layout : L R C LFE Ls Rs
    ' K6 Y0 c; Q/ e. n: q! W4 |
  43. Sampling rate : 48.0 kHz
    " D7 S! T7 C! ~# Q0 d
  44. Frame rate : 31.250 FPS (1536 SPF)  _/ f& E6 [' x
  45. Compression mode : Lossy* h% Y+ f$ ]! k- N+ A
  46. Stream size : 584 MiB (7%)# r' w" B. w" z
  47. Language : Chinese- a5 s- ^' x; W5 p% z5 W6 y: _
  48. Service kind : Complete Main
    ; R7 R9 s& \& b6 |# |9 G
  49. Default : No
    1 r0 \8 C  i) `% W! b( z1 W* e) X
  50. Forced : No( C: x' O( |  T. t* y: m6 `
  51. ' P! k4 ~( V. H
  52. Text #1& s$ W% C6 N# f- E( |3 z, ~
  53. ID : 3
    7 \4 ^, f, U* u4 Z: ^$ o1 ?
  54. Format : UTF-8
      ^1 j0 U, z) X4 ~% P% t5 w  z
  55. Codec ID : S_TEXT/UTF8
      g* `) D# {; c! t! h; j0 [, E
  56. Codec ID/Info : UTF-8 Plain Text
    ) x7 L. U- A$ J7 L8 v0 M
  57. Duration : 2 h 1 min
    - V2 Z  ]8 ?# Y5 r  p9 K) ~. M8 K
  58. Bit rate : 32 b/s( }5 c& t" E' \; t8 ]: ?/ k% N
  59. Count of elements : 11501 B  r9 F/ P& G$ ^4 [. ^# E
  60. Stream size : 29.1 KiB (0%)
    8 q4 i2 e8 V7 V' o4 a
  61. Title : SRT
    $ Q1 e- I" u, x) c1 S, n$ r
  62. Language : English4 z- d/ ?" E$ y& E  ?
  63. Default : Yes2 U" K  L% g' [0 L! H2 ?
  64. Forced : No
    3 w& J) L% _# G: E
  65. * a- n8 y& o) V* }. J2 ]0 s6 h
  66. Text #2
    : O, O- S4 D4 s; L, U- a, d
  67. ID : 4
    # M  d4 l$ Y& ]/ z2 ~3 ^
  68. Format : PGS& S- L/ y! _' u4 c1 @
  69. Muxing mode : zlib; S+ J* {; m, w/ D6 q: x7 @
  70. Codec ID : S_HDMV/PGS1 x% _# L, Q: _1 @4 d
  71. Codec ID/Info : Picture based subtitle format used on BDs/HD-DVDs1 }6 m* ^" x9 j; t0 M
  72. Duration : 2 h 1 min# L) M3 k( q4 x) N
  73. Bit rate : 25.0 kb/s- f6 g) ]8 d( y" H
  74. Count of elements : 2302
    3 C3 p3 z& _2 a
  75. Stream size : 21.7 MiB (0%)& j! C/ |& d0 j8 m: G# I8 ?
  76. Language : English
    ' R0 p1 N5 l/ K- G7 r# X8 G" U
  77. Default : No
    3 ^3 Z& k$ L( \! L3 O9 Z
  78. Forced : No
    3 ^- s, o' I# Z0 F7 Y! x
  79. / @  c' B! {2 s, [
  80. Text #3
    ! p4 K* _! |& k5 C7 S. R
  81. ID : 53 Y0 E; h8 J1 `) R+ E* s4 Y9 ]3 s
  82. Format : PGS- E2 p( x* u8 p7 X
  83. Muxing mode : zlib; Z# c1 P. ?( t5 r% @
  84. Codec ID : S_HDMV/PGS/ e; r; t5 {. P; x$ e2 p
  85. Codec ID/Info : Picture based subtitle format used on BDs/HD-DVDs0 p8 a+ D/ P/ h8 h. ^
  86. Duration : 2 h 1 min  r% j' ?; X- S, t3 U6 j; H! R
  87. Bit rate : 18.0 kb/s
    ; S  u; `3 x) y9 ^
  88. Count of elements : 2302
    9 s/ l7 @. f2 Y. A+ p
  89. Stream size : 15.6 MiB (0%)( X6 x; F7 c3 b
  90. Title : Simplified
    % I6 F/ v# ~: C* n5 O4 Y  L
  91. Language : Chinese3 v- A; o- |2 j. W
  92. Default : No+ _* F9 E1 R8 x  m1 W2 q
  93. Forced : No3 i; i/ t4 d" ~& K! \" W% V& Z

  94. 5 S6 z' y0 e' U9 i
  95. Text #4/ E& O3 L% C# I' ?
  96. ID : 6
    % a6 p* F; x( s  S' r& \
  97. Format : PGS0 G! Z$ |. {* G
  98. Muxing mode : zlib
    ; L  b0 n  u$ |
  99. Codec ID : S_HDMV/PGS
    7 S6 U% y9 F4 g. D9 J
  100. Codec ID/Info : Picture based subtitle format used on BDs/HD-DVDs
    + C9 @. h( J1 g. K. v' Z
  101. Duration : 2 h 1 min
      R7 [( u" b2 F* x, A
  102. Bit rate : 18.6 kb/s8 v& q, X" _6 b; M% E" X) J! u
  103. Count of elements : 2302: G. H) a/ }' `8 r! T' O
  104. Stream size : 16.1 MiB (0%)
    1 [8 l1 b$ ^2 O* ~8 g1 S& A
  105. Title : Traditional& i' u/ \' D; p, U$ ^+ o: k; Y
  106. Language : Chinese
    * _+ v+ Q. H7 u# [
  107. Default : No
    - y8 ^) s' I% q# s
  108. Forced : No/ I7 H, W/ ?4 d, k# e$ b8 Z
  109. ' x/ S/ e" K- h; U  V$ O5 V
  110. Menu- W( O; ]5 t1 P+ l: e0 K+ f- |' {
  111. 00:00:00.000 : en:Chapter 01
    2 l/ [' V1 D1 ]
  112. 00:07:22.400 : en:Chapter 02
    / M" n1 V8 M0 t4 l- \2 h( E1 K
  113. 00:15:29.386 : en:Chapter 036 {2 Y6 u2 g2 F0 K& `; N
  114. 00:31:53.828 : en:Chapter 04
    , c6 r3 ^0 r4 c9 W) ?' a2 e" j6 d
  115. 00:40:02.149 : en:Chapter 05. B& m3 {+ q5 A  ?) E  J) |5 c5 v
  116. 00:49:00.228 : en:Chapter 06
    9 h+ y+ ~* |, @# q/ B
  117. 00:57:09.175 : en:Chapter 07' S, ?9 P  m7 A( r3 M  h( `* W
  118. 01:05:18.247 : en:Chapter 081 [' P" _, M) _! v4 c; [. r( R+ c
  119. 01:13:31.990 : en:Chapter 09" o: K6 t" V; |
  120. 01:21:32.637 : en:Chapter 10
    : G( C2 q  ^( \7 E+ i
  121. 01:29:20.188 : en:Chapter 11( W4 S4 h+ C4 b. a
  122. 01:37:13.202 : en:Chapter 12
    % S2 `) p7 E: C! Q3 P3 ?
  123. 01:45:41.835 : en:Chapter 133 P% N- w4 |7 [% o7 @! `
  124. 01:50:45.889 : en:Chapter 14- z( W" w7 ^9 Q0 ^. m  T% D' o
  125. 01:59:57.106 : en:Chapter 15
复制代码
5 ]2 f4 ~. L' c7 E, h
4 z% Q+ b2 O8 \% q' \+ K8 d( a0 |

  ?0 x: g; ~+ A4 Q; f, F! [' b. G6 s
# O8 k7 F1 R: ?; [5 e
3 b) t8 _' w' r+ H
游客,如果您要查看本帖隐藏内容请回复  VIP可免回复查看隐藏内容 详情请点击
发表于 2021-11-8 19:55:35 | 显示全部楼层
游客无权限浏览该内容
发表于 2021-11-9 08:23:19 | 显示全部楼层
游客无权限浏览该内容
发表于 2021-11-9 12:11:45 | 显示全部楼层
游客无权限浏览该内容
您需要登录后才可以回帖 登录 | 立即注册

本版积分规则

封号公示|电子邮件联系本站hd1tj.net#[换成@]outlook.com|免责申明|HD一条街

GMT+8, 2021-11-30 04:03

Powered by Discuz! X3.4

Copyright © 2001-2021, Tencent Cloud.

快速回复 返回顶部 返回列表