HD一条街

 找回密码
 立即注册
搜索
查看: 79|回复: 6

[1080p] 狼牙[国粤双语 中英字幕]Legendary.Assassin.2008.CHINESE.1080p.BluRay.x264.DTS-EDPH 8.32G

[复制链接]
发表于 2021-10-19 01:21:08 | 显示全部楼层 |阅读模式

马上注册,结交更多好友,享用更多功能,让你轻松玩转社区。

您需要 登录 才可以下载或查看,没有帐号?立即注册

x
$ f1 u& ]6 i4 \* L! [: k/ h
                               
登录/注册后可看大图
3 Q0 q8 |5 V* D3 x# s6 p4 ?. [

. H; Z$ N" T8 j/ v- O◎译  名 Legendary Assassin / 狼牙之阿布0 _/ S& u% ~/ h- m+ ~. R8 }
◎片  名 狼牙3 b& ~3 i% p2 E' v6 P3 n& V2 n
◎年  代 2008% ~- v( N! J' U7 p
◎产  地 中国香港' s* S% u0 t/ \% _0 a/ `
◎类  别 动作 / 惊悚
* h+ Y& e% ]% H/ t4 G! a◎语  言 粤语 / 日语 / 英语) v: @% ^, c* j* V5 G! r' R/ F: V. g
◎上映日期 2008-12-04(中国香港)
7 I1 D! ?' B2 R! p* t◎IMDb评星  ★★★★★★☆☆☆☆3 N8 G& s  `8 O' L
◎IMDb评分  6.1/10 from 1,903 users
* ]( L: j( i' ?2 j: c: g5 }8 B8 I  H◎IMDb链接  https://www.imdb.com/title/tt1236370/
  U& f; j- ?) M* V% y& _! z+ j◎豆瓣评星 ★★★☆☆
  ^* R! h2 H$ F9 Q: `# i◎豆瓣评分 6.4/10 from 41,149 users
! [" h$ v' S) v+ k# F9 \* Z: p8 I; F; D◎豆瓣链接 https://movie.douban.com/subject/3082452/
" |* s4 E! O. c0 l◎片  长 89分钟
& Z+ O4 b2 S# O) D$ \  {◎导  演 李忠志 / Chung Chi Li* b: l' m, c$ a% ^' @# A" H
      吴京 / Jing Wu' {: ?9 G) i; N6 V3 |- r% {9 Z
◎演  员 吴京 / Jing Wu" a; w! y/ a4 ~% b+ h$ g
      方力申 / Lik-Sun Fong
  ?4 E7 r6 E* k* Y8 i( u      寇占文 / Zhan-Wen Keu  Q5 H: i) P9 c- F* r
      郑中基 / Ronald Cheng7 G7 H, J9 |( U2 z
      卢靖姗 / Celina Jade
" g8 {' d" U! s      森美 / Sammy Leung
3 D6 F8 E6 y: e# ~( _0 v: m) w6 x      许绍雄 / Siu-Hung Hui
( x1 Y! _8 c7 n6 D      青山伦子 / Noriko Aoyama
6 e' V; \/ D1 ]3 W+ F9 O5 s      林雪 / Suet Lam
+ c3 `- z3 B# P/ x8 ~) N# E      姜宝成 / Baocheng Jiang/ f2 l8 u+ b1 A" a/ j
      郑浩南 / Mark Cheng. P- h0 X" p# M3 ^8 r: A
      田启文 / Kai Man Tin
: l" g2 B! M- }) q1 h      惠英红 / Kara Wai Ying Hung
) Q3 N5 O: i2 g7 Y      黄伟亮 / Jack Wai Leung Wong8 Z$ s8 ~7 e, t% K* D" o
◎编  剧 冯志强 / Chi Keung Fung
3 p+ P8 R! G6 V* ?3 c◎制  片  人 吴思远 / See-Yuen Ng# Z) v% P3 T, S/ u3 e, i
      黄祖贻 / Joey Wong; r* A% U* W& I/ F+ {2 T
      黄柏高 / Paco Wong Pak Go
; _0 @- _( s' R9 T, Y0 F◎音  乐 黄英华 / Ying-Wah Wong
6 r5 E2 z  P+ L3 Y( Y& A* {, q◎摄  影 潘耀明 / Anthony Pun
, L/ J0 s& m. y) y4 r8 @◎剪  辑 邱志伟 / Chi Wai Yau% |& ~* B+ {8 e( u8 E+ Z# }, o5 ^
◎服  装 张世杰 / Stanley Cheung. C( {# @9 L& z! V: C& m2 r3 s- N

3 F# V8 H+ R' b: ~5 k: E◎标  签 动作 | 吴京 | 香港 | 香港电影 | 狼牙 | 暴力 | 2008 | 电影
. ~$ R- p' S" ^' m7 g3 L: N! }0 i6 e* P% p. ]/ m
◎简  介 
( F& {3 ?- m" w2 q$ J8 ^# Q( G" t+ B9 j. ?+ o  l1 G
  台风过境,阴霾的天色不知会在闭港的小岛上空持续多久,陈旧的民宅内,几个帮派人物突遭袭击,来人身手矫健,斩去当家马天泰之首级后消失于夜色……
* z5 q7 Z7 k7 ?) ^! a  次日,小岛女警晓禾(Celina Jade 饰)为救自家的猫坠树,一过路男子相救,他自称阿布(吴京 饰)。两人在食档与三名泰国悍匪狭路相逢,晓禾耿直但无法抵敌,阿布出手拼倒三人,随晓禾暂留警局。阿布令属意晓禾的警员泰山(森美 饰)大为吃味,同袍关公(许绍雄 饰)与靓宝(方力申 饰)冷语调笑,给这孤独的小岛警局凭添了不少温馨活气。
$ R7 s+ |- o+ N/ s  马天泰遗孀佐佐木(青山伦子 饰)命手下肥荣(林雪 饰)带人登岛,寻回马爷头颅凑成全尸,孰料晓禾与泰山巡逻中发现藏尸处反将尸身也带走,肥荣等人冲入警局抢尸,混战中靓宝中枪殉职。
8 D  B' W4 \; ~* T! k+ N  港口重新开放,大批警员登岛,阿布因断头案的嫌疑被短暂扣留后释放,他虽然能瞒过警方,却无法摆脱佐佐木的追杀,晓禾被对方掳走以后,阿布再没有其他选择……
4 w5 x% X: f" U7 ^! V: ?" @" H3 q" M/ `( K
◎幕后揭秘% ?; p$ d0 `) S1 d* D3 B

1 f$ n& m: ^. O3 `: a2 G  关于片名  Y/ f. w8 T; Q/ |' D
6 `4 V: M5 L$ C6 J/ E9 C
  本来片名就叫《阿布》的。后来有个新疆人送给吴京一枚真正的狼牙,吴京觉得狼牙这两个字跟我在戏里的人物性格很相似。与2米“巨无霸”过招6 H8 y7 M& O3 @& m* M$ n
% I7 m. h2 d; |- ^& v& P; S  |- [
  吴京在影片中与各种武林高手过招,其中在雨中和几十个黑衣人同时过招的场面,被认为与《骇客帝国》的场景颇为相似,相当精彩。不过吴京却表示,这并不是《狼牙之阿布》中唯一精华的部分,在影片中还有与身高2.08米的巨无霸过招的精彩戏份。
4 X6 C0 e+ b+ b5 L/ y# G: u9 X/ ?
  说起与“巨无霸”过招,吴京表示虽然会让观众看得很过瘾,但拍摄过程却相当困难:“我们找来的摔跤运动员姜宝成身高2.08米,体重150公斤,穿54号鞋,脚的尺寸基本上和我的上半身大小差不多。和这样的巨无霸过招是相当难的,因为他很容易受伤。另外由于身高体重都和普通人不同,所以究竟该用多大的力气和他过招很难去控制。如果出力小了,怕他没有感觉,出力大了又怕他受伤,所以拍摄的这10天可谓相当辛苦。” 吴思远传授“秘笈”
0 [# _3 I# R5 }+ ?0 `9 d. F. J8 k) {6 r: w! R# s
  《狼牙之阿布》的监制吴思远说:“要说拍动作片,我可以说有很丰富的经验,当年袁和平、元奎都是我一手提拔的。其实在我看来动作场面一定要有层次,例如李小龙,他一招就能够显露出他高手的风范。对于现在的观众来说,可能什么好的招数都看过了,针对不同的对手使用不同的招数可能才能让观众接受。” 9 x' R% g6 c7 I1 m5 S

; @- A8 p! [( q$ d( E- w  武戏对于吴京来说自然不在话下,但是文戏却是他的软肋。为此担任影片监制的吴思远还特意传授了吴京拍摄文戏的“秘笈”。吴京解释道:“我和吴思远导演是本家,所以他才传授我“秘笈”,如果告诉你们了就不是“秘笈”了。我只能告诉大家,吴思远导演当初给了我‘情怀’这两个字,要我用心去表现武术的那种情怀。”
7 e# l% A) A& C3 [8 }  H& K* V
  h8 d4 J. B% X. v6 d+ X  至于第一次担任导演,吴京笑道:“其实第一天开机的时候压力还是挺大的。不过后来我的老板黄柏高告诉我,只要有决心、信心和野心就够了,不用去担心。这让我一下子从压力中解脱了出来。至于票房的压力,我想现在可能是我的老板更操心吧。” 为别人的钱痛心
9 n( F. |, l7 E7 u' @0 m/ O7 s' }
6 x7 ^, `/ J) n8 b  b6 n- b, p  吴京在《木乃伊3》中有7秒钟的客串亮相,吴京表示,之所以愿意在这部好莱坞影片中客串露脸,并不是有向好莱坞发展的想法,而只是想和自己的偶像李连杰过过招。但吴京却对好莱坞剧组的大手大脚很痛心:“这次去参与拍摄可谓见证了好莱坞的‘败笔’,他们一场戏动用了86台拖拉机。我想你把零头给我俩,多请两个武师也是好的。我们苦孩子出身,看见这种资源浪费就觉得很痛心。” + W* e4 S' }; O+ Z

7 l: @% v4 J$ f# S( V; y( S  吴京随后补充道:“可能用‘败笔’这个词形容有些冲动,好莱坞是世界电影殿堂,我也希望能够得到他们的肯定和认同。但是功夫电影最棒的还是在香港,我们的功夫动画片现在拍不过人家,真人功夫再拍不过就丢脸了。” 8 `0 b6 H; `& j& E
4 f$ Y3 d% B. {" J0 p' P: P
  作为吴京的经纪人和老板,黄柏高对于吴京首次执导影片就给出了300万美元的制作费,可谓是大手笔。他说:“这个电影制作是很花钱的,你看电影会觉得整个银幕上都是钱。我请一个资深的导演本身就很贵,制作费又省不了,还不如发掘一些新导演新演员。” 0 X3 p& `# F  R) F$ `
/ B9 i. O6 x; F* ]7 P& A
  四年前就签下吴京的黄柏高,称最初的三年两个人都很辛苦,因为别人不相信他可以带好吴京,所以只能一步一步打基础,直到吴京接演了《杀破狼》,一下子就火了,让人看到动作片还可以重新起来。9 C  E6 |' P5 U# f. U

% H8 D+ O2 @! K# L
  1. Video
    ) g4 y2 C9 w% c! U& `$ w7 b  W# R
  2. ID : 1
    # `8 S* `5 ?2 c2 F6 W
  3. Format : AVC) L; h- H/ Z5 o" y
  4. Format/Info : Advanced Video Codec! \6 x0 i, `8 Q
  5. Format profile : High@L4.1: V4 z" A* s8 ~7 n7 ?4 |. p- ~
  6. Format settings : CABAC / 4 Ref Frames
    ) P. E" f) E" c" Y, I7 w$ s. E/ U
  7. Format settings, CABAC : Yes) j) W4 Y2 b* g0 l  w. ?; \
  8. Format settings, Reference frames : 4 frames5 @  w1 m4 K6 \, ?* W6 @
  9. Codec ID : V_MPEG4/ISO/AVC
      r, {' P& [  p, \# E! J+ s
  10. Duration : 1 h 28 min
      L; w9 O! v. ]* @0 T
  11. Bit rate : 11.5 Mb/s2 Z9 z: O0 X2 e. Q
  12. Width : 1 920 pixels% ?; H# t! o5 F+ d; |
  13. Height : 1 080 pixels9 o( m, t' z- p& k7 N
  14. Display aspect ratio : 16:9
    , J5 {$ ^% c6 V: L! O. i
  15. Frame rate mode : Constant
    : d3 o4 t8 I9 l
  16. Frame rate : 23.976 (24000/1001) FPS' I: ~+ _8 V5 `* a
  17. Color space : YUV
    0 ?' u7 v5 j# Z  J9 H
  18. Chroma subsampling : 4:2:0
    - J, R7 n! Q6 A# V/ K* f# r& L+ |" ~, n
  19. Bit depth : 8 bits
    ) d* Z# p% f5 R+ V8 F# }
  20. Scan type : Progressive
    7 r, n2 V& K( O- X6 @+ x# r! P/ _) e
  21. Bits/(Pixel*Frame) : 0.232
    4 ?  ^6 {; I- V( h
  22. Stream size : 7.14 GiB (86%)( f* Z0 y6 W2 i, h' o( S
  23. Writing library : x264 core 161 r3027 4121277% S+ e& y. s0 }
  24. Encoding settings : cabac=1 / ref=4 / deblock=1:-3:-3 / analyse=0x3:0x133 / me=umh / subme=11 / psy=1 / psy_rd=1.02:0.00 / mixed_ref=1 / me_range=32 / chroma_me=1 / trellis=2 / 8x8dct=1 / cqm=0 / deadzone=21,11 / fast_pskip=0 / chroma_qp_offset=-2 / threads=12 / lookahead_threads=3 / sliced_threads=0 / nr=0 / decimate=0 / interlaced=0 / bluray_compat=0 / constrained_intra=0 / bframes=16 / b_pyramid=2 / b_adapt=2 / b_bias=0 / direct=3 / weightb=1 / open_gop=0 / weightp=2 / keyint=250 / keyint_min=23 / scenecut=40 / intra_refresh=0 / rc_lookahead=250 / rc=crf / mbtree=0 / crf=19.2 / qcomp=0.65 / qpmin=0 / qpmax=69 / qpstep=4 / vbv_maxrate=62500 / vbv_bufsize=78125 / crf_max=0.0 / nal_hrd=none / filler=0 / ip_ratio=1.30 / pb_ratio=1.20 / aq=3:0.80" Z6 ~1 q/ L6 l7 O8 G9 z) |# Y; I
  25. Default : No9 L7 s' G) z9 L9 V) O2 I- c( ?
  26. Forced : No" U% ?6 P; J+ P' j# z( s
  27. Color range : Limited5 I( v  N- f# H; G( P3 u) f+ w
  28. Color primaries : BT.709
    4 s) c# T9 m9 D( Y
  29. Matrix coefficients : BT.7092 ^% z/ I: a7 V1 I
  30. & C! J  M$ f7 H& s( N3 ~1 u
  31. Audio #1
    $ s- K7 l6 q6 i7 |0 y/ @8 C
  32. ID : 2
      i- c2 ^: {# G5 @, k
  33. Format : DTS
    7 t1 l0 N- l" v0 r9 Q; o* N
  34. Format/Info : Digital Theater Systems& E; x4 ?$ o$ f! D& n; k! _
  35. Codec ID : A_DTS
    ; U/ @# n6 m+ I; \
  36. Duration : 1 h 28 min
    . N# s. n! q, ~8 `. f# v1 c2 \
  37. Bit rate mode : Constant
    8 \! Q9 `7 }! d6 E! r7 B
  38. Bit rate : 1 509 kb/s
    ; ~! L: U9 g# e& x, n
  39. Channel(s) : 6 channels3 N8 f  a& w, V6 S+ W
  40. Channel layout : C L R Ls Rs LFE! C5 g0 h0 ]% C  T6 Q
  41. Sampling rate : 48.0 kHz
    ; l( ?$ r& z! p' X& J) B0 h8 p
  42. Frame rate : 93.750 FPS (512 SPF)
    % ?; f) J& A4 B/ h
  43. Bit depth : 16 bits' @& m( h5 \9 |. s/ G4 m. G; z0 }
  44. Compression mode : Lossy
    1 j9 I) K5 m* W5 D& B4 J" b
  45. Stream size : 956 MiB (11%)
    ; w/ S, B$ s& r- S% K- f
  46. Title : Cantonese
    - m. k) t& D8 I, B
  47. Language : Chinese
    . @3 D4 ]" B0 b3 q% k) H
  48. Default : Yes) j2 M* s; X9 y& z
  49. Forced : No
    & v+ |7 R0 p( A" Z" i
  50. " V8 @$ R+ J% ]
  51. Audio #2
      Q1 q1 q2 G' _  B3 V  C. p
  52. ID : 3
    ' j, P' s6 x% R& w2 W* q6 I: L2 F
  53. Format : AC-3
    % r/ u" D# i6 i/ O0 b
  54. Format/Info : Audio Coding 3
    + S! A& ?1 R$ A. l' U
  55. Commercial name : Dolby Digital/ p' H- F7 Q" h' P" u$ ^* J; W
  56. Codec ID : A_AC3
    ' J/ a/ w, \; P& f, f
  57. Duration : 1 h 28 min3 \2 \7 L7 f5 s9 ^1 \
  58. Bit rate mode : Constant
    ' r& B) r4 e0 X, }
  59. Bit rate : 384 kb/s( |2 ^7 @1 Q$ F" G# x
  60. Channel(s) : 6 channels
    ' O& G6 x9 ~% P( ~# I
  61. Channel layout : L R C LFE Ls Rs$ I3 Z2 R0 {7 g0 b
  62. Sampling rate : 48.0 kHz
    3 {- R, T6 n1 F  Q- a; }1 _
  63. Frame rate : 31.250 FPS (1536 SPF)
    # X& j5 O- g, K2 x+ I3 g- [9 ^
  64. Compression mode : Lossy
    5 c3 n3 p4 `( V; F8 z
  65. Delay relative to video : 209 ms+ @; N+ N" X5 y5 r
  66. Stream size : 243 MiB (3%)
    $ G1 B( v0 z6 `& J9 P3 i* d
  67. Title : Mandarin0 O) _4 D: {- k# ]
  68. Language : Chinese
    2 M$ s* w# T2 w% S' R: N. a4 Y
  69. Service kind : Complete Main7 m& W6 G* O$ i2 A9 ^8 y: f
  70. Default : No% Z# q5 H. k! J( E% X
  71. Forced : No
    ! _+ B( D, C; v! W0 n* d- A
  72. . I) [4 ?+ {2 v% \
  73. Text #1
    8 c  t( ?, m! u9 Q9 q
  74. ID : 4
    $ k6 x8 a/ x) |+ T; n# [+ ^
  75. Format : UTF-8' }- g* D$ r% V7 e$ a
  76. Codec ID : S_TEXT/UTF8
    7 I0 E# M: a$ V; N) a+ h% X
  77. Codec ID/Info : UTF-8 Plain Text
    4 Z, @; [$ G; X/ E+ I- w
  78. Duration : 1 h 23 min
    * X" M1 N9 M+ O/ e9 g* g6 I
  79. Bit rate : 33 b/s
    ' c1 n: T2 X" h# m
  80. Count of elements : 6765 Z' l0 Q$ F- U$ j0 ~! p
  81. Stream size : 20.8 KiB (0%)
    ' J! c) s8 E6 A) ^! A8 M, s
  82. Language : English$ e7 L; ^: c% o* h
  83. Default : Yes7 D% O9 Z  l9 g. ~2 k
  84. Forced : No
    9 }5 \4 l+ `$ g. a7 }/ a) m
  85. 9 \3 z: n2 A4 [0 o! e& S5 B, @, `- p
  86. Text #2/ X+ v# i9 w# d; Y8 `6 W9 V% W6 p
  87. ID : 5
    ; r/ [( U9 A% [; o! e9 K! U$ a
  88. Format : UTF-8
    % _! V/ x0 Y1 P; t8 [! {1 m2 G
  89. Codec ID : S_TEXT/UTF8. d1 I4 G/ Z/ V2 |3 V6 y8 \
  90. Codec ID/Info : UTF-8 Plain Text& H4 }2 X5 f3 g+ ?+ V
  91. Duration : 1 h 25 min( G! q3 X: \0 ^& w+ u
  92. Bit rate : 24 b/s5 P! e% o" q( c2 Z- C5 N8 Y
  93. Count of elements : 676
    # s& T3 V4 S- ^# R2 H
  94. Stream size : 15.2 KiB (0%)
    0 k5 G4 w: x. n/ b; e% ^! C7 J
  95. Title : Simplified
    / F8 c, r% L4 U; s$ m& [- R
  96. Language : Chinese4 ?& [# @4 Z  Q0 I
  97. Default : No
    0 X1 c: {% g. V
  98. Forced : No! R, L% I9 \+ d# e, y+ V
  99. * j, d5 f7 Z" U: B# |
  100. Menu) R" m, D. W) f& b0 p3 ]
  101. 00:00:00.000 : en:Chapter 01- }2 g8 h+ W. i4 d$ x8 T( Q  M) d
  102. 00:05:22.488 : en:Chapter 02  _) q% a# j0 X- ?9 [" P! w8 E  v
  103. 00:11:12.963 : en:Chapter 030 u! U$ d6 f2 R' b
  104. 00:16:31.198 : en:Chapter 04
    * Y  Q9 w8 Y/ }( a, Z" D6 d
  105. 00:24:48.403 : en:Chapter 05
    ! m* D& X/ D; B
  106. 00:30:22.987 : en:Chapter 06
    ; s* [7 v% U7 b8 b( k! x
  107. 00:38:12.415 : en:Chapter 077 N6 }3 N0 a1 N  y
  108. 00:43:09.211 : en:Chapter 08/ _' ~; U. j& L+ d( E* b. j8 v
  109. 00:48:26.945 : en:Chapter 09
    # v! u9 B; i. ~" S8 f$ _
  110. 00:55:07.345 : en:Chapter 10
      F' {7 x9 N. x' x3 c2 u
  111. 01:02:08.975 : en:Chapter 11
    4 z1 l1 n* [% H: v+ |
  112. 01:06:28.901 : en:Chapter 12
    . j8 a: _5 V' A. @: k: N  w9 R# X1 D2 T
  113. 01:09:52.563 : en:Chapter 13
    : c! f9 P& b5 X7 J( T# f3 A
  114. 01:18:22.864 : en:Chapter 14
    ) {% T8 D# t% g9 s' o0 M* u
  115. 01:22:21.436 : en:Chapter 15$ S3 E1 S# B/ I, |$ p
  116. 01:25:31.334 : en:Chapter 16
复制代码

5 C* q' C4 f, F- L4 j5 y6 H9 W9 U2 ?* |: Z! Q/ Q

6 Q5 v7 X: Z2 R0 X0 f  n
0 e+ ~3 ^* f6 @9 u; v/ g* S" `* T% H+ O, t: ?' T0 H

) n4 ~; q$ @* ^9 i
游客,如果您要查看本帖隐藏内容请回复  VIP可免回复查看隐藏内容 详情请点击
发表于 2021-10-19 08:27:08 | 显示全部楼层
游客无权限浏览该内容
发表于 2021-10-19 09:37:57 | 显示全部楼层
游客无权限浏览该内容
发表于 2021-10-20 11:06:27 | 显示全部楼层
游客无权限浏览该内容
发表于 2021-10-22 11:45:38 | 显示全部楼层
游客无权限浏览该内容
发表于 2021-11-15 03:29:20 | 显示全部楼层
游客无权限浏览该内容
发表于 2021-11-15 03:45:46 | 显示全部楼层
游客无权限浏览该内容
您需要登录后才可以回帖 登录 | 立即注册

本版积分规则

封号公示|电子邮件联系本站hd1tj.net#[换成@]outlook.com|免责申明|HD一条街

GMT+8, 2021-12-4 11:49

Powered by Discuz! X3.4

Copyright © 2001-2021, Tencent Cloud.

快速回复 返回顶部 返回列表