HD一条街

 找回密码
 立即注册
搜索
查看: 78|回复: 6

[1080p] 狼牙[国粤双语 中英字幕]Legendary.Assassin.2008.CHINESE.1080p.BluRay.x264.DTS-EDPH 8.32G

[复制链接]
发表于 2021-10-19 01:21:08 | 显示全部楼层 |阅读模式

马上注册,结交更多好友,享用更多功能,让你轻松玩转社区。

您需要 登录 才可以下载或查看,没有帐号?立即注册

x
& q* Z: V* O/ u3 C3 q
                               
登录/注册后可看大图
8 R1 c7 u5 q* T/ T' P5 m9 H2 P+ O7 E5 z

8 b0 @) U6 W5 B+ |# y8 X◎译  名 Legendary Assassin / 狼牙之阿布
5 ?9 C. u; D. r9 E# H◎片  名 狼牙9 A' T3 ~% x; u
◎年  代 2008. c3 F; S$ X( R8 d
◎产  地 中国香港2 u' O5 J1 t4 U  p' B2 @: y
◎类  别 动作 / 惊悚: A8 b0 c+ P5 T
◎语  言 粤语 / 日语 / 英语! O0 T( c# Y' Q: V
◎上映日期 2008-12-04(中国香港)$ G' i( R. q4 t, K( @
◎IMDb评星  ★★★★★★☆☆☆☆
; V. i/ P" a3 z/ ?# @" Y◎IMDb评分  6.1/10 from 1,903 users
2 k( @7 r4 l: @. k◎IMDb链接  https://www.imdb.com/title/tt1236370/
7 Z3 Z8 E* u! n; z' `0 \2 @8 P◎豆瓣评星 ★★★☆☆
: B( L$ Z( g3 L7 i5 ?0 c# V1 }◎豆瓣评分 6.4/10 from 41,149 users2 l) @: G! R; z
◎豆瓣链接 https://movie.douban.com/subject/3082452/, q& o6 m' S' M4 }# t: I$ M
◎片  长 89分钟
) S0 k& [, Q: f" T- E◎导  演 李忠志 / Chung Chi Li* |. J* c2 U+ X
      吴京 / Jing Wu* B2 Y' x( ?6 i* t  C+ g4 q; o
◎演  员 吴京 / Jing Wu
" a  y1 \/ \6 j      方力申 / Lik-Sun Fong" e. N0 e. s: G' ?; Y0 o4 w0 H
      寇占文 / Zhan-Wen Keu
% R4 a7 w1 M" X/ ^* a      郑中基 / Ronald Cheng
" M* A& F. \. d) P: Z- Q5 |      卢靖姗 / Celina Jade
& P# L9 z3 W- b* S9 y      森美 / Sammy Leung
  L& F. b+ E7 x: a/ U      许绍雄 / Siu-Hung Hui2 w$ [1 j) f" W2 o/ ]8 `9 X5 Y
      青山伦子 / Noriko Aoyama
4 w. o5 Q8 ^) u7 }      林雪 / Suet Lam6 r8 k) H/ T2 z1 H7 N* v) }7 S! b
      姜宝成 / Baocheng Jiang  ?2 b- d2 N( _! f9 p
      郑浩南 / Mark Cheng
: U" K, }9 K, G% b( ?% K+ C, h      田启文 / Kai Man Tin+ u% F) J% E6 `
      惠英红 / Kara Wai Ying Hung
% Z# m% l- D$ E- l      黄伟亮 / Jack Wai Leung Wong4 @7 Q3 t: i& K4 T! y9 G; i
◎编  剧 冯志强 / Chi Keung Fung( d( c" Q- e* t, V  W+ `3 M
◎制  片  人 吴思远 / See-Yuen Ng
: ?  G7 _6 ]" h# ^6 i/ r      黄祖贻 / Joey Wong  \# C2 l& S/ u8 ]
      黄柏高 / Paco Wong Pak Go9 o4 ^0 ^7 M: Z- U3 A' |8 Q
◎音  乐 黄英华 / Ying-Wah Wong
+ a# X. q+ E8 g. b◎摄  影 潘耀明 / Anthony Pun9 O9 T1 ?* z6 b' `9 V- U1 @9 h4 ]
◎剪  辑 邱志伟 / Chi Wai Yau' f: f/ L7 ]5 q. Y$ }
◎服  装 张世杰 / Stanley Cheung, c$ l* i2 e3 _6 k9 L* f
, E4 G# _. s6 t0 b$ B
◎标  签 动作 | 吴京 | 香港 | 香港电影 | 狼牙 | 暴力 | 2008 | 电影* B# B5 N6 j* B6 O

8 |. x. [$ O9 r◎简  介 1 _$ a! G: n, O" A

6 m7 T" @0 q3 J  台风过境,阴霾的天色不知会在闭港的小岛上空持续多久,陈旧的民宅内,几个帮派人物突遭袭击,来人身手矫健,斩去当家马天泰之首级后消失于夜色……* {4 ?2 m4 I1 ^" o  E
  次日,小岛女警晓禾(Celina Jade 饰)为救自家的猫坠树,一过路男子相救,他自称阿布(吴京 饰)。两人在食档与三名泰国悍匪狭路相逢,晓禾耿直但无法抵敌,阿布出手拼倒三人,随晓禾暂留警局。阿布令属意晓禾的警员泰山(森美 饰)大为吃味,同袍关公(许绍雄 饰)与靓宝(方力申 饰)冷语调笑,给这孤独的小岛警局凭添了不少温馨活气。
  l3 w; S- S/ e+ q; B1 v  马天泰遗孀佐佐木(青山伦子 饰)命手下肥荣(林雪 饰)带人登岛,寻回马爷头颅凑成全尸,孰料晓禾与泰山巡逻中发现藏尸处反将尸身也带走,肥荣等人冲入警局抢尸,混战中靓宝中枪殉职。$ D  U  b4 Z7 {% i7 L
  港口重新开放,大批警员登岛,阿布因断头案的嫌疑被短暂扣留后释放,他虽然能瞒过警方,却无法摆脱佐佐木的追杀,晓禾被对方掳走以后,阿布再没有其他选择……
9 o) W8 J* @& Y* Z9 d
3 }* ]5 w$ ?3 }  d# z: O. G6 Y◎幕后揭秘
" g% ~8 `2 Q: p6 @! B0 f
0 A- J3 S+ K3 e  关于片名" i5 i9 v6 V. r

7 K3 R+ @1 o  {% w  本来片名就叫《阿布》的。后来有个新疆人送给吴京一枚真正的狼牙,吴京觉得狼牙这两个字跟我在戏里的人物性格很相似。与2米“巨无霸”过招
+ S# p/ o5 L5 G$ E3 `& {
2 O1 \* D/ }, E  U  d  吴京在影片中与各种武林高手过招,其中在雨中和几十个黑衣人同时过招的场面,被认为与《骇客帝国》的场景颇为相似,相当精彩。不过吴京却表示,这并不是《狼牙之阿布》中唯一精华的部分,在影片中还有与身高2.08米的巨无霸过招的精彩戏份。
# Q; }8 l; o! m7 s- Z) C8 U) \6 Q) A$ ~3 c
  说起与“巨无霸”过招,吴京表示虽然会让观众看得很过瘾,但拍摄过程却相当困难:“我们找来的摔跤运动员姜宝成身高2.08米,体重150公斤,穿54号鞋,脚的尺寸基本上和我的上半身大小差不多。和这样的巨无霸过招是相当难的,因为他很容易受伤。另外由于身高体重都和普通人不同,所以究竟该用多大的力气和他过招很难去控制。如果出力小了,怕他没有感觉,出力大了又怕他受伤,所以拍摄的这10天可谓相当辛苦。” 吴思远传授“秘笈”& e/ g- x& J3 n3 A
* q8 h3 C' Z" L9 a: W
  《狼牙之阿布》的监制吴思远说:“要说拍动作片,我可以说有很丰富的经验,当年袁和平、元奎都是我一手提拔的。其实在我看来动作场面一定要有层次,例如李小龙,他一招就能够显露出他高手的风范。对于现在的观众来说,可能什么好的招数都看过了,针对不同的对手使用不同的招数可能才能让观众接受。”
" s& p5 C& k8 l- p% O
0 J7 H, G5 N% K3 u5 k  武戏对于吴京来说自然不在话下,但是文戏却是他的软肋。为此担任影片监制的吴思远还特意传授了吴京拍摄文戏的“秘笈”。吴京解释道:“我和吴思远导演是本家,所以他才传授我“秘笈”,如果告诉你们了就不是“秘笈”了。我只能告诉大家,吴思远导演当初给了我‘情怀’这两个字,要我用心去表现武术的那种情怀。” 7 i; B8 b$ W* K( d% p- G4 i
" Q' m* ?+ Q1 K$ P
  至于第一次担任导演,吴京笑道:“其实第一天开机的时候压力还是挺大的。不过后来我的老板黄柏高告诉我,只要有决心、信心和野心就够了,不用去担心。这让我一下子从压力中解脱了出来。至于票房的压力,我想现在可能是我的老板更操心吧。” 为别人的钱痛心
& a1 p1 d4 ~7 V2 J0 }! X' F* g
* u5 C3 u, k4 R3 s3 m) k  吴京在《木乃伊3》中有7秒钟的客串亮相,吴京表示,之所以愿意在这部好莱坞影片中客串露脸,并不是有向好莱坞发展的想法,而只是想和自己的偶像李连杰过过招。但吴京却对好莱坞剧组的大手大脚很痛心:“这次去参与拍摄可谓见证了好莱坞的‘败笔’,他们一场戏动用了86台拖拉机。我想你把零头给我俩,多请两个武师也是好的。我们苦孩子出身,看见这种资源浪费就觉得很痛心。” - G( Y  g3 I4 O3 M+ c8 I$ O6 Y
' Z6 ^4 e3 \! |  h. j* k
  吴京随后补充道:“可能用‘败笔’这个词形容有些冲动,好莱坞是世界电影殿堂,我也希望能够得到他们的肯定和认同。但是功夫电影最棒的还是在香港,我们的功夫动画片现在拍不过人家,真人功夫再拍不过就丢脸了。”
7 |9 l: L( y/ K: C1 }! m
' |: f; x2 g7 ]( H% I9 i2 g  作为吴京的经纪人和老板,黄柏高对于吴京首次执导影片就给出了300万美元的制作费,可谓是大手笔。他说:“这个电影制作是很花钱的,你看电影会觉得整个银幕上都是钱。我请一个资深的导演本身就很贵,制作费又省不了,还不如发掘一些新导演新演员。”
0 M5 m7 r& r! t! |1 d3 r& m& [5 ~1 u6 _1 y) ]; C; q6 R
  四年前就签下吴京的黄柏高,称最初的三年两个人都很辛苦,因为别人不相信他可以带好吴京,所以只能一步一步打基础,直到吴京接演了《杀破狼》,一下子就火了,让人看到动作片还可以重新起来。& [1 a8 q) R) s( C' P
  n, x- j* I: |& R
  1. Video& _' Z5 V: j: q# \8 T( c7 n
  2. ID : 1
    * s8 P' S- r8 n, C8 ^
  3. Format : AVC
    5 ?) Y- Y! l( y1 Z/ {/ D- Q+ j
  4. Format/Info : Advanced Video Codec1 [, k% W( `! P8 @7 d
  5. Format profile : High@L4.1# P6 z' X+ e; i* W8 q
  6. Format settings : CABAC / 4 Ref Frames
      h* x0 O5 m0 D1 y" S
  7. Format settings, CABAC : Yes3 R% U& U. _) x9 T6 k' h
  8. Format settings, Reference frames : 4 frames
    % u" U( u; R7 c
  9. Codec ID : V_MPEG4/ISO/AVC
    " {! w+ ~* N: W/ }/ H+ Z2 a( t
  10. Duration : 1 h 28 min8 D& L( V, E4 p
  11. Bit rate : 11.5 Mb/s) ]. y  z( x3 \- r
  12. Width : 1 920 pixels  y7 Q3 ^/ q4 ~( E3 N
  13. Height : 1 080 pixels
    ; ^0 J  p9 Z3 N0 U$ t3 u  Z! M
  14. Display aspect ratio : 16:9
    ; a2 R; F% B0 y- p9 U# y1 a
  15. Frame rate mode : Constant( P$ l! Q% O; X! p! c
  16. Frame rate : 23.976 (24000/1001) FPS+ L9 C& F! }' C0 z, L: I
  17. Color space : YUV* O& H# S! o4 m7 c
  18. Chroma subsampling : 4:2:0
    ; [9 {* m# m7 N2 S
  19. Bit depth : 8 bits
    ! E- |4 I  U( V2 Y; g' o( |" G
  20. Scan type : Progressive, F6 r, `$ m, \0 j1 m
  21. Bits/(Pixel*Frame) : 0.2326 j8 r6 f3 H2 v
  22. Stream size : 7.14 GiB (86%)- z; X; x4 [7 {$ |
  23. Writing library : x264 core 161 r3027 4121277* E9 f& F& p1 k/ Z
  24. Encoding settings : cabac=1 / ref=4 / deblock=1:-3:-3 / analyse=0x3:0x133 / me=umh / subme=11 / psy=1 / psy_rd=1.02:0.00 / mixed_ref=1 / me_range=32 / chroma_me=1 / trellis=2 / 8x8dct=1 / cqm=0 / deadzone=21,11 / fast_pskip=0 / chroma_qp_offset=-2 / threads=12 / lookahead_threads=3 / sliced_threads=0 / nr=0 / decimate=0 / interlaced=0 / bluray_compat=0 / constrained_intra=0 / bframes=16 / b_pyramid=2 / b_adapt=2 / b_bias=0 / direct=3 / weightb=1 / open_gop=0 / weightp=2 / keyint=250 / keyint_min=23 / scenecut=40 / intra_refresh=0 / rc_lookahead=250 / rc=crf / mbtree=0 / crf=19.2 / qcomp=0.65 / qpmin=0 / qpmax=69 / qpstep=4 / vbv_maxrate=62500 / vbv_bufsize=78125 / crf_max=0.0 / nal_hrd=none / filler=0 / ip_ratio=1.30 / pb_ratio=1.20 / aq=3:0.80
    7 G% a! o' s  L5 o  Q3 `" z
  25. Default : No
    5 Z, E3 i& `6 o1 S+ A# M. n
  26. Forced : No+ W9 l; Q, p0 C# U6 ^; m1 R; w  Z
  27. Color range : Limited
    2 o6 K1 n+ K/ Q5 T7 G
  28. Color primaries : BT.709
    : D8 d3 d% c- w6 ?0 c% h4 \$ T8 e
  29. Matrix coefficients : BT.709
    % t( o/ m/ H% p& D% ]( d4 x

  30. % B7 A8 I, `. h% U
  31. Audio #1
      I7 p6 D3 v' Q7 \% |* V! k
  32. ID : 2
    4 q" V6 `8 I4 T" a. Y$ x
  33. Format : DTS
    * J$ r  p, V" L* k6 h/ m' o
  34. Format/Info : Digital Theater Systems
    5 s% C- U$ R* f. b
  35. Codec ID : A_DTS
    " v$ Z* A; x  |/ h; ~5 O% [1 S: ~
  36. Duration : 1 h 28 min, k, |& S! a/ X9 j8 @
  37. Bit rate mode : Constant
    7 ]7 c7 S5 b0 W7 b/ w4 o
  38. Bit rate : 1 509 kb/s, q* G) ~0 o2 N- t  `
  39. Channel(s) : 6 channels: [# H) \2 `/ e  ?
  40. Channel layout : C L R Ls Rs LFE+ Z: ^2 {2 i0 ?
  41. Sampling rate : 48.0 kHz
    - j" S, g* t7 V5 H9 S% x0 p$ A
  42. Frame rate : 93.750 FPS (512 SPF)
    + l- s& H8 q7 A" I; q
  43. Bit depth : 16 bits
    . H+ G3 V' I. p3 E( s# \  W0 B1 y
  44. Compression mode : Lossy
    2 {) ^1 P% j' W
  45. Stream size : 956 MiB (11%)
    " Y6 R, z5 ?& R& l" v$ k# a- b
  46. Title : Cantonese" r! |8 E! o- {0 z
  47. Language : Chinese: D- T- E' z7 C
  48. Default : Yes
    ' @) m. a: f, n% j4 {, N, X+ D
  49. Forced : No0 P  r/ m' M; T  g: Q
  50. & ]5 w/ c5 P' L. `0 F
  51. Audio #2$ O' ^6 j# V- T) V$ B! ?" e# N  v! U
  52. ID : 3
    ; G- a" J7 W3 {. z0 }
  53. Format : AC-30 b9 [8 I9 ~; K4 H1 `9 I2 x% z
  54. Format/Info : Audio Coding 3* {' O6 X1 V4 k- r1 h6 R3 d) h$ J9 [8 m
  55. Commercial name : Dolby Digital
    2 U1 ~7 v4 L; A3 V; k1 r: ?2 |
  56. Codec ID : A_AC3
    " `5 \, U, `, o% w
  57. Duration : 1 h 28 min
    . Q( P$ p5 l( V! F, }8 V, ]& d5 z
  58. Bit rate mode : Constant
    6 a9 T' D" d5 r! B8 G4 t
  59. Bit rate : 384 kb/s
    7 g" V- `4 u, b! O' T
  60. Channel(s) : 6 channels* p9 K& q" V4 c* Z* f2 m
  61. Channel layout : L R C LFE Ls Rs
    , l6 T( j- W6 L4 ~
  62. Sampling rate : 48.0 kHz) Q2 V6 w8 B1 H# y6 j, g3 Q/ H
  63. Frame rate : 31.250 FPS (1536 SPF)
      H6 q1 \. @* z4 c8 y- P1 l
  64. Compression mode : Lossy- B$ P4 W  l3 d8 |( p0 ?2 O
  65. Delay relative to video : 209 ms
    9 W9 W' L2 ~2 N- t: _) p, l
  66. Stream size : 243 MiB (3%)0 V! D/ J2 M- ]+ n3 [: K2 P
  67. Title : Mandarin
    $ O& e4 [3 n! @
  68. Language : Chinese6 _7 G. [$ I6 Z0 p4 f7 U0 [
  69. Service kind : Complete Main0 h. [3 v" D/ _. ?: h: `7 Z
  70. Default : No
    ! ], X; U2 \& B: W
  71. Forced : No
    : P: h7 c2 p: V% ?! P- w

  72. 3 x! R2 u! N. ~. o' `4 V& b
  73. Text #1
    ) r! o8 o( I1 o! |
  74. ID : 4
    3 ^4 @/ |, ?# b) u9 F# i- h
  75. Format : UTF-8
    + \! C4 w/ d. Y) q9 ^# j% {
  76. Codec ID : S_TEXT/UTF8
    1 Q" W2 y) O& t* c! L- U) L
  77. Codec ID/Info : UTF-8 Plain Text
    1 n# A0 m! M2 Z
  78. Duration : 1 h 23 min
    1 {5 h, ^4 d- b& Q: e
  79. Bit rate : 33 b/s2 z$ B1 V0 V$ ?, p
  80. Count of elements : 676
    : g7 F8 B% s! J0 B' z5 B% W( Y# B3 i
  81. Stream size : 20.8 KiB (0%)+ f* {, J# v+ t# r; Q8 B* N' I
  82. Language : English
    $ B  j  }+ k8 j' l
  83. Default : Yes
    * A& U; l- h: S
  84. Forced : No
    9 K' t1 w3 r; F
  85. 0 }8 z; D( N3 f9 F4 T) w
  86. Text #2$ y2 v  h* I+ Z6 D$ w7 ?% J
  87. ID : 5
    / f" G& h, o0 V1 v' h0 H
  88. Format : UTF-8- h% E1 P9 p& H1 g
  89. Codec ID : S_TEXT/UTF8( D; T: ]* `5 m: `* r
  90. Codec ID/Info : UTF-8 Plain Text
    & e8 [+ h; J8 [5 B
  91. Duration : 1 h 25 min$ {; U$ o3 G8 C: {' X
  92. Bit rate : 24 b/s
    $ v7 w. O* t4 Q3 L$ y& a
  93. Count of elements : 676$ B: p" C" K5 X; V' F, c; c. r
  94. Stream size : 15.2 KiB (0%)
    - w6 a8 _# I; x# a; ]* g! a
  95. Title : Simplified* b) L& W* ~& m# h! s: X9 S
  96. Language : Chinese6 G: ~# E; F3 f6 `& W' i6 y
  97. Default : No
    - r: w. G7 s4 e* o' T, ?
  98. Forced : No
    0 E6 a  c6 m' }! O
  99. : M0 v! b; |! T+ P- P. a( S" a1 d
  100. Menu
    - E# N. w8 l6 H1 W8 U
  101. 00:00:00.000 : en:Chapter 012 F& S" P, W( S6 i7 h/ A/ E4 a; B
  102. 00:05:22.488 : en:Chapter 02
    0 `$ c. Q3 N9 x" C5 a
  103. 00:11:12.963 : en:Chapter 03
      T1 w9 W9 {" h4 T( O) t' D
  104. 00:16:31.198 : en:Chapter 04
    & s* R/ Y' E3 D% U+ ?
  105. 00:24:48.403 : en:Chapter 05
    , K5 ~$ @* s* K. h$ O5 M5 m
  106. 00:30:22.987 : en:Chapter 06. \. r2 y* G* @$ h
  107. 00:38:12.415 : en:Chapter 07
    $ R- a* z, }4 ^. Y3 t% G
  108. 00:43:09.211 : en:Chapter 08
    ( i6 @6 K' w1 F$ _
  109. 00:48:26.945 : en:Chapter 09" f4 |4 l" A$ D
  110. 00:55:07.345 : en:Chapter 10! x( S, V) v* Y4 p1 Y4 G
  111. 01:02:08.975 : en:Chapter 117 D: q7 R* m# W: u
  112. 01:06:28.901 : en:Chapter 12* V% q% u) h# d% C) @$ C) q4 f1 K8 i
  113. 01:09:52.563 : en:Chapter 13/ M; o0 @; |$ B4 Z6 p8 h* y* G/ E
  114. 01:18:22.864 : en:Chapter 14% T* n" h0 R' u. A
  115. 01:22:21.436 : en:Chapter 15
    / m& |1 x) _7 n: o8 {# P0 p5 x0 S
  116. 01:25:31.334 : en:Chapter 16
复制代码

6 ^  \9 S) a1 b2 |. o; ~, y' }
  x+ \- h2 j" v( |" K: C9 a* l
$ Z/ A- _/ [. W+ S$ O

8 E% G$ V% y3 Q" P% R+ M' m8 l1 L: i5 b* \: m
游客,如果您要查看本帖隐藏内容请回复  VIP可免回复查看隐藏内容 详情请点击
发表于 2021-10-19 08:27:08 | 显示全部楼层
游客无权限浏览该内容
发表于 2021-10-19 09:37:57 | 显示全部楼层
游客无权限浏览该内容
发表于 2021-10-20 11:06:27 | 显示全部楼层
游客无权限浏览该内容
发表于 2021-10-22 11:45:38 | 显示全部楼层
游客无权限浏览该内容
发表于 2021-11-15 03:29:20 | 显示全部楼层
游客无权限浏览该内容
发表于 2021-11-15 03:45:46 | 显示全部楼层
游客无权限浏览该内容
您需要登录后才可以回帖 登录 | 立即注册

本版积分规则

封号公示|电子邮件联系本站hd1tj.net#[换成@]outlook.com|免责申明|HD一条街

GMT+8, 2021-12-3 18:09

Powered by Discuz! X3.4

Copyright © 2001-2021, Tencent Cloud.

快速回复 返回顶部 返回列表