HD一条街

 找回密码
 立即注册
搜索
查看: 47|回复: 3

[1080p] 嫁个100分男人[国粤双语 中英字幕]Marry.A.Perfect.Man.2012.CHINESE.1080p.BluRay.x264.DTS-EDPH 9.96G

[复制链接]
发表于 2021-10-19 01:09:14 | 显示全部楼层 |阅读模式

马上注册,结交更多好友,享用更多功能,让你轻松玩转社区。

您需要 登录 才可以下载或查看,没有帐号?立即注册

x

  y' d) h" @9 Q9 L                               
登录/注册后可看大图
3 ^) t/ w+ L4 P6 ]6 k1 r9 L7 J

: q" i* W5 m% V. R- p3 b, T- o1 ^- K◎译  名 Marry a Perfect Man / Marrying Mr Perfect& C+ j4 W  D3 I, A" @
◎片  名 嫁个100分男人/ ^  l) a9 t6 _9 |
◎年  代 2012
  L9 x- B9 a% b◎产  地 中国大陆 / 中国香港6 \* z3 A% _2 M6 M* T0 ]
◎类  别 喜剧 / 爱情6 G/ h7 \0 n0 F5 \) S
◎语  言 汉语普通话 / 粤语* _" K7 P0 q( W* r: @) g$ W
◎上映日期 2012-03-16(中国大陆); W" r+ k; K/ `8 L: G$ g/ F, I3 ]" {
◎IMDb评星  ★★★★✦☆☆☆☆☆
: C. x( O" [9 w+ ~◎IMDb评分  4.4/10 from 91 users
8 v  m5 X: F- u7 \/ H" b0 u◎IMDb链接  https://www.imdb.com/title/tt2321373/
$ C6 C5 |2 `9 T, v& ]◎豆瓣评星 ★★☆☆☆
3 \7 M+ |; [9 H6 z% P$ ~◎豆瓣评分 4.0/10 from 10,525 users
7 e4 C+ c* r, `◎豆瓣链接 https://movie.douban.com/subject/6778650/
- f" t8 F0 M# C0 j& Z◎片  长 90分钟) u- W3 a7 L6 Q7 x0 J
◎导  演 王晶 / Jing Wong" m1 t: B1 Y+ ]: h1 L' e3 P: L
◎演  员 郑中基 / Ronald Cheng7 h9 h  t4 Z$ _* u+ p! L: \0 j9 }
      梁咏琪 / Gigi Leung
( M! F: H9 T& ]      谢娜 / Na Xie' f; [) S! _9 Y* G' @1 e
      曾志伟 / Eric Tsang# ?9 t1 u5 r/ f9 S
      郭德纲 / Degang Guo
+ _" n; R$ I6 r* W      那威 / Wei Na
; @- g; C0 s2 R; c9 {- U      刘仪伟 / Yiwei Liu
9 y9 d4 l& R* N* V      柳岩 / Yan Liu- `9 y4 w1 T% B0 ?: b# \0 _
      孟瑶 / Yao Meng
; M3 _/ u% A: W! V; l      杨紫璐 / Zilu Yang! P" r5 k' I! L, n* }, F
      张珂源 / Keyuan Zhang | 饰 冬瓜
1 E3 _& g: L8 h8 f      刘双宁 / Shuangning Liu( G& w. |. ]% q9 f% Q
      马大明 / Daming Ma7 x) Z, [3 p3 R
      高一清 / Yiqing Gao6 m( l4 \- b% t4 N5 ^3 Z0 u$ H
      田蕾希 / Leixi Tian# c0 q, U# x1 Z( o
      毛俊杰 / Junjie Mao  e% Y5 S+ Z0 A' }
      冯淬帆 / Stanley Fung
% O& z& T. {: w8 W9 Q4 I      鲍起静 / Hee Ching Paw1 `3 Q$ B1 F8 G  P6 D
      林妙可 / Miaoke Lin
& [, c# n% L, G( F' l- L% b$ ?      巩新亮 / Xinliang Gong
. X3 T' G! V' ?$ z0 S5 y. R, ^7 B      苏醒 / Allen Su
# q. C% b7 r0 [) ?" [      高郡海 / Kevin Gao0 P" l5 T' r/ \7 @
◎编  剧 王晶 / Jing Wong
( A# G; L! z3 g& w) @+ l( H◎音  乐 罗坚 / Kin Law& b2 O# R$ r7 _2 u1 C- P1 K4 W
5 q; H4 B8 d8 l
◎标  签 喜剧 | 香港电影 | 爱情 | 香港 | 王晶 | 梁咏琪 | 郑中基 | 杜汶泽9 L8 n1 n- G5 p/ K# Z
; F" n7 x) S7 D7 e  g4 P
◎简  介   M' P" s9 h: T0 m8 s' x7 {

2 H5 M0 G+ K6 x( X; U! t6 h  叶欣荣(梁咏琪 饰)被恋爱七年的男友抛弃,忽然从待嫁女变成了剩女,嫁人无望,却误打误撞认识了老板的司机古须仁(郑中基 饰)。她根本不知道,古须仁竟然是如假包换的香港老板,因为树敌太多,不得已和司机关仁(杜汶泽 饰)交换身份。褪去了阔少爷的光环,一直得不到真爱的古须仁在荣荣身上找到了感觉,也因为互换身份,关仁认识了荣荣的闺蜜Nikki(谢娜 饰),一见倾心,Nikki却担心上司办公室性骚扰,处处防备,闹出不少笑话。而古须仁和荣荣,在帮助关仁追求Nikki的过程中渐渐坠入爱河。; _. p3 T8 A" |. C* h) h2 r7 C
  古须仁破格提拔荣荣去香港做高层。荣荣经历了一次梦幻般的旅程,私人飞机、名车、名表、名牌服装首饰、上流社会的交际……所有的一切都让荣荣感到不真实。当古须仁鼓起勇气向荣荣亮出真正身份并深情表白时,却让荣荣感到他句句假话,拒绝了他,但是此时决定洗心革面的古须仁却再也不愿意放手,虽然荣荣已经不在身边,他却依然遵守着荣荣和他的爱情约定……# D, E" `; p& R' F4 j. G& B

+ p0 J, _$ o; V◎幕后揭秘
, {5 G+ c. `- g0 @! a. G0 W/ m( r, \' V8 V1 C4 A# c
  人物简介: 古须仁--郑中基 饰
% c: C: u6 b: m7 k. H! X
+ }( A2 S9 @( v4 L  香港阔少,人称“卑鄙哥”,坐拥亿万家产,收购叶欣荣所在的内地公司。古须仁成天花天酒地,个性嚣张,因此得罪不少人。却天生胆小,因害怕别人报复,与司机关仁互换了身份,在意外巧遇女一号叶欣荣时,被她的单纯所吸引。为了叶欣荣,古须仁愿意放下所有的架子,只为赢得叶欣荣的爱情。
3 W/ W3 M# l8 \4 L0 n8 \4 j  j1 S! P( s! Z( R+ w
  叶欣荣--梁咏琪 饰
: I5 h4 ?, r+ J5 b/ m# O% }) T
& O0 N' I# `5 [" t  北京CBD内典型的OL,HR职员,性格简单可爱,天真地相信相恋多年的男朋友,不料被惨被抛弃,突然间由待嫁女变成了大龄剩女。机缘巧合下认识了古须仁,误打误撞地俘获了他的心。但当她意识到这个让自己陷入情网的公司司机却是如假包换的香港老板时,她无法忍受对方对自己的欺骗,拒并认同拒绝了对方。荣荣渴望的是一份真诚的爱情,不管对方地位是高贵还是贫贱,她心中认定的只有爱情。7 W* a8 ]+ F* e- W2 T4 G" M5 i! ^
& g0 p- d* G+ h: g
  Nikki 女二号--谢娜 饰9 `& e# k% a2 @' x2 ?9 P6 [$ {7 \7 H
" ]# ^& h: a! ?3 |0 u3 f" C4 S
  叶欣荣的闺蜜,心直口快,情绪来得快去得也快,没心没肺。喜欢帅哥,向往爱情,却没在N多帅哥中找到最爱。貌似是拜金女,爱好各种名牌,但最大的愿望还是找个能真心爱自己的男人。
3 N5 c$ u& b. Z; o6 K( y$ P, x; z) y' T# T
  关仁 男二号--杜汶泽 饰: n7 b0 G% q" N; E  o0 j8 y
, ^' x$ q3 ~: l6 M  c; ]
  须仁司机,和须仁关系密切,不分你我。性格内敛,有色心没色胆,在和须仁换了身份成为公司老板后,看上叶欣荣的闺蜜Nikki,却羞于表白,在须仁和叶欣荣的帮助下,才终于有勇气追求Nikki。
$ n5 b- y$ d+ ~8 i% T8 v
+ N0 s2 n% {+ @0 K$ @5 J: m$ v  鬼才导演遇见“坡姐”        有香港鬼才导演之称的王晶,入行二十多年来担任导演、编剧的作品数不胜数,其影片以“无厘头”的风格颇受两岸三地影迷的喜爱,近些年他将重心放到内地市场,推出了不少具有影响力的喜剧电影。而有“坡姐”之称的知名主持人谢娜,以幽默、诙谐的主持风格获得了很多人的喜爱。两人这次合作,王晶的感慨颇多:“《嫁个一百分男人》是我们第二次合作,她上次演我的电影其实戏份比较少,但是这部电影戏份会多很多,而且她和杜汶泽的故事也很有看点。”王晶导演透露,一直觉得谢娜是内地最棒的喜剧女演员,并表示这部电影在剧本创作阶段,自己心中就已经指定谢娜为主演了。两人互赞对方        据王晶介绍,谢娜在《嫁个一百分男人》中饰演一位非常有气质的职场女性,机缘巧合下和杜汶泽相遇,后者对其一见钟情,两人也因此发生了很多啼笑皆非的故事。作为导演的王晶对谢娜在影片中的表现赞不绝口:“我觉得谢娜是那种可以动,也可以静的演员,无论是感性的戏,还是搞笑的戏,她都能应付自如,并且非常出彩,已经超乎了我的想象,希望将来我们还会合作第三部甚至更多的作品”。而忙于准备婚礼的谢娜对王晶的赞赏也给予了回应:“王晶是很有才华的导演,这次演《嫁个一百分男人》更像是跟好朋友的一次聚会,非常开心,希望以后有机会能够继续拍他的电影”。  A) A2 h! H7 s. w5 {
7 n4 ~2 y4 h$ Q7 k& C5 \
  郑中基:“一百分男人”不好当         对于自己在电影《嫁个一百分男人》中的角色,郑中基则坦言 “一开始总是喜欢拿钱来解决问题,对于人际关系方面十分没有安全感,但是人总都是有一个成长的过程的。在后面的事情中他有很大转变,包括对爱情的忠贞,这在之前都是没有的,可以说他从生活经历中学到很多东西,慢慢变成一百分好男人”。被问及电影中的爱人和现实生活中的爱人有什么不同时,他笑言,“其实两个都算的上一百分,现实中的更贴近我的生活,很温暖很有家的感觉。电影中就相对比较理想化艺术化,因为是虚构的嘛,更倾向于很多男人的梦中情人”。        对于自己饰演的角色前后发生的巨大转变,郑中基颇有感慨,“一百分男人很辛苦!本来从一出生就处于被别人讨好的角色,现在一下子放下自己的优越感甚至自尊,全心全意的去追求一个女孩,她的喜怒哀乐都会影响到自己的生活,其实牺牲蛮大的”。除了戏里好男人难当,郑中基透露现实中同样不好当,“既想着做个好老公,又想着做个好爸爸,还想着做个好儿子,很多男人都想做到这三样,但是真正做到哪一样都很不容易”,他坦言自己当了爸爸之后更感觉要做到一百分男人压力真的很大。吴君如演悍妇成瘾 曾志伟沦落“妻管严”
9 {% ^) R2 D" l! G
* P' ~; U: H% P, Y" O. y* S$ Y  片中四大主演分别由郑中基、梁咏琪、杜汶泽、谢娜等饰演,此外还汇集了数十位明星大腕助阵,如曾志伟、吴君如、郭德纲、柳岩、苏醒等。其中曾志伟、吴君如分别在戏里饰演女主角叶欣荣(梁咏琪饰演)的大哥和大嫂,对于这两位曾是影帝影后级别的人物,王晶并没有手下留情,不但让二位饰演一对“财迷夫妇”,而且又一次将吴君如打造成悍妇形象。导致屡屡在警匪片中有着十足男人味的曾志伟,也被王晶打造成“妻管严”。4 n# C( @" z1 j5 u. a

# @- B+ t) P, t0 R9 m+ J; v) u  据悉,影片中吴君如饰演的大嫂乃是前省级运动员,运动细胞很发达,身手不凡,在家里一直占据主导地位,她一直抱怨叶欣荣(梁咏琪饰演)独占一间房,天天想要赶走她。而曾志伟饰演的大哥又是个妻管严,既打不过吴君如,更加不敢保护自己的妹妹。二人的角色既是故事开始的重点开端,又是梁咏琪饰演的叶欣荣,是否能与郑中基饰演的“卑鄙哥”走到一起的关键人物。
) R% T/ e/ ^: `7 M
8 }+ H+ V" F  _  }  F9 j  据饰演“卑鄙哥”的郑中基透露,曾志伟与吴君如饰演的财迷夫妇与其多次过招,甚至吴君如还将他脚踩在地,几次对手戏下来,连连笑场好几次,梁咏琪也表示,曾志伟与吴君如的笑功实在高超,很多都超出她的想象,让她应接不暇。      郭德纲“如花”演绎银幕情侣被指“重口味”      《嫁个一百分男人》主打职场爱情,戏中情侣档、夫妻档不在少数。据爆料,影片中除了梁咏琪与郑中基、谢娜与杜汶泽这两对甜蜜情侣外,还有更多意想不到的夫妻档。其中,名气最大的夫妻档当数搞笑天王曾志伟与天后吴君如的夫妻组合。而郭德纲与“如花”的夫妻档组合更被称为史上最“雷人”、最“重口味”的银幕情侣,并被指这对组合将掀起了银幕情侣的“重口味”风潮。      至于郭德纲与如花“喜结良缘”的创意,王晶导演表示,《嫁个一百分男人》主打的就是爆笑喜剧,目的就是让观众进入影院,去放松自己,开心一笑。而郭德纲与如花的组合更为影片增加了喜剧效果。      郭德纲另类“一百分男人”,与爱妻挥刀相见      《嫁个一百分男人》主要讲述了职场大龄剩女偶遇香港阔少,最终两人终成眷属,甜蜜下嫁一百分男人。但这样一部浪漫的爱情喜剧,郭德纲那副极其富有喜剧色彩的外表一出现,就别提浪漫了,反倒变身为另类“一百分男人”,与“如花”李健仁演绎了一对亲密夫妻。据透露,影片中郭德纲与“如花”这对“重口味”夫妻档,不但没有往日夫妻的恩爱,更是挥刀相见,上演了一场生死大对战。据王导透露,在《嫁个一百分男人》中,银幕情侣们纷纷亮出自己的“武功”,在谈情说爱的同时,也不忘时常舒展一下筋骨,“夫妻大战”同样也是电影的一大亮点。      制片人、中盟世纪副总韩啸表示:“王晶心仪郭德纲已久,当初发出邀请时,郭德纲还未看到剧本,便爽快答应了王晶,并在繁忙的拍摄期间出演,可见郭德纲与王晶的情谊很深,二人也是首次跨界合作,同时这一次集结了这么多的明星加盟,是大家对王晶导演的信任,也是对《嫁个一百分男人》的支持。”2 i" \& y5 f2 h6 D7 R/ F- T
  1.        
    $ O1 ?- K2 K# w" o$ c; Q
  2. Video
    " M8 Z1 p( j2 H0 \3 z/ n4 ~& e
  3. ID : 1
    3 m) [& K& s& S; R0 k  a
  4. Format : AVC
    # o3 j2 ~7 j9 }5 u
  5. Format/Info : Advanced Video Codec; m  c% Y* Q# n4 E. Y4 W
  6. Format profile : High@L4.1
    & i0 |" _! a3 O7 G' b( g
  7. Format settings : CABAC / 5 Ref Frames0 C. b1 |# n( }
  8. Format settings, CABAC : Yes
    , z  F3 w+ D; |" [& W
  9. Format settings, Reference frames : 5 frames! T- E, v7 S3 v, E
  10. Codec ID : V_MPEG4/ISO/AVC8 `) ^5 m6 {& K: c
  11. Duration : 1 h 30 min
    4 Y2 B, k* ^" x- i" p3 T4 c
  12. Bit rate : 12.8 Mb/s4 r3 J+ [2 {" U5 p
  13. Width : 1 918 pixels2 i  i: Z% k8 a7 K9 k7 z
  14. Height : 804 pixels5 f+ I& L2 b# _$ u& D
  15. Display aspect ratio : 2.40:1. v7 S) ^5 E/ ^- c* [  e9 |
  16. Frame rate mode : Constant! N, ?- A! _( e) g6 t1 H) H
  17. Frame rate : 24.000 FPS
    $ M( C- l) @4 P4 K
  18. Color space : YUV
    . u1 h  ~1 L/ k& B0 S/ {
  19. Chroma subsampling : 4:2:0  o& z, a& q# u& X. c
  20. Bit depth : 8 bits7 S6 L! {- U0 r( x+ m; p
  21. Scan type : Progressive
    * f- p2 l, s$ ?
  22. Bits/(Pixel*Frame) : 0.3459 C2 f4 l  Q- m
  23. Stream size : 8.06 GiB (81%)7 f# O/ T0 ^2 Z) @8 b& L+ M
  24. Writing library : x264 core 161 r3027 4121277  `8 E5 }5 s! {9 [8 q$ i% U
  25. Encoding settings : cabac=1 / ref=5 / deblock=1:-3:-3 / analyse=0x3:0x133 / me=umh / subme=11 / psy=1 / psy_rd=1.02:0.00 / mixed_ref=1 / me_range=32 / chroma_me=1 / trellis=2 / 8x8dct=1 / cqm=0 / deadzone=21,11 / fast_pskip=0 / chroma_qp_offset=-2 / threads=12 / lookahead_threads=3 / sliced_threads=0 / nr=0 / decimate=0 / interlaced=0 / bluray_compat=0 / constrained_intra=0 / bframes=16 / b_pyramid=2 / b_adapt=2 / b_bias=0 / direct=3 / weightb=1 / open_gop=0 / weightp=2 / keyint=250 / keyint_min=24 / scenecut=40 / intra_refresh=0 / rc_lookahead=250 / rc=crf / mbtree=0 / crf=16.5 / qcomp=0.65 / qpmin=0 / qpmax=69 / qpstep=4 / vbv_maxrate=62500 / vbv_bufsize=78125 / crf_max=0.0 / nal_hrd=none / filler=0 / ip_ratio=1.30 / pb_ratio=1.20 / aq=3:0.80
    " h/ l. ]* m8 M9 b
  26. Language : English
    ' D9 f- }, t8 d; s3 g- i$ `
  27. Default : Yes0 ^* E+ K- K# G
  28. Forced : No
    - G9 ^% O! L9 S/ ^2 b
  29. Color range : Limited  n" z# g2 K3 W5 U
  30. Color primaries : BT.709* v9 U8 ?' p3 Y' f. K; n
  31. Matrix coefficients : BT.7094 U9 X: a7 |1 M- s
  32. 6 ], c; T! k$ o7 s5 |; g
  33. Audio #19 U9 `! u, d( G
  34. ID : 2! }% D5 F+ V9 a$ p4 S+ v, L! ?
  35. Format : DTS
    - X8 T, c) x# k) U  ]
  36. Format/Info : Digital Theater Systems
    * R0 I! r( j& b1 `. X0 p
  37. Codec ID : A_DTS! C9 Z9 _; B; L& W
  38. Duration : 1 h 30 min4 w) ^! J! j0 e* z# V0 p
  39. Bit rate mode : Constant
    ) y1 c4 V/ _' e* D' C/ ^
  40. Bit rate : 1 509 kb/s- i' `0 q8 Y1 ?+ y% t
  41. Channel(s) : 6 channels
    7 L0 {; M: r+ j, ?; s
  42. Channel layout : C L R Ls Rs LFE
    8 q# {5 Q! |0 T5 S! S
  43. Sampling rate : 48.0 kHz1 ]  u8 f, j4 A2 f; Z  u
  44. Frame rate : 93.750 FPS (512 SPF)6 T; r* W# M0 p1 t8 G2 b
  45. Bit depth : 16 bits: W" C8 F  f- w  S1 ]
  46. Compression mode : Lossy! Q& T) G) T5 J+ |# R
  47. Stream size : 975 MiB (10%)
    * ]# B& ?) c# R! M: X$ A2 |* B
  48. Title : Cantonese
      C! j$ [# L1 f3 E$ X, B7 y+ \
  49. Language : Chinese
    2 E$ w$ y$ y+ ^3 @4 S4 _1 o' s4 d
  50. Default : Yes
    / q$ e3 }4 _$ v5 N! [+ ?# P
  51. Forced : No
    , ~* a+ D; H- ]( f

  52. ) o" T) t4 ?4 ^+ i2 j( ]" n
  53. Audio #2. s9 k# B7 }( G& P4 h3 f: t
  54. ID : 3" r' c. S5 V) P) K0 N4 a' e+ T
  55. Format : DTS* b, P+ L- s3 E: h
  56. Format/Info : Digital Theater Systems: P0 l+ J) }0 {7 y+ v+ w9 t  l
  57. Codec ID : A_DTS
    5 ]+ ?) r2 D5 c$ M0 I4 }4 S& ~! @
  58. Duration : 1 h 30 min
    4 {3 ]+ x+ }2 r1 M: X' X' X% ?
  59. Bit rate mode : Constant( H: W  o: m) H# w) l: n
  60. Bit rate : 1 509 kb/s! X9 |. V) y" w6 X' d- i
  61. Channel(s) : 6 channels
    5 w/ w7 T; _5 Z+ m3 E; |, S! s
  62. Channel layout : C L R Ls Rs LFE
    5 \2 V  c* M6 q1 t
  63. Sampling rate : 48.0 kHz1 ]" U+ [- r: s7 p5 b- V" R4 \
  64. Frame rate : 93.750 FPS (512 SPF)3 Y: r1 B! d9 I
  65. Bit depth : 16 bits
    8 m/ F4 g) |4 M0 Y% f3 k* ]
  66. Compression mode : Lossy$ I; [3 d) A$ E. A1 i
  67. Stream size : 975 MiB (10%)* E# r: f$ T, W$ e7 k
  68. Title : Mandarin! J. Z% x' f8 f& L) E2 L4 F
  69. Language : Chinese
    0 f7 W- Q; X7 \( a# @
  70. Default : No) x. p! O( k" Z# c
  71. Forced : No% P' m6 z9 Y  F
  72. 7 X; p( i4 n. @- t; m  ~0 z
  73. Text #1$ B$ [' }& F  ]
  74. ID : 45 }# e- E) _3 J' _
  75. Format : UTF-82 C, r* b2 y' W4 Z5 b5 _
  76. Codec ID : S_TEXT/UTF83 l. ]3 q, M7 o' W7 d$ I
  77. Codec ID/Info : UTF-8 Plain Text. n( t: P: U; Z; Z. e6 k7 }6 X1 g
  78. Duration : 1 h 25 min
    2 ~" ~" @) Y: ~7 e+ d% D, l" g; Q
  79. Bit rate : 82 b/s+ s. d' f  V0 G2 I- X" y
  80. Count of elements : 1914- L2 t6 S" G! F; f' C) U$ e
  81. Stream size : 51.5 KiB (0%)
    ( }8 v3 X8 L% `  V$ ^0 Q) m
  82. Language : English
    * @8 ~. H% \6 V* B
  83. Default : Yes" a! Z! G% L! M9 E6 N; A+ t
  84. Forced : No4 c( H- M" b: _' K/ A

  85. 3 t% ^/ d# X, e- W/ g1 h
  86. Text #2- ^4 \; f. T& n; ~" P
  87. ID : 5, }) Z( e/ P) j# ?- v1 [7 F
  88. Format : UTF-8
    - V9 l( h  ]0 W( e2 A8 x
  89. Codec ID : S_TEXT/UTF8
    4 H- j8 o9 E: }5 z5 J
  90. Codec ID/Info : UTF-8 Plain Text
    ' @- @) @& ~, h. C" @
  91. Duration : 1 h 26 min
    . {1 U6 b3 G. I# o
  92. Bit rate : 64 b/s5 c1 M1 {6 D& U* u' `6 t
  93. Count of elements : 18902 {% a+ B( r- N3 S/ O- Y
  94. Stream size : 41.0 KiB (0%)
    2 o( H$ e$ T. V/ m3 w- ~6 x
  95. Title : Simplified
    " Q6 {  H" A& P( w2 I& j, h
  96. Language : Chinese$ b  _+ [7 N' |& D* x* \' R* _
  97. Default : No
    2 S6 j; l" b( B( ?3 j" B
  98. Forced : No6 e9 ~- Q* m; P$ f* \8 R
  99. 1 Q' p0 {' E: w+ d" Z
  100. Text #3. u/ Q7 h/ f, D) n, T
  101. ID : 6/ Q" l2 c2 ?% l" Y% ^3 Q0 {( k- @
  102. Format : UTF-8
    - a8 x3 K6 Z' x4 _
  103. Codec ID : S_TEXT/UTF8  h1 N' @5 a: \. i# m1 N
  104. Codec ID/Info : UTF-8 Plain Text
    1 Z: L# a# i- o% G1 \9 ^# d
  105. Duration : 1 h 26 min
    . k' U" h) c" ]0 ]3 p- d% J' h' u& N
  106. Bit rate : 64 b/s
    # q) V% I+ v: E4 R, v5 [5 ~
  107. Count of elements : 1890
    ( r/ m$ q' t, L5 k/ P% Q  V/ C
  108. Stream size : 41.0 KiB (0%)  A2 m( _/ q3 N, x8 I
  109. Title : Traditional
    : [2 P. D  J4 {( d; t
  110. Language : Chinese5 a! F, M& n8 S; Y4 k4 K4 u
  111. Default : No0 D/ j3 a+ b- W# Q% D7 i
  112. Forced : No
    3 @1 Y6 x4 e5 _. `7 N2 t

  113. 6 ~. I& o3 u. L: d7 V% j
  114. Menu( V9 m0 [$ y+ f2 M
  115. 00:00:00.000 : en:Chapter 01' ?" l) }" n4 Q$ K+ s3 W8 ?& |$ T
  116. 00:08:09.416 : en:Chapter 02
    8 l" o+ H' Z0 n
  117. 00:14:39.541 : en:Chapter 03' D; j" p0 J$ F' n
  118. 00:21:45.916 : en:Chapter 043 b# h5 g& o6 [* Q3 [0 \
  119. 00:31:00.333 : en:Chapter 053 E4 L/ f8 g; e* n1 d( P9 Y# C
  120. 00:38:21.125 : en:Chapter 06
    / X. W0 |  ]! _6 X) l7 ^) I
  121. 00:44:42.666 : en:Chapter 07: L4 ~# e. v/ O
  122. 00:52:30.333 : en:Chapter 08
    9 {9 t* B8 R7 S, i/ a, O
  123. 01:00:09.375 : en:Chapter 09
    " x" ]% ?) J7 _$ L
  124. 01:09:49.541 : en:Chapter 10
    ! ^; H; P& i3 N7 \
  125. 01:15:59.750 : en:Chapter 11& z) f5 i- f, e8 M: t7 z8 ~. n4 Z
  126. 01:23:01.333 : en:Chapter 12
复制代码
( u) s4 U3 J) H  C9 x" j1 G# B. t

- f# y* h( x8 F/ Z& g9 \& |# f  ?3 k) D

; S8 Z( ^2 a- X9 [9 }* i2 q
1 x' V% @: l  U7 H& {( z
; F' s3 n2 B& Q. ^8 f1 n+ H- @) s6 n6 q6 N4 Y" I6 H

  t+ s/ Z  `( U7 r# s; \
游客,如果您要查看本帖隐藏内容请回复  VIP可免回复查看隐藏内容 详情请点击
发表于 2021-10-31 11:55:11 | 显示全部楼层
游客无权限浏览该内容
发表于 2021-10-31 12:51:51 | 显示全部楼层
游客无权限浏览该内容
您需要登录后才可以回帖 登录 | 立即注册

本版积分规则

封号公示|电子邮件联系本站hd1tj.net#[换成@]outlook.com|免责申明|HD一条街

GMT+8, 2021-12-4 12:28

Powered by Discuz! X3.4

Copyright © 2001-2021, Tencent Cloud.

快速回复 返回顶部 返回列表