HD一条街

 找回密码
 立即注册
搜索
查看: 324|回复: 10

[1080p] [1958][女篮五号][1080P修复版/2G][国语 无字幕][MP4][刘琼/秦怡][百度]

[复制链接]
发表于 2021-6-24 00:03:03 | 显示全部楼层 |阅读模式

马上注册,结交更多好友,享用更多功能,让你轻松玩转社区。

您需要 登录 才可以下载或查看,没有帐号?立即注册

x

! C8 J; m7 w6 b% p% c: d. `4 F                               
登录/注册后可看大图
9 h5 P# d2 J. z) d- Y
◎译  名 Woman Basketball Player No. 5% V% F& l1 q4 @) i2 e
◎片  名 女篮五号/ ?3 S: v2 C& `& P
◎年  代 1958
4 L$ m5 ^) i, I+ T/ A* ^) _◎产  地 中国大陆2 ^5 X5 T) h; D! J
◎类  别 剧情 / 爱情 / 运动+ d) j1 }5 J' J% C
◎语  言 汉语普通话) @9 e- t7 m. g  @8 ~( i4 F- \, y
◎上映日期 1958-01(中国大陆)
. S- ]  D- m* \6 [6 C◎IMDb评分  6.6/10 from 86 users" Q- v! I, ^# T! G
◎IMDb链接  https://www.imdb.com/title/tt0081770
8 v. g8 |8 a9 }◎豆瓣评分 7.0/10 from 2109 users
2 x  B1 B* q9 U◎豆瓣链接 https://movie.douban.com/subject/1303341/* S$ |8 p3 c3 t( X8 ~" x
◎片  长 85分钟3 ~1 N# `/ c  h. w( ?
◎导  演 谢晋 Jin Xie2 W' u5 G$ A" P- L! K; B; t. z9 B0 C) K
◎编  剧 谢晋 Jin Xie7 ?% A- a5 O$ J
◎主  演 刘琼 Qiong Liu
! d1 l% M! B4 S2 ?# V& e      秦怡 Yi Qin: x2 G( m0 m# R7 N9 j
      曹其纬 Qiwei Cao6 Z$ x) _9 g; O  q" w1 U: m2 G: i0 C
      于明德 Mingde Yu
; w5 j3 Q9 c+ [( j  u- J      崔超明 Chaoming Cui
4 w" a8 L# `8 e! c, n. A$ n; b      王琪 Qi Wang# S& f$ L- K) a8 i8 B0 W! m& X" n
      林榛 Zhen Lin3 d1 p9 P8 ~3 P, }, q7 H7 [' f! }! g
      向梅 Mei Xiang
& |+ |) d  v0 A3 d; [      毕克 Ke Bi
4 w" T# h8 q: X$ M) [      茂路 Lu Mao! S* i" h$ P4 C% {) o8 [- z
      于冲 Chong Yu9 `1 l( }# b" j* E7 o
      金川 Chuan Jin
7 |7 c0 F' _8 U9 x1 s      于飞 Fei Yu
+ _6 A' U3 g3 p1 L/ ~      王执芳 Zhifang Wang( n& B' l' _2 J6 m9 O' ^' ~

) l- \) E+ a* b, e4 x2 h. s◎简  介  
7 Q+ g% g7 O: U. r! J1 Y! f( N7 \" N8 C7 Q% x: z) F; [4 J
  解放前的上海,田振华(刘琼 饰)是东华篮球队的主力队员,他和球队老板(崔超明 饰)的女儿林洁(秦怡 饰)相爱着。由于收人贿赂,老板故意要自已的球队输给洋人,田振华异常气愤,带队打赢了比赛,老板非常生气,派流氓打伤了他,并把女儿嫁给了别人。18年过去了,解放后的田振华早已是篮球教练,有一次他在自己的球员中发现一张似曾相识的脸,原来这姑娘竟是自己当年的恋人林洁的女儿林小洁(曹其纬 饰)。她对体育运动却不热衷,田振华决心帮她转变观念,将来为国争光。小洁在一次比赛中不慎受重伤住院,林洁到医院看望她,巧遇了前来探视的田振华,四目相望,百感交集,他们细数了十八年来的点点滴滴......8 [) {3 J& }- n. B: G! n

7 G: R5 a, x2 a# b: M& M; \
Quote:
General; f- J4 ?' j; w1 _
Complete name                  : Woman Basketball Player No. 5 1958 WEB-DL 1080p H264 AAC-Dave.mp4
3 B1 H) ]0 T( K* nFormat                         : MPEG-4
; e' u/ ^% L, O) |Format profile                 : Base Media
+ |% w" s+ {1 N; T9 h* l9 _$ gCodec ID                       : isom (isom/avc1)
0 c  a) y+ P7 ^) D/ EFile size                      : 1.99 GiB- E- G4 v: i+ L" k- _8 {8 G
Duration                       : 1 h 26 min
; C" s& _/ w# v/ IOverall bit rate mode          : Variable) n3 i8 S7 S; k8 P2 _
Overall bit rate               : 3 315 kb/s- B& A6 n/ N* Z) U" `8 j
Encoded date                   : UTC 2021-06-17 07:22:19' }" U; e1 j* u" i5 I& |5 C* R# ~$ D
Tagged date                    : UTC 2021-06-17 07:22:19& [4 `4 N( _1 w
0 O8 f/ W. c6 \6 X# k
Video
# l* {' B; a% H* v4 c# A' ~8 lID                             : 1& A# ?9 `& m4 H" u
Format                         : AVC9 y3 v3 O: f# H. a6 w: Z0 K
Format/Info                    : Advanced Video Codec
; _, ]# z& b0 f$ |: v& Q; R1 {Format profile                 : Main@L4.1* i9 k+ M9 y5 Q* I
Format settings                : CABAC / 4 Ref Frames
& C/ i1 Y+ l, C4 Y0 _9 D0 eFormat settings, CABAC         : Yes
/ z. E/ g4 Y0 L5 @5 F% |Format settings, Reference fra : 4 frames
1 o1 f0 W5 I0 P- vCodec ID                       : avc1
# t2 ]$ J" o* t4 ]& R% FCodec ID/Info                  : Advanced Video Coding. n" [8 {. C! Y: m9 o6 M9 b; E* H
Duration                       : 1 h 26 min
5 Q/ W9 p6 b) zBit rate                       : 2 994 kb/s8 @+ l+ b, |  B/ U6 P+ y: U
Maximum bit rate               : 7 467 kb/s
; j1 R- a1 O7 {& A$ pWidth                          : 1 440 pixels
2 T! N; O# ^+ v1 g8 v. |" JHeight                         : 1 080 pixels
  c- W  u/ |' y; VDisplay aspect ratio           : 4:3
7 i; d; }6 y6 e: vFrame rate mode                : Constant- g3 N& u$ J  F; }6 O5 y: P
Frame rate                     : 25.000 FPS
- v: U/ c" L( \7 y( dStandard                       : PAL
  ]+ N/ [0 u0 P1 Y9 f( RColor space                    : YUV
+ s8 `8 b5 j$ MChroma subsampling             : 4:2:0
2 z' a' J: D; KBit depth                      : 8 bits. e: E8 y" i" m2 |) I3 b
Scan type                      : Progressive/ Q5 ^5 t6 I8 S! T$ a  v
Bits/(Pixel*Frame)             : 0.077
' h4 ^" m8 `+ O' z, IStream size                    : 1.80 GiB (90%); n4 o3 ^2 Z5 M3 B6 Z5 t
Encoded date                   : UTC 2021-06-17 07:22:19
( Y  \- m( Z' M) g- _Tagged date                    : UTC 2021-06-17 07:22:357 _* r, s7 t# [
Color range                    : Limited% w1 Y" o2 I8 g2 B
Color primaries                : BT.709/ s7 L5 Y) l6 k) {( T
Transfer characteristics       : BT.709
  J" z7 m7 \5 g# FMatrix coefficients            : BT.709
3 ~+ J2 h+ q" \7 jCodec configuration box        : avcC
1 _4 r! Q# ?' J4 W" ?3 l7 t5 t/ v4 A, O
Audio
! t+ L* H0 y* B0 _4 s2 IID                             : 28 A4 ?! E4 d) Y% B9 D. J4 i
Format                         : AAC LC
  h, R% F1 ]5 ]* x$ e! y% GFormat/Info                    : Advanced Audio Codec Low Complexity) l0 k4 D3 R6 \' N; h1 j7 _
Codec ID                       : mp4a-40-2& e, [4 e0 I$ G$ ~
Duration                       : 1 h 26 min% S1 U3 C! x1 u9 L. T5 U
Bit rate mode                  : Variable6 F+ [( P  `, w: B6 f
Bit rate                       : 317 kb/s8 Z% V% _4 \6 `9 G0 E8 T, e
Maximum bit rate               : 325 kb/s
$ P* R2 V* h2 k5 _  ^Channel(s)                     : 2 channels* Q, y, j+ j( h$ s/ h+ M
Channel layout                 : L R+ m* i' l* k  Y+ _; \
Sampling rate                  : 48.0 kHz1 E. O% w4 g1 x; Q% p2 r
Frame rate                     : 46.875 FPS (1024 SPF); g( P" L7 J2 I' I2 l
Compression mode               : Lossy
. z+ B. G, G' K4 ]Stream size                    : 195 MiB (10%)
- P( I3 i' {( c# N5 n( d3 rEncoded date                   : UTC 2021-06-17 07:22:30
1 g7 s- R( h' L8 w' HTagged date                    : UTC 2021-06-17 07:22:35+ q' F; u/ c4 Y3 o! \

5 T3 z& G9 e5 \& R$ `- @
+ N" s5 e( G+ r1 E
. I5 i: T$ B! o2 @) o
                               
登录/注册后可看大图
/ {/ ], M& ~8 t* t6 D
0 A  l0 m& e* B" m+ Y; `: [
                               
登录/注册后可看大图

. B' F$ o; k; T5 r( R
: w+ @, r2 ^( G# D) o; \4 t
                               
登录/注册后可看大图
& Z3 d# u; y- i) q& D% z8 r( B. f# h

! y4 K1 ]1 m7 @/ S$ @' U: H
* V7 U! w& H0 g8 _
郑重声明:
$ Y; M9 {+ h6 E: {  O- P# s: o" r本站提供的所有影视综艺作品均是在网上搜集,任何涉及商业盈利目的均不得使用,否则产生的一切后果将由您自己承担!本站将不对本站的任何内容负任何法律责任!该下载内容仅做宽带测试使用,请在下载后24小时内删除。请购买正版!

$ ]& F/ ~+ F' v. U$ p
/ P: q. M$ R" P- T( k- f! K. D9 Z
$ ?, g4 `$ y+ v8 L/ A6 ^* y6 Z6 [  ~百度网盘
+ b) D; l8 I; @& m* Y0 V- a& R7 M  Y

5 k- f! Z( g$ ^5 K
游客,如果您要查看本帖隐藏内容请回复  VIP可免回复查看隐藏内容 详情请点击
发表于 2021-6-24 05:40:14 | 显示全部楼层
游客无权限浏览该内容
发表于 2021-6-24 06:05:14 | 显示全部楼层
游客无权限浏览该内容
发表于 2021-6-24 07:12:36 | 显示全部楼层
游客无权限浏览该内容
发表于 2021-6-24 09:56:41 | 显示全部楼层
游客无权限浏览该内容
发表于 2021-6-24 22:05:16 | 显示全部楼层
游客无权限浏览该内容
发表于 2021-7-6 21:04:14 | 显示全部楼层
游客无权限浏览该内容
发表于 2021-7-9 23:13:29 | 显示全部楼层
游客无权限浏览该内容
发表于 2021-7-19 08:34:39 | 显示全部楼层
游客无权限浏览该内容
发表于 2021-7-25 17:12:20 | 显示全部楼层
游客无权限浏览该内容
您需要登录后才可以回帖 登录 | 立即注册

本版积分规则

封号公示|电子邮件联系本站hd1tj.net#[换成@]outlook.com|免责申明|HD一条街

GMT+8, 2021-12-9 00:43

Powered by Discuz! X3.4

Copyright © 2001-2021, Tencent Cloud.

快速回复 返回顶部 返回列表