HD一条街

 找回密码
 立即注册
搜索
查看: 319|回复: 8

[1080p] [1994][少林英雄之方世玉洪熙官][1080P泰吉修复版/3.3G][国语 无字幕][MP4][钱嘉乐/斯琴高娃][百度]

[复制链接]
发表于 2021-6-23 23:49:47 | 显示全部楼层 |阅读模式

马上注册,结交更多好友,享用更多功能,让你轻松玩转社区。

您需要 登录 才可以下载或查看,没有帐号?立即注册

x
% C3 h. N* T  U: b6 a0 O6 z
                               
登录/注册后可看大图

" y' Z) r! ]+ I1 D' a0 q! }8 D0 i◎译  名 Kung Fu Kid / Shaolin Avengers / 少林英雄
1 H* L( G$ t; D" ~! k: Z: g◎片  名 少林英雄之方世玉洪熙官
" L! k' m% N# n! }+ ?  a( `( Z◎年  代 1994
" D% r1 f: M, f8 S# e◎产  地 中国香港 / 中国' e  W3 N) y/ r. _! u0 b' J
◎类  别 动作
1 x3 L) e8 L7 r◎语  言 粤语, @4 c: Z3 |6 A# t! Q# r: J8 }
◎上映日期 19943 F7 `3 `# z5 d
◎IMDb评分  5.2/10 from 34 users, b' Q$ q7 K9 g. q7 F( R1 Z
◎IMDb链接  https://www.imdb.com/title/tt0185673
+ D" Q. ?- }/ U! n◎豆瓣评分 6.1/10 from 1223 users
8 a( ]: G9 b& H◎豆瓣链接 https://movie.douban.com/subject/2148296/
: D" N; B) s3 l2 g$ P, n◎片  长 86 分钟
( Z$ u* O! d8 B◎导  演 李钊 Chiu Lee' M+ S$ P% K8 Z, T# d. g) L
◎编  剧 李钊 Chiu Lee / 罗棋 Kei Law
! R1 Y) x9 l0 ^3 p# c◎主  演 钱嘉乐 Kar Lok Chin. G; n6 n9 a% n
      斯琴高娃 Gaowa Siqin
5 x0 D+ x" r* o      林正英 Ching-Ying Lam
% X1 E% e% p1 |: h$ r* i3 ~      关海山 Hoi-Shan Kwan
) ~$ v, ^$ v  @" W& O7 x2 j      陈少鹏 Siu-Pang Chan
$ o- }; }% |' z; o! W      午马 Wu Ma
, `; m. c- h  ~* Q      冯国 Kwok Fung
  X( w' T2 Z7 f8 D0 ?: N      戴兆安 Zhaoan Dai
+ ?3 L# D7 ]( y5 I      廖静妮 Jingni Liao
& c5 F- U4 ^  B, f) I4 J9 J0 m4 c      王清河 Ching-Ho Wang2 Z5 N+ p! a  g2 f( r% p2 k
9 M  k* r, @+ F$ R
◎简  介  
+ G3 m  d5 y2 M
& ?5 g3 e/ X# t  乾隆三十八年间,少林叛徒高进忠率领清兵血洗少林。侥幸逃生的义士对高恨之入骨,誓杀奸贼以报冤仇。然几次复仇行动皆告失败,以洪熙官(林正英 饰)为首的一众义士避开清兵锋芒,前往广州创办了“琼花会馆”。但不久高进忠调任广州提督,来至此地,双方又是一场恶斗。另一方面,广州方姓之家有一公子,名叫世玉(钱嘉乐 饰),他自幼随母习武,功夫了得,加上天性顽皮,少不得在外惹出祸端。广州恶霸雷老虎死在方世玉手下,雷的妻子李小环和丈人李巴山对世玉穷追不舍。危急时刻,奄奄一息的世玉遇见了正在逃避官府追杀的洪熙官……; x: Q% T* `# T9 S* F

* T. J% r; C" U/ Z) Y* r
Quote:
General& Q/ Y6 b' i- I, o5 @
Complete name                  : Kung Fu Kid 1994 WEB-DL 1080p H264 AAC-Dave.mp45 x; ?9 U& y- p0 O) \+ e, H( O# n0 }
Format                         : MPEG-4. f# {8 w  V# j# ~2 k5 G& N# w- t
Format profile                 : Base Media% D/ i) n/ D5 C2 Z! |; }
Codec ID                       : isom (isom/avc1)
. ~. }9 N0 v( t1 Q- k7 BFile size                      : 3.38 GiB) a% ^( }' B1 m% {& q5 B
Duration                       : 1 h 30 min* a  c: o3 m, A$ A# i% \
Overall bit rate mode          : Variable- S4 q. {" a/ z9 d7 E
Overall bit rate               : 5 336 kb/s
2 N" i4 u5 G0 ~! j6 e4 TEncoded date                   : UTC 2021-06-12 07:31:16
: i6 N: g' D+ d; |8 ?0 z9 B0 wTagged date                    : UTC 2021-06-12 07:31:16
* _) q5 B2 }: q
! q6 B7 ^/ M8 t  H% m- ]; J. v# UVideo
/ ]0 ?* {5 T7 ]$ m. B9 V- oID                             : 1
! ~) X# a$ n6 N8 T% r' d+ M1 JFormat                         : AVC. U; n$ {" [2 }9 A
Format/Info                    : Advanced Video Codec( j% U1 h: k2 u! V! i
Format profile                 : High@L4
3 a8 O7 C0 I# xFormat settings                : CABAC / 4 Ref Frames6 I6 Y6 ^* X0 K* \
Format settings, CABAC         : Yes' e, c- X! V% ^8 Y9 _
Format settings, Reference fra : 4 frames
2 E) [- _8 \7 b9 ECodec ID                       : avc1
' |9 T* m# f: Q- wCodec ID/Info                  : Advanced Video Coding
4 y( z! d- l: `, d. G3 C8 f5 s0 FDuration                       : 1 h 30 min1 W& K' h% Z" i/ {
Bit rate                       : 5 141 kb/s
/ ?* m5 |* \& e$ t) x1 E& sMaximum bit rate               : 9 587 kb/s
. c- f2 G) R/ bWidth                          : 1 920 pixels
8 ~3 F. v, i' w) H" o- ]Height                         : 1 080 pixels
' L+ A- D( H$ h+ u/ t7 @" H* O& D" ODisplay aspect ratio           : 16:9$ m) q0 P. i" A2 H, H& x1 `
Frame rate mode                : Constant
6 {- F5 k4 x  y/ dFrame rate                     : 25.000 FPS, F3 _! }" C7 S4 s7 l! H% |
Color space                    : YUV+ [5 t/ S6 F2 @4 u
Chroma subsampling             : 4:2:09 I0 P' }/ h) W0 r2 D- D+ M* W; u
Bit depth                      : 8 bits8 W9 }* I  r+ b
Scan type                      : Progressive$ E/ M& Z$ {4 @  h% S$ G4 R
Bits/(Pixel*Frame)             : 0.099
, \9 O$ p! l' }1 ?5 mStream size                    : 3.26 GiB (96%)5 b, x2 Q$ i; Z
Encoded date                   : UTC 2021-06-12 07:31:16- o6 m& `* ^8 D8 ?
Tagged date                    : UTC 2021-06-12 07:31:35! P2 U0 J9 p& f  T0 A: T
Codec configuration box        : avcC5 Z( n! @; D/ E1 C- m3 _. q
, n, i+ L2 |- @# i& P
Audio
( `6 a0 [' k/ ^/ q: l. lID                             : 2
, U+ J" O0 ?2 d2 cFormat                         : AAC LC2 H- d, [" o- Q2 m4 d. z* L* e
Format/Info                    : Advanced Audio Codec Low Complexity9 M0 x# g. W+ ]9 L7 {* D$ D. f
Codec ID                       : mp4a-40-2
6 h0 Q: o( I5 w% u! A9 [Duration                       : 1 h 30 min5 n1 Y9 H6 ~1 }, {* Z
Bit rate mode                  : Variable
$ {. M4 A, l# Y9 G( |9 v. yBit rate                       : 192 kb/s
' t' f, k6 @; H3 M; `Maximum bit rate               : 201 kb/s+ o( O! _0 Z2 ?; d* }( {  }
Channel(s)                     : 2 channels( ^3 [+ y+ L& G8 d6 |4 q. o. W
Channel layout                 : L R
1 v$ _+ W- h( p- H6 b7 [) s$ xSampling rate                  : 44.1 kHz. `% B$ M4 o+ o: v9 b: F
Frame rate                     : 43.066 FPS (1024 SPF)
4 d7 L1 r( ~  e, o8 e* }Compression mode               : Lossy
% |' Y* a7 L2 c) b) |Stream size                    : 125 MiB (4%)
% u6 m; q/ D" Q$ }Encoded date                   : UTC 2021-06-12 07:31:31
5 E8 p( J% \  Y, ITagged date                    : UTC 2021-06-12 07:31:35
& w, }! ?) @/ a5 a9 `
# b" e+ M$ {8 g+ G3 W% u

; b* t( f9 j4 U1 }) Y5 o                               
登录/注册后可看大图
( j$ K* P3 Y, U
9 L" q+ F2 v8 g1 M/ j7 W1 \. g
                               
登录/注册后可看大图
5 O# g8 N+ ?6 G# p

/ D8 t' j% {* g7 H: c                               
登录/注册后可看大图

! I& E. |( t' _, T; _( x+ z' l: H5 ~* p' I* d

  J2 B; t: |% P' ^: g' k! X  v% C5 @" z/ [
郑重声明:
' j6 `$ K5 u, i% A, _" d本站提供的所有影视综艺作品均是在网上搜集,任何涉及商业盈利目的均不得使用,否则产生的一切后果将由您自己承担!本站将不对本站的任何内容负任何法律责任!该下载内容仅做宽带测试使用,请在下载后24小时内删除。请购买正版!

6 E/ a/ G- W. s: k0 b# j: C. c/ D/ B$ @7 K$ [5 j" V. T2 J. A  r# C
2 j8 w9 T1 W# r) a- Y& w# a
百度网盘! j9 b! A0 _6 t+ @/ k9 z# {6 n

; k2 J4 v" q, o# E' C( r+ I+ P+ ]# p4 x4 ^( z
游客,如果您要查看本帖隐藏内容请回复  VIP可免回复查看隐藏内容 详情请点击
发表于 2021-6-24 01:15:47 | 显示全部楼层
游客无权限浏览该内容
发表于 2021-6-24 05:40:18 | 显示全部楼层
游客无权限浏览该内容
发表于 2021-6-24 05:46:19 | 显示全部楼层
游客无权限浏览该内容
发表于 2021-6-24 06:07:13 | 显示全部楼层
游客无权限浏览该内容
发表于 2021-7-12 21:36:25 | 显示全部楼层
游客无权限浏览该内容
发表于 2021-7-25 16:07:01 | 显示全部楼层
游客无权限浏览该内容
发表于 2021-7-31 14:16:31 | 显示全部楼层
游客无权限浏览该内容
发表于 2021-7-31 14:48:40 | 显示全部楼层
游客无权限浏览该内容
您需要登录后才可以回帖 登录 | 立即注册

本版积分规则

封号公示|电子邮件联系本站hd1tj.net#[换成@]outlook.com|免责申明|HD一条街

GMT+8, 2021-12-3 18:03

Powered by Discuz! X3.4

Copyright © 2001-2021, Tencent Cloud.

快速回复 返回顶部 返回列表