HD一条街

 找回密码
 立即注册
搜索
查看: 1017|回复: 17

[1080p] [1998][亚李·爸爸两个大盗][1080P-H265/3.3G][国粤双语 内封多国字幕][MKV][黄子华/张达明][百度]

[复制链接]
发表于 2021-6-11 00:40:45 | 显示全部楼层 |阅读模式

                               
登录/注册后可看大图

◎译  名 亚李·爸爸两个大盗 / A Lee Ang Ang Leung Goh Daai Diy
◎片  名 亞李·爸爸兩個大盜
◎年  代 1998
◎产  地 中国香港
◎类  别 喜剧 / 犯罪
◎语  言 粤语
◎上映日期 1998-02-28(中国香港)
◎IMDb评分  6.6/10 from 37 users
◎IMDb链接  https://www.imdb.com/title/tt0177765
◎豆瓣评分 7.4/10 from 1735 users
◎豆瓣链接 https://movie.douban.com/subject/1307919/
◎片  长 99 分钟
◎导  演 邝文伟 Abe Kwong
◎编  剧 邝文伟 Abe Kwong
◎主  演 汤盈盈 Angela Tong
      雷宇扬 Simon Lui
      黄雯 Michelle Wong Man
      罗兰 Lan Law
      黄子华 Dayo Wong

◎简  介

  阿李(张达明)是一个生活安定的银行职员,在误信朋友投资失败欠下数百万巨债,巴志明(黄子华)绰号“爸爸”,一事无成却也总认为自己武艺样样皆能,于是他们二人决定抢劫银行,闹出百般笑话……

Quote:
General
Unique ID                      : 161790727158547177923261789366327482468 (0x79B7C2B7B8F6D348482293140F189864)
Complete name                  : A Lee Ang Ang Leung Goh Daai Diy 1998 WEB-DL 1080p H265 AAC-Dave.mkv
Format                         : Matroska
Format version                 : Version 4
File size                      : 3.37 GiB
Duration                       : 1 h 39 min
Overall bit rate               : 4 857 kb/s
Encoded date                   : UTC 2021-06-03 19:25:30
Writing application            : mkvmerge v19.0.0 (‘Brave Captain‘) 64-bit
Writing library                : libebml v1.3.5 + libmatroska v1.4.8

Video
ID                             : 1
Format                         : HEVC
Format/Info                    : High Efficiency Video Coding
Format profile                 : Main@L4@High
Codec ID                       : V_MPEGH/ISO/HEVC
Duration                       : 1 h 39 min
Bit rate                       : 4 597 kb/s
Width                          : 1 920 pixels
Height                         : 1 080 pixels
Display aspect ratio           : 16:9
Frame rate mode                : Constant
Frame rate                     : 24.000 FPS
Color space                    : YUV
Chroma subsampling             : 4:2:0
Bit depth                      : 8 bits
Bits/(Pixel*Frame)             : 0.092
Stream size                    : 3.19 GiB (95%)
Default                        : Yes
Forced                         : No

Audio #1
ID                             : 2
Format                         : AAC LC
Format/Info                    : Advanced Audio Codec Low Complexity
Codec ID                       : A_AAC-2
Duration                       : 1 h 39 min
Bit rate                       : 124 kb/s
Channel(s)                     : 2 channels
Channel layout                 : L R
Sampling rate                  : 44.1 kHz
Frame rate                     : 43.066 FPS (1024 SPF)
Compression mode               : Lossy
Stream size                    : 88.4 MiB (3%)
Title                          : 国语
Language                       : Chinese
Default                        : Yes
Forced                         : No

Audio #2
ID                             : 3
Format                         : AAC LC
Format/Info                    : Advanced Audio Codec Low Complexity
Codec ID                       : A_AAC-2
Duration                       : 1 h 39 min
Bit rate                       : 132 kb/s
Channel(s)                     : 2 channels
Channel layout                 : L R
Sampling rate                  : 44.1 kHz
Frame rate                     : 43.066 FPS (1024 SPF)
Compression mode               : Lossy
Stream size                    : 93.0 MiB (3%)
Title                          : 粤语
Language                       : Chinese
Default                        : No
Forced                         : No

Text #1
ID                             : 4
Format                         : UTF-8
Codec ID                       : S_TEXT/UTF8
Codec ID/Info                  : UTF-8 Plain Text
Duration                       : 1 h 37 min
Bit rate                       : 59 b/s
Count of elements              : 1734
Stream size                    : 42.6 KiB (0%)
Title                          : 简体中文
Language                       : Chinese
Default                        : Yes
Forced                         : No

Text #2
ID                             : 5
Format                         : UTF-8
Codec ID                       : S_TEXT/UTF8
Codec ID/Info                  : UTF-8 Plain Text
Duration                       : 1 h 37 min
Bit rate                       : 59 b/s
Count of elements              : 1734
Stream size                    : 42.6 KiB (0%)
Title                          : 繁体中文
Language                       : Chinese
Default                        : No
Forced                         : No

Text #3
ID                             : 6
Format                         : UTF-8
Codec ID                       : S_TEXT/UTF8
Codec ID/Info                  : UTF-8 Plain Text
Duration                       : 1 h 37 min
Bit rate                       : 63 b/s
Count of elements              : 1734
Stream size                    : 45.4 KiB (0%)
Title                          : 英文
Language                       : English
Default                        : No
Forced                         : No

Text #4
ID                             : 7
Format                         : UTF-8
Codec ID                       : S_TEXT/UTF8
Codec ID/Info                  : UTF-8 Plain Text
Duration                       : 1 h 37 min
Bit rate                       : 90 b/s
Count of elements              : 1734
Stream size                    : 64.6 KiB (0%)
Title                          : 韩语
Language                       : Korean
Default                        : No
Forced                         : No

Text #5
ID                             : 8
Format                         : UTF-8
Codec ID                       : S_TEXT/UTF8
Codec ID/Info                  : UTF-8 Plain Text
Duration                       : 1 h 37 min
Bit rate                       : 159 b/s
Count of elements              : 1734
Stream size                    : 114 KiB (0%)
Title                          : 泰语
Language                       : Thai
Default                        : No
Forced                         : No

Text #6
ID                             : 9
Format                         : UTF-8
Codec ID                       : S_TEXT/UTF8
Codec ID/Info                  : UTF-8 Plain Text
Duration                       : 1 h 37 min
Bit rate                       : 69 b/s
Count of elements              : 1734
Stream size                    : 49.3 KiB (0%)
Title                          : 马来语
Language                       : Malay
Default                        : No
Forced                         : No

Text #7
ID                             : 10
Format                         : UTF-8
Codec ID                       : S_TEXT/UTF8
Codec ID/Info                  : UTF-8 Plain Text
Duration                       : 1 h 37 min
Bit rate                       : 89 b/s
Count of elements              : 1734
Stream size                    : 63.8 KiB (0%)
Title                          : 越南语
Language                       : Vietnamese
Default                        : No
Forced                         : No

Text #8
ID                             : 11
Format                         : UTF-8
Codec ID                       : S_TEXT/UTF8
Codec ID/Info                  : UTF-8 Plain Text
Duration                       : 1 h 37 min
Bit rate                       : 70 b/s
Count of elements              : 1734
Stream size                    : 50.2 KiB (0%)
Title                          : 印尼语
Language                       : Indonesian
Default                        : No
Forced                         : No

Text #9
ID                             : 12
Format                         : UTF-8
Codec ID                       : S_TEXT/UTF8
Codec ID/Info                  : UTF-8 Plain Text
Duration                       : 1 h 37 min
Bit rate                       : 68 b/s
Count of elements              : 1734
Stream size                    : 49.0 KiB (0%)
Title                          : 西班牙语
Language                       : Spanish
Default                        : No
Forced                         : No

Text #10
ID                             : 13
Format                         : UTF-8
Codec ID                       : S_TEXT/UTF8
Codec ID/Info                  : UTF-8 Plain Text
Duration                       : 1 h 37 min
Bit rate                       : 71 b/s
Count of elements              : 1734
Stream size                    : 50.8 KiB (0%)
Title                          : 葡萄牙语
Language                       : Portuguese
Default                        : No
Forced                         : No

Text #11
ID                             : 14
Format                         : UTF-8
Codec ID                       : S_TEXT/UTF8
Codec ID/Info                  : UTF-8 Plain Text
Duration                       : 1 h 37 min
Bit rate                       : 88 b/s
Count of elements              : 1734
Stream size                    : 63.1 KiB (0%)
Title                          : 阿拉伯语
Language                       : Arabic
Default                        : No
Forced                         : No



                               
登录/注册后可看大图


                               
登录/注册后可看大图


                               
登录/注册后可看大图


                               
登录/注册后可看大图

购买主题 已有 5 人购买  本主题需向作者支付 20 金币 才能浏览 VIP+用户组可免费查看,详情请点击
发表于 2021-6-11 00:54:58 | 显示全部楼层
游客无权限浏览该内容
发表于 2021-6-11 06:13:33 | 显示全部楼层
游客无权限浏览该内容
发表于 2021-6-11 06:44:41 | 显示全部楼层
游客无权限浏览该内容
发表于 2021-6-11 21:44:39 | 显示全部楼层
游客无权限浏览该内容
发表于 2021-6-11 21:56:49 | 显示全部楼层
游客无权限浏览该内容
发表于 2021-6-12 10:55:09 | 显示全部楼层
游客无权限浏览该内容
您需要登录后才可以回帖 登录 | 立即注册

本版积分规则

封号公示|电子邮件联系本站hd1tj.net#[换成@]outlook.com|免责申明|HD一条街

GMT+8, 2021-12-9 00:46

Powered by Discuz! X3.4

Copyright © 2001-2021, Tencent Cloud.

快速回复 返回顶部 返回列表