HD一条街

 找回密码
 立即注册
搜索
查看: 894|回复: 13

[1080p] [1993][廉政第一击][1080P-H265/3.3G][国粤双语 简繁英软字幕][MKV][狄龙/张曼玉/李子雄][百度]

[复制链接]
发表于 2021-6-11 00:23:37 | 显示全部楼层 |阅读模式

                               
登录/注册后可看大图

◎译  名 First Shot
◎片  名 廉政第一击
◎年  代 1993
◎产  地 中国香港
◎类  别 动作
◎语  言 粤语
◎上映日期 1993-02-25
◎IMDb评分  6.3/10 from 104 users
◎IMDb链接  https://www.imdb.com/title/tt0107399
◎豆瓣评分 7.1/10 from 1691 users
◎豆瓣链接 https://movie.douban.com/subject/1300112/
◎片  长 100 分钟
◎导  演 林德禄  David Lam
◎编  剧 黄浩华 Ho-Wa Wong
◎主  演 狄龙 Lung Ti
      张曼玉 Maggie Cheung
      李子雄 Waise Lee
      任达华 Simon Yam
      刘锡明 Sek-Ming Lau
      许志安 Andy Hui Chi-On
      张凤妮 Betsy Cheung
      金兴贤 Hing-Yin Kam
      叶竞生 Bobby Yip Kin Sang
      陈治良 Frankie Chin
      陆剑明 Jamie Luk
      李海生 Hoi Sang Lee

◎简  介  

  香港七十年代初期,当时还没有成立廉政公署,贪污情况泛滥成灾,民不聊生。警局沙展王一冲(狄龙 饰)为人正直不阿,不肯同流合污,因此而不容于其他同僚,在警局受到排挤。在一次行动中,王一冲的手下莫森(任达华 饰)甚至从背后开枪将他打成重伤。与此同时,港督麦理浩委派百里渠爵士调查香港的贪污情况,其助手马安妮找王一冲帮忙。经过调查,王一冲了解到莫森击伤自己也是出于无奈,莫森其实为势所逼,于是找到了莫森并在警校中挑选了一批精英学员,共同开始搜集贪污集团证据,打响香港廉政第一击!

Quote:
General
Unique ID                      : 50668324236832910774630631576524875612 (0x261E5D41F9DADD992EAC84BF7400E75C)
Complete name                  : First Shot 1993 WEB-DL 1080p H265 AAC-Dave.mkv
Format                         : Matroska
Format version                 : Version 4
File size                      : 3.34 GiB
Duration                       : 1 h 40 min
Overall bit rate               : 4 770 kb/s
Encoded date                   : UTC 2021-06-03 08:22:50
Writing application            : mkvmerge v19.0.0 (‘Brave Captain‘) 64-bit
Writing library                : libebml v1.3.5 + libmatroska v1.4.8

Video
ID                             : 1
Format                         : HEVC
Format/Info                    : High Efficiency Video Coding
Format profile                 : Main@L4@High
Codec ID                       : V_MPEGH/ISO/HEVC
Duration                       : 1 h 40 min
Bit rate                       : 4 508 kb/s
Width                          : 1 920 pixels
Height                         : 1 040 pixels
Display aspect ratio           : 1.85:1
Frame rate mode                : Constant
Frame rate                     : 24.000 FPS
Color space                    : YUV
Chroma subsampling             : 4:2:0
Bit depth                      : 8 bits
Bits/(Pixel*Frame)             : 0.094
Stream size                    : 3.16 GiB (95%)
Default                        : Yes
Forced                         : No

Audio #1
ID                             : 2
Format                         : AAC LC
Format/Info                    : Advanced Audio Codec Low Complexity
Codec ID                       : A_AAC-2
Duration                       : 1 h 40 min
Bit rate                       : 124 kb/s
Channel(s)                     : 2 channels
Channel layout                 : L R
Sampling rate                  : 44.1 kHz
Frame rate                     : 43.066 FPS (1024 SPF)
Compression mode               : Lossy
Stream size                    : 89.2 MiB (3%)
Title                          : 国语
Language                       : Chinese
Default                        : Yes
Forced                         : No

Audio #2
ID                             : 3
Format                         : AAC LC
Format/Info                    : Advanced Audio Codec Low Complexity
Codec ID                       : A_AAC-2
Duration                       : 1 h 40 min
Bit rate                       : 132 kb/s
Channel(s)                     : 2 channels
Channel layout                 : L R
Sampling rate                  : 44.1 kHz
Frame rate                     : 43.066 FPS (1024 SPF)
Compression mode               : Lossy
Stream size                    : 95.5 MiB (3%)
Title                          : 粤语
Language                       : Chinese
Default                        : No
Forced                         : No

Text #1
ID                             : 4
Format                         : UTF-8
Codec ID                       : S_TEXT/UTF8
Codec ID/Info                  : UTF-8 Plain Text
Duration                       : 1 h 37 min
Bit rate                       : 57 b/s
Count of elements              : 1453
Stream size                    : 40.9 KiB (0%)
Title                          : 简体中文
Language                       : Chinese
Default                        : Yes
Forced                         : No

Text #2
ID                             : 5
Format                         : UTF-8
Codec ID                       : S_TEXT/UTF8
Codec ID/Info                  : UTF-8 Plain Text
Duration                       : 1 h 37 min
Bit rate                       : 57 b/s
Count of elements              : 1453
Stream size                    : 40.9 KiB (0%)
Title                          : 繁体中文
Language                       : Chinese
Default                        : No
Forced                         : No

Text #3
ID                             : 6
Format                         : UTF-8
Codec ID                       : S_TEXT/UTF8
Codec ID/Info                  : UTF-8 Plain Text
Duration                       : 1 h 35 min
Bit rate                       : 68 b/s
Count of elements              : 1438
Stream size                    : 47.9 KiB (0%)
Title                          : 英文
Language                       : English
Default                        : No
Forced                         : No

Text #4
ID                             : 7
Format                         : UTF-8
Codec ID                       : S_TEXT/UTF8
Codec ID/Info                  : UTF-8 Plain Text
Duration                       : 1 h 37 min
Bit rate                       : 91 b/s
Count of elements              : 1447
Stream size                    : 65.8 KiB (0%)
Title                          : 韩语
Language                       : Korean
Default                        : No
Forced                         : No

Text #5
ID                             : 8
Format                         : UTF-8
Codec ID                       : S_TEXT/UTF8
Codec ID/Info                  : UTF-8 Plain Text
Duration                       : 1 h 37 min
Bit rate                       : 161 b/s
Count of elements              : 1447
Stream size                    : 116 KiB (0%)
Title                          : 泰语
Language                       : Thai
Default                        : No
Forced                         : No

Text #6
ID                             : 9
Format                         : UTF-8
Codec ID                       : S_TEXT/UTF8
Codec ID/Info                  : UTF-8 Plain Text
Duration                       : 1 h 37 min
Bit rate                       : 68 b/s
Count of elements              : 1447
Stream size                    : 48.9 KiB (0%)
Title                          : 马来语
Language                       : Malay
Default                        : No
Forced                         : No

Text #7
ID                             : 10
Format                         : UTF-8
Codec ID                       : S_TEXT/UTF8
Codec ID/Info                  : UTF-8 Plain Text
Duration                       : 1 h 37 min
Bit rate                       : 92 b/s
Count of elements              : 1447
Stream size                    : 66.2 KiB (0%)
Title                          : 越南语
Language                       : Vietnamese
Default                        : No
Forced                         : No

Text #8
ID                             : 11
Format                         : UTF-8
Codec ID                       : S_TEXT/UTF8
Codec ID/Info                  : UTF-8 Plain Text
Duration                       : 1 h 37 min
Bit rate                       : 70 b/s
Count of elements              : 1447
Stream size                    : 50.7 KiB (0%)
Title                          : 印尼语
Language                       : Indonesian
Default                        : No
Forced                         : No

Text #9
ID                             : 12
Format                         : UTF-8
Codec ID                       : S_TEXT/UTF8
Codec ID/Info                  : UTF-8 Plain Text
Duration                       : 1 h 37 min
Bit rate                       : 69 b/s
Count of elements              : 1447
Stream size                    : 49.8 KiB (0%)
Title                          : 西班牙语
Language                       : Spanish
Default                        : No
Forced                         : No

Text #10
ID                             : 13
Format                         : UTF-8
Codec ID                       : S_TEXT/UTF8
Codec ID/Info                  : UTF-8 Plain Text
Duration                       : 1 h 37 min
Bit rate                       : 73 b/s
Count of elements              : 1447
Stream size                    : 52.4 KiB (0%)
Title                          : 葡萄牙语
Language                       : Portuguese
Default                        : No
Forced                         : No

Text #11
ID                             : 14
Format                         : UTF-8
Codec ID                       : S_TEXT/UTF8
Codec ID/Info                  : UTF-8 Plain Text
Duration                       : 1 h 37 min
Bit rate                       : 88 b/s
Count of elements              : 1447
Stream size                    : 63.0 KiB (0%)
Title                          : 阿拉伯语
Language                       : Arabic
Default                        : No
Forced                         : No



                               
登录/注册后可看大图


                               
登录/注册后可看大图


                               
登录/注册后可看大图


                               
登录/注册后可看大图


购买主题 已有 3 人购买  本主题需向作者支付 20 金币 才能浏览 VIP+用户组可免费查看,详情请点击
发表于 2021-6-11 00:52:48 | 显示全部楼层
游客无权限浏览该内容
发表于 2021-6-11 01:23:46 | 显示全部楼层
游客无权限浏览该内容
发表于 2021-6-11 06:17:51 | 显示全部楼层
游客无权限浏览该内容
发表于 2021-6-11 06:41:11 | 显示全部楼层
游客无权限浏览该内容
发表于 2021-6-11 07:06:19 | 显示全部楼层
游客无权限浏览该内容
发表于 2021-6-11 08:27:00 | 显示全部楼层
游客无权限浏览该内容
发表于 2021-6-12 00:52:18 | 显示全部楼层
游客无权限浏览该内容
发表于 2021-6-12 08:38:02 | 显示全部楼层
游客无权限浏览该内容
发表于 2021-6-12 09:34:06 | 显示全部楼层
游客无权限浏览该内容
您需要登录后才可以回帖 登录 | 立即注册

本版积分规则

封号公示|电子邮件联系本站hd1tj.net#[换成@]outlook.com|免责申明|HD一条街

GMT+8, 2021-12-3 17:58

Powered by Discuz! X3.4

Copyright © 2001-2021, Tencent Cloud.

快速回复 返回顶部 返回列表