HD一条街

 找回密码
 立即注册
搜索
查看: 719|回复: 9

[1080p] 怪客 Stranger.from.Canton.1973.CHINESE.1080p.AMZN.WEBRip.DDP2.0.x264-tG1R0 9.18G

[复制链接]
发表于 2020-9-26 01:28:28 | 显示全部楼层 |阅读模式

马上注册,结交更多好友,享用更多功能,让你轻松玩转社区。

您需要 登录 才可以下载或查看,没有帐号?立即注册

x
9 d9 [" `0 M6 w* p; m6 x4 \
                               
登录/注册后可看大图
$ u1 i: F9 V1 }& n: f
2 J8 D8 t2 j) h* u
◎译  名 Stranger from Canton / The Karate Killers. a7 l  N$ h- q
◎片  名 怪客
6 p" ~* ^9 z( O$ q◎年  代 19731 x/ v0 t9 Y$ j! @# o! q% ]; l+ W% ]& y
◎产  地 中国香港
% e! v. U0 |9 j: p0 {* r) V) c◎类  别 动作
! b# V" E& I/ x9 }9 M1 J◎语  言 粤语
  N) o/ B' o  {' J7 M+ L◎上映日期 1973-12-13! d  x6 w5 R% s9 U( |& q7 S9 B6 N
◎豆瓣链接 https://movie.douban.com/subject/21340780/2 O. V  L  F! G6 T4 H9 t% V! E4 W
◎演  员 白彪 / Jason Pai3 b5 d# ~+ T2 U8 I" E: B
      鲁俊谷 / Chin-Ku Lu
' L" p4 T8 c1 }+ m& E) n      薛家燕 / Nancy Sit( H, u' Y0 i9 e6 c, q
      石修 / Sau Sek
+ \6 M2 w0 n1 t9 {. J' F◎编  剧 倪匡 / Kuang Ni
# Z$ W; t# [% r
/ R$ H$ }3 x2 O+ _+ N( I9 f◎标  签 魯俊谷 | 薛家燕 | 白彪% N; u2 e( c8 |
8 H6 V) ~/ z0 n8 |0 v. F9 s5 z

1 j. p# n2 }  Q( z! J% `, |  c  }: F3 w

1 {( V( [8 P) t, d+ DID : 1/ S5 N9 u  i9 t
Format : AVC
/ W/ Y5 D* C& I- |! ~9 ~* m8 cFormat/Info : Advanced Video Codec/ P  ^# @, ~% e$ c
Format profile : High@L4( ~6 h( J: L: y5 W
Format settings : CABAC / 4 Ref Frames1 i, Y1 Z0 i( t
Format settings, CABAC : Yes1 ?* w8 T0 u8 Z& F
Format settings, Reference frames : 4 frames
1 ?- G  w/ c! w, ]Codec ID : V_MPEG4/ISO/AVC
* w4 r7 z! p. o3 o( x' dDuration : 1 h 28 min
5 Z% S& S5 Y  j; \: kBit rate : 14.6 Mb/s. g4 j( r$ k) n" d& X
Width : 1 920 pixels
0 B! [. n& V1 ~$ M5 ?Height : 816 pixels7 l* c. Q4 R' }& V+ E1 Z! B
Display aspect ratio : 2.35:1
% d+ m  w6 w; h& Z: oFrame rate mode : Constant) i: E) e- O0 N  B: w$ L, h
Frame rate : 23.976 (24000/1001) FPS+ F! Q, G  }" L; S
Color space : YUV5 y7 J+ a1 z4 e1 m* y% U1 N7 O
Chroma subsampling : 4:2:0
- Q( [# [- J9 Z; Y% r6 U# l6 @* KBit depth : 8 bits
/ m" C( E) P- ?. p! F% gScan type : Progressive# ^0 K4 z" E% i1 q1 S7 }& e& b
Bits/(Pixel*Frame) : 0.389
' x- t- Y3 f4 p1 BStream size : 9.04 GiB (98%)5 M- n) M3 O7 N: E# z
Title : Bodigaado Kiba Hissatsu sankaku tobi (1973) [Amazon JP]9 K+ _  E6 }  v( w  d4 T. a3 |( V' `
Language : Japanese. X: W) u9 k5 M
Default : Yes
, R8 V4 ?" a+ ^7 i7 oForced : No
* W/ s# l9 Q# G0 IColor range : Limited5 E+ E% s9 D" L- V! E9 j. ^7 [7 k" ~
Color primaries : BT.709$ O  J* _) `* G6 W" W( ^0 K3 X
Transfer characteristics : BT.709
+ ~6 v, u8 H# Y& Q4 D5 F# f/ mMatrix coefficients : BT.709
2 ]3 s1 n# L5 K+ V1 U& x- E
: e2 {: A8 _, i' z  @) `Audio
9 W+ i7 m2 m. r# TID : 2, A( Y/ _6 Z" v$ f/ B
Format : E-AC-3
1 Z* n+ P* X: s7 \: @! O% h: aFormat/Info : Enhanced AC-35 g0 x2 s5 J" q
Commercial name : Dolby Digital Plus
9 z! M2 _' O( R% uCodec ID : A_EAC3
! d8 B' y' a) }Duration : 1 h 28 min- k6 v$ _6 s. m
Bit rate mode : Constant
3 i4 Z  T5 g9 hBit rate : 224 kb/s
/ o: J2 I' `) nChannel(s) : 2 channels
' N/ Q! t5 P0 I2 UChannel layout : L R1 X5 U/ H! q' G' u  D
Sampling rate : 48.0 kHz7 d0 c, Z9 t6 P9 q
Frame rate : 31.250 FPS (1536 SPF): F6 T5 w9 Z1 M) _* R. N9 x
Compression mode : Lossy
- l! [  h  Z' y' a( mStream size : 142 MiB (2%)
+ P& {( m: _# G% aLanguage : Japanese2 t5 B# ?  G4 q1 l$ |
Service kind : Complete Main  J! B! c9 e5 T
Default : Yes
1 @8 B, y) D5 UForced : No
- j* f( l  ?/ T) Q+ [
; n$ D/ H  F# B% R  }Text
8 W/ C. [0 P( \$ K& z  }ID : 36 e9 M: o2 Y6 y2 Z5 I
Format : UTF-8" \' z: ~* F0 L
Codec ID : S_TEXT/UTF87 H% r' e  W( T, _6 c
Codec ID/Info : UTF-8 Plain Text2 \, M5 M; W7 Y4 J; t% w1 K1 n
Duration : 1 h 28 min3 L4 A# W# s/ r
Bit rate : 24 b/s1 [3 }3 Q$ Z7 m5 V
Count of elements : 556# l; x2 v$ ]8 ~1 w3 C2 c5 D
Stream size : 16.1 KiB (0%)8 M8 \7 @. N8 E$ s2 }
Language: English
$ K5 A4 s' C3 A% m& u$ E$ SDefault : Yes
2 E, N: k9 M. u. X5 IForced : No" p: P; n3 L* m; x7 i) s& V6 d

/ a. _# `6 T, Q1 w5 e. G% H
& A, G& Z( w( C; Q4 d& z" P# L, t
游客,如果您要查看本帖隐藏内容请回复  VIP可免回复查看隐藏内容 详情请点击
发表于 2020-9-26 19:39:20 | 显示全部楼层
游客无权限浏览该内容
发表于 2020-9-27 08:21:11 | 显示全部楼层
游客无权限浏览该内容
发表于 2020-9-27 18:26:03 | 显示全部楼层
游客无权限浏览该内容
发表于 2020-9-28 00:04:21 | 显示全部楼层
游客无权限浏览该内容
发表于 2020-10-4 22:11:42 | 显示全部楼层
游客无权限浏览该内容
发表于 2020-10-7 00:32:09 | 显示全部楼层
游客无权限浏览该内容
发表于 2020-10-8 19:07:39 | 显示全部楼层
游客无权限浏览该内容
发表于 2021-10-28 20:20:17 | 显示全部楼层
游客无权限浏览该内容
您需要登录后才可以回帖 登录 | 立即注册

本版积分规则

封号公示|电子邮件联系本站hd1tj.net#[换成@]outlook.com|免责申明|HD一条街

GMT+8, 2021-12-3 09:24

Powered by Discuz! X3.4

Copyright © 2001-2021, Tencent Cloud.

快速回复 返回顶部 返回列表