HD一条街

 找回密码
 立即注册
搜索
查看: 4131|回复: 22

[1080p] 富贵逼人[粤语 简繁中文字幕]Its.A.Mad.Mad.Mad.World.1987.CHINESE.1080p.BluRay.x264.DD5.1-PTer 8.78G

[复制链接]
发表于 2020-8-22 02:23:59 | 显示全部楼层 |阅读模式

马上注册,结交更多好友,享用更多功能,让你轻松玩转社区。

您需要 登录 才可以下载或查看,没有帐号?立即注册

x

' s9 N" {3 t- }) f4 C0 O0 i                               
登录/注册后可看大图
' |" Z2 Y: G: p$ j- E+ V
" Z* {7 @: l, @, V8 p+ n
◎译  名 富贵逼人/It's a Mad, Mad, Mad World/富贵迫人( g% ~) @5 O: H
◎片  名 富貴逼人/ O' T! y# D, _' j% ^# }* I& C" ?
◎年  代 1987/ Y, U3 M2 e4 d
◎产  地 中国香港  c9 F) o" ?  G6 e: b4 A
◎类  别 喜剧 / 家庭 / 奇幻6 \  E8 S" g6 g( p
◎语  言 粤语# `, q- E2 y5 [( O7 ~* _+ J
◎上映日期 1987-01-284 V% k/ p5 O* p# M2 K+ x- u
◎IMDb评分  6.6/10 from 204 users
* n4 X% W) `2 h& ?◎IMDb链接  https://www.imdb.com/title/tt0091090/
( n) j4 d! b+ N4 L: ^  M" O- j/ h) r◎豆瓣评分 7.6/10 from 18936 users% E: t: ^# Y: g3 q( q' I; @& Y
◎豆瓣链接 https://movie.douban.com/subject/1302927/- ?- ^2 }' D8 k* E
◎片  长 90分钟
1 @( h: T( ^/ ?◎导  演 高志森 Clifton Ko. A! V$ v0 z, D3 j9 ~2 n# G
◎编  剧 高志森 Clifton Ko / 黎国明 Kwok-ming Lai1 G" t9 v- x: g9 l7 e# x
◎主  演 沈殿霞 Lydia Shum
& W, e, V6 E- w! _: s: A/ e. n2 z) t       董骠 Bill Tung& q1 u, ?; T2 W+ O( D0 \
       曾志伟 Eric Tsang
1 V0 P- s' u& H+ d2 x$ x- @. j       姜大卫 David Chiang, C1 P' U& r" o# r4 r. |
       陈奕诗 Elsie Chan
) A6 T. _4 `; n1 k) x/ R       李丽珍 Loletta Lee1 u) e. Z7 L  H0 A  v+ e
       关佩琳 Pauline Kwan1 z# t! D. a  j0 |! D  {+ f
       叶荣祖 Wing-Cho Yip
  h. ]' r$ t- o; c' [6 E1 x       梁珊 Shan Leung) Q& L) ?  d! c$ ~" H2 R5 l
       许莹英 Ying-Ying Hui% G4 g6 }" y/ L- j0 z
       潘雁英 An-Ying Poon$ p# W% B( Y, u9 ~" y' s
       梁克逊 Hak Shun Leung
  C$ e  m1 o) m. `% Q% a       王书麒 Jimmy Wong Shu-Kei" y3 T+ X/ ~" d$ k& P- a
       陈加玲 Charine Chan4 x8 A% x' e* M; P6 E2 M: r! w
       温文杰 Derek Wan, K, ~8 ~$ L' E: f3 s2 y/ I
       刘嘉蔚 Catherine Lau0 \5 H" X. ^# v( J" k
       郭善玙 Zeny Kwok  V8 \% _9 n9 d5 u

5 r) K3 g  w$ r! \- x◎标  签 喜剧 | 香港 | 香港电影 | 沈殿霞 | 曾志伟 | 搞笑 | 1987 | 高志森7 K8 }. c+ ?! W, A
' ~  w6 I& _1 L/ x3 y% k5 ^
◎简  介  g, o$ U9 h1 \" c1 n+ ]; r
& V/ _8 u- @- x# r
  骠叔(董骠 饰)在电视台当新闻主播,一家五口都靠他糊口,生活拮据。妻子骠婶(沈殿霞 饰)十分热衷买六合彩,总期待着有中奖的一天。
/ |3 h& _! h& T  
! ]4 ]0 F2 U) R2 h, t  他们每天都梦想自己能变成富人,搬到宽大的屋子居住。他们终于中了六合彩头奖,本来一家人想好好利用这一笔横财,没想到他们存放巨款的银行突然倒闭了。更祸不单行的是,他们变富人的消息招来了恶手——他们的小女儿被绑架了,全家人着急得不得了。他们又变回了穷人,该如何拯救至亲呢?  X( _/ `8 d+ `: \9 A

7 V2 |1 o1 l( M6 u9 t
  1. Video
    ) ^8 r/ a9 W+ o0 n
  2. ID : 17 ~* I: M, \8 y3 m
  3. Format : AVC
    / z& ?! |+ G+ @# R7 E$ s, y
  4. Format/Info : Advanced Video Codec, E0 i' n; j/ K6 V( R
  5. Format profile : High@L4.1
    7 |3 l8 w6 S1 @" s! `
  6. Format settings : CABAC / 4 Ref Frames. J2 H! E0 Q$ n! x. k! @
  7. Format settings, CABAC : Yes/ L, ~: E; m! }2 d2 i
  8. Format settings, Reference frames : 4 frames$ n( V, ^- p& M# \, }0 m# d
  9. Codec ID : V_MPEG4/ISO/AVC
    5 U9 t3 k0 q* ^
  10. Duration : 1 h 35 min
    + E: u0 o, r* T) N/ R( ]
  11. Bit rate : 12.5 Mb/s
    9 `/ F7 n, D5 e1 Q# u
  12. Width : 1 918 pixels) S' [) Y" R/ p) A7 x
  13. Height : 1 034 pixels
    - D4 m6 a( Q. I1 ~, d, |: t$ H
  14. Display aspect ratio : 1.85:1
    . }1 A6 U8 u( z, J" L4 s
  15. Frame rate mode : Constant8 r6 L5 x1 |( d  |$ [
  16. Frame rate : 24.000 FPS% ?% I+ X4 L% a6 E" H
  17. Color space : YUV3 M4 W6 p9 [1 \9 D
  18. Chroma subsampling : 4:2:0
    ' {- M2 j0 q! i) @, B# h
  19. Bit depth : 8 bits
    + ^* n4 T% K# }2 O, C# I
  20. Scan type : Progressive
    ! C% P' t" v" V6 r% K# I
  21. Bits/(Pixel*Frame) : 0.262' f7 |# C9 |7 x( T3 Q% z  t9 n
  22. Stream size : 8.32 GiB (95%)
    % h$ c: K$ ]$ u* }7 S% Z
  23. Writing library : x264 core 158 r2984 3759fcb$ k' c! h3 W5 y6 o# B% c# a! k1 P0 W
  24. Encoding settings : cabac=1 / ref=4 / deblock=1:-3:-3 / analyse=0x3:0x133 / me=umh / subme=11 / psy=1 / psy_rd=1.02:0.00 / mixed_ref=1 / me_range=32 / chroma_me=1 / trellis=2 / 8x8dct=1 / cqm=0 / deadzone=21,11 / fast_pskip=0 / chroma_qp_offset=-2 / threads=32 / lookahead_threads=5 / sliced_threads=0 / nr=0 / decimate=0 / interlaced=0 / bluray_compat=0 / constrained_intra=0 / bframes=7 / b_pyramid=2 / b_adapt=2 / b_bias=0 / direct=3 / weightb=1 / open_gop=0 / weightp=2 / keyint=250 / keyint_min=24 / scenecut=40 / intra_refresh=0 / rc_lookahead=250 / rc=crf / mbtree=0 / crf=18.2 / qcomp=0.60 / qpmin=0 / qpmax=69 / qpstep=4 / vbv_maxrate=62500 / vbv_bufsize=78125 / crf_max=0.0 / nal_hrd=none / filler=0 / ip_ratio=1.30 / pb_ratio=1.20 / aq=3:0.80
    + A) R) {1 H  j& }
  25. Language : English
    " _& U* e; {" m2 f4 ~: {# x: z
  26. Default : Yes
    1 R0 B5 p6 _% o* L' c! D
  27. Forced : No1 E3 d5 O. j8 K6 A2 J
  28. Color range : Limited
    ! ~) U; q; {4 K2 p& I
  29. Color primaries : BT.709% L4 @& j& S5 ?$ k
  30. Matrix coefficients : BT.709
    . T) b8 z  ~9 b* Y5 d; e

  31. $ [* Y5 V% i8 i1 ]: p" p
  32. Audio
    5 F7 K9 ~4 Y# h$ g$ Q4 F2 G: J
  33. ID : 2
    ) w3 E* V. N8 C" L. V
  34. Format : AC-3
    ) k) A$ O( v  D- I. Z
  35. Format/Info : Audio Coding 3; O7 H% v$ d" Q8 w
  36. Commercial name : Dolby Digital/ N6 _+ A# u/ i, [) [
  37. Codec ID : A_AC3
    ; Q  o# b5 G& s1 ]0 I
  38. Duration : 1 h 35 min
    7 T) @6 T, o. \( \6 Z
  39. Bit rate mode : Constant
    + N% |5 ~( J+ j- v
  40. Bit rate : 640 kb/s& R- n$ l" V9 B" b5 E
  41. Channel(s) : 6 channels$ A' y( O7 g" P
  42. Channel layout : L R C LFE Ls Rs* f0 D8 L) H+ H0 E5 j8 B
  43. Sampling rate : 48.0 kHz+ x9 o4 _& z2 _2 k
  44. Frame rate : 31.250 FPS (1536 SPF)
    % D; I" {3 z8 I' S5 ~5 _
  45. Compression mode : Lossy6 q% m& ]$ c; x. K3 ~4 N! x
  46. Stream size : 437 MiB (5%); p" S) [2 d, {. h+ ]
  47. Title : Cantonese! u4 P+ i2 z* o0 s" y5 D+ ]; O2 f+ ]! L
  48. Language : Chinese4 B5 E! c4 q' o# u! u" y+ ?: W
  49. Service kind : Complete Main
    3 N/ X! \; B1 E( h3 H; ]% `
  50. Default : No
    $ V: Z! e+ L& Z
  51. Forced : No4 y& ]( t% p: K( V# H) g

  52. " u' n6 @2 `( Z1 s8 O8 r
  53. Text #1
    + j! K1 U! h8 D# U9 |  b
  54. ID : 3. U; {' l8 Z6 B2 D& s
  55. Format : UTF-86 x' s2 ]9 d* B  y6 s" E
  56. Codec ID : S_TEXT/UTF8) g  \/ z( d( v$ K$ K4 }  i
  57. Codec ID/Info : UTF-8 Plain Text$ F6 K7 \8 y* D9 @4 V1 {
  58. Duration : 1 h 31 min  ?5 h, @( E4 S5 @1 j
  59. Bit rate : 76 b/s
    6 k; h+ G- C2 W% q
  60. Count of elements : 1813
    , |. R/ U7 L8 d  k7 C) R' F2 p5 _
  61. Stream size : 51.1 KiB (0%)$ t5 I) R% ^: p
  62. Language : English- g5 v. J/ ~* k4 o7 {7 i/ p( n
  63. Default : Yes
    * e! B4 K4 c1 Z# m8 r
  64. Forced : No
    ' B; C% j4 _/ `) U0 m

  65. , [" D) F! Y0 r
  66. Text #2
    , @; M. h( R0 m
  67. ID : 4
    7 e8 Y  }$ d) `% i2 O2 C5 q% P
  68. Format : PGS& S9 b; j: q& J# C# z2 i1 T
  69. Muxing mode : zlib
    . [! x+ X+ D1 N6 p/ J- N8 a) \
  70. Codec ID : S_HDMV/PGS- F9 s$ _. h# C# [. h
  71. Codec ID/Info : Picture based subtitle format used on BDs/HD-DVDs' }6 w8 p' v7 M# D, |
  72. Duration : 1 h 31 min
    + i. \- u3 G/ T- X: Z" V4 P6 _
  73. Bit rate : 60.9 kb/s
    7 O3 A  Y  ~& I1 l3 z" n! n3 |
  74. Count of elements : 3614% }$ Q2 l% n9 ~2 V' p4 H5 W' L
  75. Stream size : 40.0 MiB (0%)! N$ b' J3 I: o7 E  u
  76. Language : English
    ) b: W1 P" K5 y  a+ A) t
  77. Default : No4 G  @( V4 v- j' {& {8 c6 ^
  78. Forced : No  ^5 O# k7 J4 X. |

  79. 3 F2 @1 N" p8 D/ X* A
  80. Text #3  L% m" C( G, W. a* N
  81. ID : 51 c' u: ]. b! _2 L3 l- |
  82. Format : PGS
    + n$ n  t+ G0 ]( i$ {/ o* b5 I
  83. Muxing mode : zlib+ R! N  ]( z) W9 ^( ~
  84. Codec ID : S_HDMV/PGS1 Q9 S; T5 i# {6 |
  85. Codec ID/Info : Picture based subtitle format used on BDs/HD-DVDs) l& N+ d4 a2 n3 l
  86. Duration : 1 h 31 min4 e& f4 B3 J, }/ S8 l
  87. Bit rate : 48.9 kb/s7 A9 d) o( m. l+ X! G
  88. Count of elements : 36149 u3 r1 `4 \4 M8 C# h5 J
  89. Stream size : 32.1 MiB (0%)6 e3 u' C  E9 t5 g6 A
  90. Title : CHS
    1 J% i5 P8 W2 Z) I& ^
  91. Language : Chinese7 P. b* k& j# B4 l1 @
  92. Default : No
    ' j5 T+ c3 R( G: B
  93. Forced : No- s8 K5 y% t/ v% ?! f# z& [
  94. 9 i7 k* d+ V6 i
  95. Text #4" R2 _5 s- Y# P7 `6 E9 F+ C* ^8 R
  96. ID : 60 @8 \) G) o, r5 {- I2 I  M; E5 ^
  97. Format : PGS* V: d/ z7 G: a' p
  98. Muxing mode : zlib  ]# j+ X$ E' b* G
  99. Codec ID : S_HDMV/PGS
    ! r$ R8 Z2 p7 m' M: {4 P
  100. Codec ID/Info : Picture based subtitle format used on BDs/HD-DVDs
    4 X3 `9 P* T1 P
  101. Duration : 1 h 31 min
    7 \8 t& Y: C5 X
  102. Bit rate : 49.9 kb/s7 K  G) x/ H  p; Q/ r* n, |, e
  103. Count of elements : 3612; d3 x* ~) b8 C  p9 k5 @
  104. Stream size : 32.8 MiB (0%)0 g3 K9 o) @( \$ P1 a
  105. Title : CHT
    " l1 o( ?* |7 f% }, l% Y
  106. Language : Chinese, X7 K6 I" b4 k+ M" E  h
  107. Default : No+ x1 p, S6 L/ o, _: j: B# u5 k
  108. Forced : No
    7 j" M9 Q( i6 Y; a- ^; S: u

  109. : Y' g# n- _) l+ B
  110. Menu
    * `3 |7 I: }7 `
  111. 00:00:00.000 : en:Chapter 1
    ' q8 S. K$ Y6 o1 v5 R  D; j0 H4 m2 H
  112. 00:07:27.708 : en:Chapter 2
    - y' K: w! U2 r% p. x4 s
  113. 00:15:59.000 : en:Chapter 3$ j" q% z  \2 }% }3 |6 B
  114. 00:24:46.666 : en:Chapter 43 S" w2 p( x2 B% z( w
  115. 00:32:26.416 : en:Chapter 5; G& H% K; U; o# }+ ~5 |! H2 x5 F
  116. 00:40:16.791 : en:Chapter 6
    3 }+ h4 K. L* v/ o2 }$ Y
  117. 00:46:41.458 : en:Chapter 7. W* S' {. t( t0 b, K
  118. 00:53:40.416 : en:Chapter 85 u& m4 I1 h, c
  119. 01:04:00.375 : en:Chapter 9( d9 U( v/ X# E% ^1 I! I
  120. 01:10:00.666 : en:Chapter 10
    5 F7 n0 g: o% [. D3 R
  121. 01:19:22.750 : en:Chapter 117 W' D. E( K: _6 Q5 J3 n8 k( O4 j
  122. 01:27:31.583 : en:Chapter 12
复制代码
) [! e$ L/ E2 I/ z# b& L* G, z
9 r# f" D6 d" c3 N. B) }

4 {7 ?& z0 O+ N* i0 V1 o; u. a$ D0 a- a+ |7 ~2 c

0 ?5 P" A$ d: D5 R" _! S
游客,如果您要查看本帖隐藏内容请回复  VIP可免回复查看隐藏内容 详情请点击
发表于 2020-8-22 08:26:40 | 显示全部楼层
游客无权限浏览该内容
发表于 2020-8-22 08:28:34 | 显示全部楼层
游客无权限浏览该内容
发表于 2020-8-22 23:23:12 | 显示全部楼层
游客无权限浏览该内容
发表于 2020-8-23 00:50:05 | 显示全部楼层
游客无权限浏览该内容
batomb 该用户已被删除
发表于 2020-8-23 10:45:52 | 显示全部楼层
提示: 作者被禁止或删除 内容自动屏蔽
发表于 2020-8-23 10:47:02 | 显示全部楼层
游客无权限浏览该内容
您需要登录后才可以回帖 登录 | 立即注册

本版积分规则

封号公示|电子邮件联系本站hd1tj.net#[换成@]outlook.com|免责申明|HD一条街

GMT+8, 2022-10-8 06:19

Powered by Discuz! X3.4

Copyright © 2001-2021, Tencent Cloud.

快速回复 返回顶部 返回列表