HD一条街

 找回密码
 立即注册
搜索
查看: 234|回复: 9

[欧美] 真人秀:与扎克·埃夫隆环游地球 第一季[自带中文字幕]Down.To.Earth.With.Zac.Efron.S01.1080p.NF.WEBRip.DDP5.1.x264-ASCENDANCE 17G

[复制链接]
发表于 2020-7-11 11:57:47 | 显示全部楼层 |阅读模式

马上注册,结交更多好友,享用更多功能,让你轻松玩转社区。

您需要 登录 才可以下载或查看,没有帐号?立即注册

x
  E+ g9 e: Q7 Y, N. Y' K/ E4 W! l
                               
登录/注册后可看大图
& U% }! w3 @- M2 k; t
& q) w1 o+ q1 r% W; u, u1 l+ n1 U
◎译  名 与扎克·埃夫隆环游地球2 }, i; n' f* `" S( X7 m
◎片  名 Down to Earth with Zac Efron
& o1 s6 [/ W4 _8 s" T8 w( r; k/ F◎年  代 2020
! {4 l. r1 ^$ g, j1 ?◎产  地 美国
5 o" p8 k! p7 e& o- P3 s8 H◎类  别 真人秀3 y6 A7 r; H3 S; i6 S- R
◎语  言 英语
+ f4 Z- X* w( a3 |2 J, d$ I# Z4 o◎上映日期 2020-07-10(美国)
0 v% P. y& r% T◎IMDb链接  https://www.imdb.com/title/tt12585152, [/ H- ?3 M1 U! |6 p0 t) o
◎豆瓣评分 0/10 from 0 users6 E! w$ i2 |- v1 x! v8 m% p3 [( S$ @- f
◎豆瓣链接 https://movie.douban.com/subject/35117571/1 {6 z. j# Q- n' n
◎主  演 扎克·埃夫隆 Zac Efron
% ]! o, C0 y! ]: a9 r/ _       Darin Olien
/ `. u; M6 B* t" V, N& E
3 R# {# @$ O. k- M* a  a8 P) Z% I! b
! Z, Q! {0 K, a/ }◎标  签 netflix
6 E9 I; H; C1 ?$ ^$ F. E
8 [/ ^0 `3 _$ s! r: Y' x: X5 Z◎简  介  ! n  \1 E5 H0 e  V! d) \; E; w- }

3 X5 W% {1 p* T) K; Y6 P0 s0 Z& E  扎克·埃夫隆主持的Netflix旅游节目《与扎克·埃夫隆环游地球》(Down to Earth with Zac Efron,暂译)首曝剧照!扎克将与健康专家Darin Olien开启环球之旅,寻找健康、可持续的生活方式。该节目将于7月10日登陆Netflix。
  1. Video0 t. B) H8 M) q3 M2 c
  2. ID : 1/ \1 A# o, A4 d
  3. Format : AVC
    . B( j: E7 k9 ^9 e& x$ B
  4. Format/Info : Advanced Video Codec
    1 R9 {  h$ B" W; e. T0 ?
  5. Format profile : Main@L4# F$ v- B( `' l6 p0 N% g, U- T( A
  6. Format settings : CABAC / 3 Ref Frames6 Y# {1 j3 o! G- j4 j2 W
  7. Format settings, CABAC : Yes
    ( ^3 l& \: k0 [9 h' Y& L
  8. Format settings, Reference frames : 3 frames* j5 v, e1 ]# O/ H' }
  9. Codec ID : V_MPEG4/ISO/AVC# b9 l4 d) Q& X
  10. Duration : 43 min 10 s
    * W) H- S" z! _) W' y; K
  11. Bit rate mode : Variable
    3 t' u' C& Q2 I2 K! r: B# s( y
  12. Bit rate : 7 500 kb/s8 k0 B# H: m2 z$ ~; x, m6 A" o8 Q
  13. Maximum bit rate : 11.2 Mb/s
    # e! ?( s, F. e# k
  14. Width : 1 920 pixels
    % g! \! c" E' n4 f. f; s* r
  15. Height : 1 080 pixels
    8 a) N. Y$ u* v7 g
  16. Display aspect ratio : 16:9
    $ A- H* t" j9 p8 S6 c! g6 D! U
  17. Frame rate mode : Constant
    , V$ I5 X' V. q
  18. Frame rate : 23.976 (24000/1001) FPS
    4 O' c# i. p) [! _
  19. Color space : YUV
    4 @# M" z) X% W% W; |% Y
  20. Chroma subsampling : 4:2:0. n- b4 a# Q  ^/ J6 p3 E" b5 X
  21. Bit depth : 8 bits
      h( Y# \% D. A
  22. Scan type : Progressive5 y! b* L, P& Z7 f0 f3 P' L
  23. Bits/(Pixel*Frame) : 0.151
    3 ?$ P1 M! g, e( U( X7 L$ k
  24. Stream size : 2.21 GiB (92%)9 c5 l) R) z9 r7 S$ y. e4 w2 Y
  25. Writing library : x264 core 148 r2717 0d2410d3 @) f4 n$ S/ e% E9 f) @* L
  26. Encoding settings : cabac=1 / ref=3 / deblock=1:0:0 / analyse=0x1:0x111 / me=umh / subme=10 / psy=1 / psy_rd=1.00:0.00 / mixed_ref=1 / me_range=24 / chroma_me=1 / trellis=2 / 8x8dct=0 / cqm=0 / deadzone=21,11 / fast_pskip=1 / chroma_qp_offset=-2 / threads=8 / lookahead_threads=1 / sliced_threads=0 / nr=0 / decimate=1 / interlaced=0 / bluray_compat=0 / stitchable=1 / constrained_intra=0 / bframes=2 / b_pyramid=0 / b_adapt=2 / b_bias=0 / direct=3 / weightb=1 / open_gop=0 / weightp=2 / keyint=250 / keyint_min=23 / scenecut=0 / intra_refresh=0 / rc_lookahead=48 / rc=2pass / mbtree=1 / bitrate=7500 / ratetol=1.0 / qcomp=0.50 / qpmin=6 / qpmax=51 / qpstep=4 / cplxblur=20.0 / qblur=0.5 / vbv_maxrate=11250 / vbv_bufsize=15000 / nal_hrd=vbr / filler=0 / ip_ratio=1.40 / aq=1:1.001 X; H0 N/ N7 P$ l3 ?* x
  27. Default : Yes
    ; ?0 x9 ~% I4 I, P& j
  28. Forced : No  O! i* s# X+ ?
  29. + d8 T, [2 R2 a) P5 _; Z
  30. Audio
    - W* e( h0 s# N2 O) E
  31. ID : 2. ]6 g* |  s% R
  32. Format : E-AC-3' ]5 Y; L3 Y9 r/ i0 j; Z: v* Q3 t; {
  33. Format/Info : Enhanced AC-3! n! l) A+ n; Z' \! S& f. O; Z
  34. Commercial name : Dolby Digital Plus6 H1 k9 X2 r4 s7 H1 C: N1 I
  35. Codec ID : A_EAC3& n5 I# @# |! E4 j8 h# S: O
  36. Duration : 43 min 11 s
    ) j2 |# ~2 {# Y  O4 [
  37. Bit rate mode : Constant
    6 f; d4 L# e, ^! o
  38. Bit rate : 640 kb/s2 T" |' X- j0 h% C8 m& i
  39. Channel(s) : 6 channels
    ) ?) ^! G: g- c! ]3 |5 y
  40. Channel layout : L R C LFE Ls Rs( t/ ^2 W3 i0 M7 D& v  w5 {! L
  41. Sampling rate : 48.0 kHz, h" u$ r% B0 W3 B$ s! i
  42. Frame rate : 31.250 FPS (1536 SPF); ]0 y, z7 W/ s* n1 }0 h8 s' W
  43. Compression mode : Lossy
    & ~& W& A6 q, _/ i8 W4 _& I. i& b
  44. Stream size : 198 MiB (8%)
    5 o: t- i% D2 o4 D
  45. Title : English
    ! d- X3 @5 ?9 V* p& h+ `
  46. Language : English
    9 z- S8 ^4 y0 p0 S4 U7 r+ ]
  47. Service kind : Complete Main: @' X2 g0 d9 K1 r- Z
  48. Default : Yes
    & A( f1 r5 D. _6 j; {& ~) A
  49. Forced : No3 m! W# n6 z  N5 v" Y

  50. 7 y! _( T: Q$ @5 `
  51. Text #1+ w) N% r6 P5 K' |; V1 R/ C5 m( r
  52. ID : 3
    0 x; `; a. Z2 Z
  53. Format : UTF-8# g3 O( r" t5 @9 i5 B/ ^8 g! ?0 t
  54. Codec ID : S_TEXT/UTF8
    4 E5 Q& `9 X1 J) z
  55. Codec ID/Info : UTF-8 Plain Text
    # w& b, c" v8 Z8 M. H
  56. Duration : 32 min 24 s$ d2 E, K, R; C5 W( e
  57. Bit rate : 4 b/s; r1 Z: [: L# C  A
  58. Count of elements : 28
    6 ^. G! J. Z: U3 \+ u1 H& v& |- {
  59. Stream size : 1 005 Bytes (0%)
    2 z$ t: K, u& g0 Z3 _- p& i$ m7 [
  60. Title : English [Forced]
    8 I6 F; _" q! C. ?( S# V" D  Y
  61. Language : English
    ' R  O& z. X" a! o, T* S
  62. Default : No& b6 Z6 G" Q! X- j. g
  63. Forced : Yes3 [* A' `" P  a+ X( f
  64. # ]- X# ~0 f3 e
  65. Text #2( R* A' J4 v4 y6 Z. x
  66. ID : 45 E0 a7 c, i# E$ Y! P7 L. e8 F( y
  67. Format : UTF-8
    ' ]$ ^& ~- ~0 u; D# X7 d
  68. Codec ID : S_TEXT/UTF8, n0 h9 y. U# {& o; N
  69. Codec ID/Info : UTF-8 Plain Text' W( E8 t0 d3 p
  70. Duration : 41 min 33 s
    0 R" K+ N$ e  r
  71. Bit rate : 109 b/s* W' _* J8 o0 M) ]8 g
  72. Count of elements : 8236 z# M0 v) [9 K# W. D
  73. Stream size : 33.4 KiB (0%)
    # @' D; j$ M8 J  k2 e3 O
  74. Title : English [Full]
    6 K* {& D1 W5 T$ q; q1 F
  75. Language : English
    . b1 t$ i8 |  m# J0 |
  76. Default : No
      {- R0 ]$ V( T7 g( O
  77. Forced : No* v- ?8 t+ V  a5 A1 T" _0 \3 M6 w

  78. 5 L- i8 U! |2 h- C" I
  79. Text #30 K+ j8 @7 w5 t9 ~$ U: ~4 \
  80. ID : 5
    . @% E$ b7 a* p$ H( I7 a
  81. Format : UTF-8
    5 n( \0 ]+ {5 }: K0 B3 X
  82. Codec ID : S_TEXT/UTF8
    : U3 L' Q; k$ F; c6 J. H/ p  ~  C) ?
  83. Codec ID/Info : UTF-8 Plain Text* u( [9 S1 Y1 Q0 l
  84. Duration : 42 min 4 s9 h; Q# _, W6 d4 ?
  85. Bit rate : 87 b/s
    ) E; K7 p# Q* K* Y+ ?
  86. Count of elements : 749. I7 w& P* k4 x  m3 p7 k! ?$ `! t
  87. Stream size : 27.0 KiB (0%)
      F9 S% Y& ^) b  P( C7 n
  88. Title : Castilian [Full]
    ( w1 e9 x8 w( F  A
  89. Language : Spanish
    ; X7 U( f0 V% ^$ w. N6 d; Y
  90. Default : No8 u9 D$ o: R3 l4 C
  91. Forced : No
    . P9 ]" \- c2 n6 K  T
  92. 2 Z3 T% c+ s/ r% {. _! q( a: {
  93. Text #4
    0 L9 c" U: W, |( s# ^  f0 I: ?
  94. ID : 6
    , U: ]% X6 y' m  T, [
  95. Format : UTF-8; M& \1 n9 F, E0 z$ p# {; Q
  96. Codec ID : S_TEXT/UTF8
    ; E# z5 a* F3 X) b/ [) V) s
  97. Codec ID/Info : UTF-8 Plain Text+ l, _, a9 P3 o5 E) t6 |8 |
  98. Duration : 42 min 4 s
    0 S/ D+ Q8 w- @' r) }4 D
  99. Bit rate : 84 b/s/ p# e' w/ d/ O6 d+ D. f
  100. Count of elements : 703. o( z& E9 r& u  A1 j" c, t  }
  101. Stream size : 25.9 KiB (0%). t) b5 S5 i, g4 Q" Q& a
  102. Title : Spanish [Full]
    & n% Q& a! Y8 w5 k' W' G5 c
  103. Language : Spanish+ Z, M- M& \% L# h
  104. Default : No
    ' N' w/ N* N5 o
  105. Forced : No
    ' g* g/ \+ r4 c; }
  106. ; c3 [5 V' \) W+ d
  107. Text #5; C8 p0 P! @+ u& L0 g
  108. ID : 7( d  m& v# ~- H7 w: k
  109. Format : UTF-86 R5 Z& O: z# x# Z$ ]
  110. Codec ID : S_TEXT/UTF8
    $ d- o- O# O/ @3 K7 B
  111. Codec ID/Info : UTF-8 Plain Text
    / M6 A1 z' a; _) D3 l. z
  112. Duration : 42 min 4 s
    5 \; |, Z0 b; O' `2 Y
  113. Bit rate : 86 b/s5 W) ~3 d' a3 D- f2 J% k
  114. Count of elements : 723- l( W. }$ h6 g3 y& ^' y' f; F
  115. Stream size : 26.6 KiB (0%)
    , c5 ?" }. I. b+ A6 G  ^
  116. Title : French [Full]. n) {/ {+ s% L) X0 t% r
  117. Language : French! c3 n6 ~+ k; r& a
  118. Default : No% Y1 l3 _& n9 U* t
  119. Forced : No
    ( ?& ]$ ^) I. v2 n
  120. ) _$ l/ q* ~/ ^& Y/ j
  121. Text #6$ H2 t* C# O& a+ S
  122. ID : 81 W% j5 ]) Z* M3 R, R: G
  123. Format : UTF-8: U& N+ [% q% q  x
  124. Codec ID : S_TEXT/UTF8) f+ w6 [# i; O+ a
  125. Codec ID/Info : UTF-8 Plain Text
    7 t" f) \& F$ V7 d2 s( t' }
  126. Duration : 42 min 4 s7 D# p( e; Y& P7 [$ P4 m/ C
  127. Bit rate : 92 b/s
    3 I6 _* h8 E' ^+ U7 s
  128. Count of elements : 751# T; U' ~  ^: d
  129. Stream size : 28.6 KiB (0%)3 R( U' \! p) Y3 Y
  130. Title : German [Full]- v2 `: U0 N2 [3 @6 ~
  131. Language : German
    $ K) |1 P# W/ O2 W* q" E1 K
  132. Default : No
    * H9 Y+ r. ?3 ?7 z
  133. Forced : No
    5 _& h$ q$ j, |1 L" R! h# ]
  134. + n$ y* o2 e. F, g2 `& Y
  135. Text #7
    0 E. J6 O5 M, }* R
  136. ID : 9
    7 H; i( T0 I6 v! t2 l9 h, n
  137. Format : UTF-8. p3 e. t/ V& y) D9 V( S
  138. Codec ID : S_TEXT/UTF85 h$ P' G  R8 d
  139. Codec ID/Info : UTF-8 Plain Text
    " A: L5 f7 v9 x$ j" [
  140. Duration : 42 min 4 s
    ! C" B% V6 S# i* l# }" c
  141. Bit rate : 90 b/s" _, B7 V) {% S5 Q/ F& F# v
  142. Count of elements : 694
    ; o, S8 T% D3 i  {# K
  143. Stream size : 27.7 KiB (0%)% K+ D/ A# R5 H+ w- d/ t) y$ p
  144. Title : Italian [Full]
      s# }3 l" K' d1 z
  145. Language : Italian
    , F) E% a) H$ U7 W
  146. Default : No. i" n, t! L' L
  147. Forced : No
    $ x! T1 ]6 J0 ^2 v9 `

  148. 1 R; \+ g* j4 x1 j" l
  149. Text #8
    1 V+ h; {& k0 O3 V2 U
  150. ID : 10
    4 a: j( _$ N3 c8 F8 x
  151. Format : UTF-8
    ) z4 R. _  X; y6 P3 C% p
  152. Codec ID : S_TEXT/UTF8  q5 k7 D5 d! N7 E
  153. Codec ID/Info : UTF-8 Plain Text
    1 z2 M: Y. N& ~' w
  154. Duration : 42 min 4 s/ z, {2 Z9 \! d- [, u  ~
  155. Bit rate : 89 b/s" ?( I$ ^3 ?% ~4 s
  156. Count of elements : 717+ A% Y7 n5 ~: o0 ]! {* }
  157. Stream size : 27.7 KiB (0%)( B: v, E  `$ U% d4 D
  158. Title : Portuguese [Full]
    5 g$ r$ Z; x2 O6 x" y( g4 `
  159. Language : Portuguese
    9 x4 X  w* ~- `, r7 R3 L; ~
  160. Default : No
    , J2 ^* r, m4 o* U9 D' C( k- T
  161. Forced : No. e' m& e% I6 b9 B
  162. $ x( h, A0 h4 s3 `1 w. Q/ l
  163. Text #9
    ( n4 `- i( D9 W% t* U* B8 {9 x
  164. ID : 11
    / q5 P. A% h8 n1 S
  165. Format : UTF-88 u" ]$ g" v9 {* Y4 m& L- ~3 ]
  166. Codec ID : S_TEXT/UTF8" U/ U  {0 v6 O7 A* t8 q
  167. Codec ID/Info : UTF-8 Plain Text, j% z& U3 @- C9 P
  168. Duration : 42 min 4 s( T& a4 N& `) z4 b- E+ ^' b
  169. Bit rate : 88 b/s% d+ O; A3 G6 H& F! d: [/ L: D/ ]; Q
  170. Count of elements : 749# u* R$ r8 e7 ^5 A/ y
  171. Stream size : 27.3 KiB (0%)
    ) K! g. D8 A9 F$ p
  172. Title : Brazilian Portuguese [Full]# U( t, W* p8 p" c; u
  173. Language : Portuguese1 r* r5 d2 c1 E$ P# Z5 z, s1 Q
  174. Default : No0 B8 l/ l% Q, S" G) d) N/ L
  175. Forced : No
    1 ^  F8 n% o4 ^, P) F5 C
  176. 0 L+ U1 X9 k  ~- R+ B5 W, R
  177. Text #10
    + E/ u; G* |" ~( K$ e7 R+ V
  178. ID : 128 x, ^) t. S  V- J' e
  179. Format : UTF-8: q# J% o' J1 H$ Y( B  h9 A
  180. Codec ID : S_TEXT/UTF8. N4 x) Q  s! _8 z+ U5 l. m
  181. Codec ID/Info : UTF-8 Plain Text
    % G# s+ p" l; ~7 Y0 ]
  182. Duration : 42 min 13 s
    / k3 J2 C* U) s' v
  183. Bit rate : 77 b/s
    & ]" a. Q% v2 E, O
  184. Count of elements : 647
    6 b7 e: G. C! s# c2 w2 A% Q) R. Z" C
  185. Stream size : 24.1 KiB (0%). Q. n) d5 c+ d  S- F* f
  186. Title : Polish [Full]* j4 Y- J8 u: O( x- r
  187. Language : Polish6 D& T& m$ o& k- L  }6 s
  188. Default : No1 j  S1 r: O: c  C: H- ^
  189. Forced : No
    , z7 I& S/ v9 ]: I- |" r, h

  190. 5 p& G- h5 l( a; D
  191. Text #11% q; J; d4 l& T+ B
  192. ID : 13
    * F% a. B+ U  w8 j
  193. Format : UTF-86 q0 D' J! G" f2 j/ P. X- Q
  194. Codec ID : S_TEXT/UTF8
    * C3 o5 D, P8 t7 L
  195. Codec ID/Info : UTF-8 Plain Text
    " w4 w. B8 f% v7 U& f1 S' T
  196. Duration : 42 min 4 s
    4 }1 u, P, v9 f) m& y: u! v
  197. Bit rate : 84 b/s4 [3 j5 p$ R/ n5 j4 y9 N; }
  198. Count of elements : 753
    8 S. n; l* [# A$ l. N6 U+ c! |
  199. Stream size : 26.1 KiB (0%)5 z2 ~1 U( e+ Q- G) ]+ N6 N1 Z3 R; [
  200. Title : Turkish [Full]  k+ D7 h9 E" v4 i! t, q1 ?
  201. Language : Turkish* w. i  o6 `& Z3 j
  202. Default : No2 ]# z2 R4 k0 n7 G) D# g0 |
  203. Forced : No3 Q% k8 J9 s9 C" d# X8 Q0 @1 X! ~

  204. ' D( N2 K' Y4 K: v
  205. Text #12( A8 y' y; {: A; ^; V3 p
  206. ID : 14+ _+ P  j/ B( A, o6 ?
  207. Format : UTF-8  v5 Z$ j+ s2 ~- Y% T
  208. Codec ID : S_TEXT/UTF8
    / \+ \1 @2 q0 T/ B, f' I
  209. Codec ID/Info : UTF-8 Plain Text1 X$ G$ I# m( ^- w1 Y$ C) r- h
  210. Duration : 42 min 4 s8 w7 u: H9 D+ c1 d6 ~; n3 l
  211. Bit rate : 80 b/s  f8 X4 S9 U0 S% x! \) K2 m% E7 _
  212. Count of elements : 721
    8 `4 W* `4 N* `4 n1 t* E
  213. Stream size : 24.9 KiB (0%)) M/ X; B6 H* l( b# d! q
  214. Title : Swedish [Full]. Q7 ]7 H+ b6 e/ e5 a
  215. Language : Swedish
    0 g! o$ s- Y! k
  216. Default : No7 t/ C: c* Q8 R4 h! x" w% C
  217. Forced : No& u% c8 ^2 j3 }1 x6 t) U1 m
  218. 6 b: ^; q& B- e5 @  t  ^
  219. Text #13& l# _+ N8 n3 l2 [1 a' N7 ?
  220. ID : 15
    0 B9 X* A! z/ q& R: t( b
  221. Format : UTF-8
    3 @. S6 g4 Q7 t, O# u
  222. Codec ID : S_TEXT/UTF8
    , g- G% j: H2 K: [, J2 T# J# D* Y3 O
  223. Codec ID/Info : UTF-8 Plain Text
    6 A. a. T( \" Z+ a
  224. Duration : 42 min 4 s2 q! {% K  s+ A5 Q
  225. Bit rate : 85 b/s
    8 @7 \% F( P; G
  226. Count of elements : 6655 b, w3 z+ ^$ \
  227. Stream size : 26.2 KiB (0%)6 u7 z3 V5 N0 W  [/ `
  228. Title : Danish [Full]% U1 S4 e1 l4 Q  j' G' y* ?
  229. Language : Danish
    5 r: h4 h1 }6 y1 h  S& d1 g
  230. Default : No
    3 E9 n0 F4 P; g5 B# Y
  231. Forced : No
    " u1 [8 ?6 n8 Z, l
  232. 5 n$ }3 T4 z6 {" L
  233. Text #14
    / P( t8 K1 X; i7 U
  234. ID : 16
      t- Q+ d; o" a8 [
  235. Format : UTF-8
    7 c: \" Y! Z$ ]6 F$ R8 F0 N
  236. Codec ID : S_TEXT/UTF80 R  N6 u; a$ ?& [
  237. Codec ID/Info : UTF-8 Plain Text
    . i% V3 R; T/ R
  238. Duration : 42 min 4 s* m" Z6 ]. T; H% W
  239. Bit rate : 82 b/s+ `+ U- Z) G+ C' B% r
  240. Count of elements : 552+ M) o- t) H$ @8 o5 `) |+ g8 ?
  241. Stream size : 25.4 KiB (0%), G- |. I9 d; ]; l0 f
  242. Title : Finnish [Full]
    3 V; r( i  ?2 }1 Z# W8 T
  243. Language : Finnish
    , }. s& R' W  {; ]7 }1 Q# I
  244. Default : No, b* m4 H! }0 p
  245. Forced : No
    ! X& `$ R1 c4 c2 R" U3 Z. [) s
  246. : }5 l4 L6 X: s' U. Y
  247. Text #15
    . b  [$ m0 K5 C- i
  248. ID : 17
    ! f0 g: {) K; t
  249. Format : UTF-8
    + L0 E( H( B8 I5 S2 ?$ \  \
  250. Codec ID : S_TEXT/UTF8
    7 {( U, _8 @7 w
  251. Codec ID/Info : UTF-8 Plain Text
    ' p! M) J  t4 D3 M1 b
  252. Duration : 42 min 4 s
    ' _8 M/ Z+ Y8 q7 _5 |* y# Y3 ]
  253. Bit rate : 72 b/s% ?* F0 H! o/ k  M* [1 I
  254. Count of elements : 615
    8 @  h2 [9 w. h* Q
  255. Stream size : 22.3 KiB (0%)
    * G: L- R7 j/ Q0 g$ }
  256. Title : Dutch [Full]
    - Y' \7 [; _& j
  257. Language : Dutch, i* {& A4 A; E& R% s6 Y
  258. Default : No
    ! G) m2 E" W6 u5 D
  259. Forced : No
    8 u- G. `: J' R3 B8 ^

  260. ( P' r6 s1 I7 v( g  e* _
  261. Text #16
    ) A- M0 A0 q; O* o' O0 |
  262. ID : 18- r7 _* k0 N, I+ Y0 P
  263. Format : UTF-8
    % D& a' y# w$ U& V6 v0 {
  264. Codec ID : S_TEXT/UTF8, E. |- E4 N. \/ M
  265. Codec ID/Info : UTF-8 Plain Text
    & T8 _& C: O3 h4 u" v) C; m( b
  266. Duration : 42 min 4 s) [9 G, k. R5 o( |# @$ D
  267. Bit rate : 82 b/s& }6 w- w/ O( s* N1 F4 H% R
  268. Count of elements : 738# Z$ e( P4 Q- t& a- y, g
  269. Stream size : 25.5 KiB (0%)
    & x) \: ^8 H' x! K5 Y/ J9 `
  270. Title : Norwegian [Full]
    7 ^+ O# E  O! b# P+ Q- ]4 H, T, I
  271. Language : Norwegian
    3 ]1 h4 u% s$ ~( g
  272. Default : No
    / a+ g+ E5 W7 l
  273. Forced : No
    5 ?' J5 z0 x0 P2 C. }. o
  274. 2 F, A) f  b8 I
  275. Text #17! u( i2 a0 ]: e$ d( h5 p( Q6 e
  276. ID : 19
    . @( T. v6 K# ]8 F* K# T3 s
  277. Format : UTF-8! k% m. a! q& Q' A
  278. Codec ID : S_TEXT/UTF8
    0 v2 `# F& e7 P6 q& m/ n
  279. Codec ID/Info : UTF-8 Plain Text
      i$ r* \' A4 ~' n+ V
  280. Duration : 42 min 4 s
    9 Y3 U% G$ A) M' v. y- e- p/ Z
  281. Bit rate : 134 b/s
    & k4 h8 X+ e$ N6 I
  282. Count of elements : 748  `5 k4 B& |8 h. |  C& `7 f5 J( w+ G
  283. Stream size : 41.3 KiB (0%)5 f; _5 s# o% w
  284. Title : Russian [Full]
    - e) p: U: ]( A7 w1 ^2 {2 w. ^5 n9 ~
  285. Language : Russian
    # V; s/ m$ s4 S$ L# o9 D7 Z8 K" {
  286. Default : No
    0 v  T$ o! x8 I- Y$ L9 _
  287. Forced : No6 W- @1 @# Y$ W. B5 j& s$ I

  288. 6 x1 v. V/ j; j1 L! Y
  289. Text #18
    3 z6 F. x- U2 }- B
  290. ID : 20
      m7 b$ L0 W& t6 N: V
  291. Format : UTF-8
    2 Z1 Z5 j8 i3 r# R4 ~
  292. Codec ID : S_TEXT/UTF8
    : F7 ~1 w! L, p) B
  293. Codec ID/Info : UTF-8 Plain Text7 F. z! G# |) i8 K8 R* f
  294. Duration : 42 min 5 s3 q: W$ G1 v2 |$ w, i5 w1 e
  295. Bit rate : 86 b/s% r: j( R( z9 M, D: K
  296. Count of elements : 727
    7 e6 l3 C" B( }7 p
  297. Stream size : 26.7 KiB (0%)% E9 D+ s( Q( T
  298. Title : Hungarian [Full]
    4 `! t) w; H) C9 J2 b+ P8 L$ y
  299. Language : Hungarian
    + D! d9 W% n* T" O! C  J
  300. Default : No
    % B$ N! k1 b, Z; R  Z2 e9 T
  301. Forced : No
    8 L" L4 f: b. p! l  w6 E/ q; z. y
  302. , T, g% R. h. N) E. Y/ r% f
  303. Text #19, M8 e, h* p1 x1 g1 U2 I
  304. ID : 21+ z2 T+ U0 W! i$ X
  305. Format : UTF-8
    # n, v! Z, w3 z, a  m4 Z$ o
  306. Codec ID : S_TEXT/UTF8
    : l7 V7 w) }& E! r8 p
  307. Codec ID/Info : UTF-8 Plain Text9 d( E5 [% c- ?5 M" T! O# o% e
  308. Duration : 42 min 4 s8 k; X2 {/ [. R- F
  309. Bit rate : 133 b/s% v5 A1 D0 d" ]" C
  310. Count of elements : 738( w! B+ Y, S5 K! Q- t4 L
  311. Stream size : 41.1 KiB (0%)
    ' r6 ^4 X: B8 o/ k4 J" v9 F
  312. Title : Greek [Full]. W* C" W2 s3 R% m( J
  313. Language : Greek
    7 g( P6 K: j% L, t
  314. Default : No
    & [) Q( G* v6 ~
  315. Forced : No
    7 e& m1 L, C" ?
  316. 9 h0 q2 J, T0 z' K1 i
  317. Text #20  Y; B$ n) N( S1 V0 C
  318. ID : 22
    . j1 W' w2 D$ L+ ?9 Z! Q
  319. Format : UTF-8# g) L) X6 I! c2 N9 I
  320. Codec ID : S_TEXT/UTF8
    * F4 E5 C! X5 i# X
  321. Codec ID/Info : UTF-8 Plain Text
    1 {& V& i& X. n) O% h: J* E/ ]+ i
  322. Duration : 42 min 10 s
    5 z; Q7 ~) ?3 |: u' ~% C
  323. Bit rate : 126 b/s
    : C6 k2 l6 A2 a$ G6 }6 p$ G
  324. Count of elements : 734
    ) c" [6 n* y9 S8 R, n# I
  325. Stream size : 38.9 KiB (0%)
    3 N& w: J2 Z% W) m
  326. Title : Hebrew [Full]
    ) H  V: k9 T1 ]- N
  327. Language : Hebrew* j0 e& `" n3 r
  328. Default : No
    + E' s' u- {9 b
  329. Forced : No
    " k7 c6 [% x8 `" A! ~0 V3 }

  330. & ~6 V' P7 K5 Y' H, Z& }
  331. Text #21/ N" {& {  ?2 L; C
  332. ID : 23
    . G/ F* x/ `: _! r. I2 A2 N8 ]7 q9 X
  333. Format : UTF-84 O  e* @. D" i* j* a
  334. Codec ID : S_TEXT/UTF8
    # C  B2 S$ |3 s7 g9 E3 [* X! \. E
  335. Codec ID/Info : UTF-8 Plain Text
    7 T( p" |9 Q6 y" E1 c
  336. Duration : 42 min 4 s5 x+ \* C5 C: g2 U9 _7 y1 M
  337. Bit rate : 162 b/s/ c  B2 W  l+ Y9 E/ @6 T7 G" ~
  338. Count of elements : 763
    2 F  N- N* ^, @6 I
  339. Stream size : 49.9 KiB (0%)
    : s0 \6 s5 N4 q! G5 g, p3 r
  340. Title : Arabic [Full]
    , \, j# @1 d: W! {5 |
  341. Language : Arabic, Y8 c; E/ k0 g
  342. Default : No2 q+ f" S2 A$ i+ r7 {; C0 G  x
  343. Forced : No
    ! E, v) w4 N: |; Z& Y7 S
  344. 6 F- p( J8 v: O
  345. Text #22
    5 D2 ^; ~  e8 Z! t& q0 v  Y
  346. ID : 242 V7 j/ o+ u1 H  n0 s
  347. Format : UTF-8+ X3 l1 B+ i6 B
  348. Codec ID : S_TEXT/UTF8
    8 V: Q* f' d5 T- c* p) x  o
  349. Codec ID/Info : UTF-8 Plain Text
    - G6 E) f4 f$ ~+ |+ x; _* R
  350. Duration : 42 min 4 s
      m2 L5 L" i, j% A3 N
  351. Bit rate : 102 b/s( ?0 k1 s, _) [( I" V# R6 N& v
  352. Count of elements : 7254 |9 i: W) U9 V( F" l; G
  353. Stream size : 31.5 KiB (0%)
    ( H: h& e9 X: d9 b' _' \* U
  354. Title : Romanian [Full]
    7 Q/ V& H' @6 F- c
  355. Language : Romanian+ I: t4 a: o1 b; m5 @) p: h1 U$ X
  356. Default : No3 k/ v( e3 E- J. A0 u
  357. Forced : No+ m; `( z1 S( v
  358. , q: T, r6 U, c) |6 ?
  359. Text #23) k( M! p  j( ^. j8 l  N( x( O
  360. ID : 25
    8 b3 l% R1 Z. C* n% h! ]$ P+ G+ a( F
  361. Format : UTF-80 y, h3 n& R; \( [5 B8 w- s
  362. Codec ID : S_TEXT/UTF86 y8 ?( G0 v& l! \
  363. Codec ID/Info : UTF-8 Plain Text9 n4 i2 K5 i- L* o5 d+ ]6 U; V- h9 ]) o
  364. Duration : 42 min 4 s9 a% z( t; y7 ]2 Q( O% d1 B; [
  365. Bit rate : 92 b/s4 W5 H# s' w, \: d
  366. Count of elements : 754
    - |& o2 c# ]) \
  367. Stream size : 28.4 KiB (0%)
    ; \. C  j4 L% ~3 h
  368. Title : Czech [Full]
    7 _! D$ \2 Z* Z; ~( |( {
  369. Language : Czech, y0 C) n5 d; g9 `8 j1 P
  370. Default : No0 z4 e+ J% r6 {) g; t
  371. Forced : No( C  O9 ], E" f

  372. 5 z$ u! G/ e9 \9 x. L
  373. Text #24& c+ q$ a, f! q$ Q' b1 c$ |1 C- q% s
  374. ID : 26
    ( x" G* H& a" e  l% r
  375. Format : UTF-8
    * n+ C6 Y' F# @2 T& \
  376. Codec ID : S_TEXT/UTF8% `+ b& U. Y1 E9 ~* e1 e* x$ K( V
  377. Codec ID/Info : UTF-8 Plain Text
      e( s4 U5 K4 J/ g
  378. Duration : 42 min 4 s
    ; n" M& h! H" V' |0 I
  379. Bit rate : 85 b/s
    ) i( z  d7 P; ~6 f
  380. Count of elements : 744
    + `$ i- ^. E7 Y% ~$ }1 b, ^
  381. Stream size : 26.2 KiB (0%)
    3 v( u7 [8 T* Y9 n) S/ b; W1 z/ [1 ]6 s
  382. Title : Indonesian [Full]
    ) U; K% c6 s% O6 D8 b
  383. Language : Indonesian: w7 @2 y$ w) j/ ?% b
  384. Default : No
    ( a. g, o# J0 h
  385. Forced : No
    ! E# @# f- \( \

  386. ! {# k+ b* F& L7 }; I3 a
  387. Text #25( }- T% w7 ^1 M1 \9 Z% A
  388. ID : 27
    . d; L" ~0 y3 }9 W- @5 S: I1 y
  389. Format : UTF-8% x$ g! c% h# Z3 k& ]
  390. Codec ID : S_TEXT/UTF82 X" l' K0 o* i8 W: S
  391. Codec ID/Info : UTF-8 Plain Text3 E4 S0 F" C0 [1 A0 M( l+ p
  392. Duration : 42 min 4 s7 W8 U  f/ K4 U+ ^, }6 B
  393. Bit rate : 119 b/s
    1 H8 l! M! }9 a; d: v4 M) R0 O
  394. Count of elements : 755, {* s9 `" v, o: p8 _
  395. Stream size : 36.7 KiB (0%)
    : h( _) o" a1 k* M
  396. Title : Vietnamese [Full]
    - T; S* z1 D# N5 o" Y
  397. Language : Vietnamese9 J6 M; ^+ I. I8 t  I' L& w. \9 a6 n
  398. Default : No
    ; f' R- D' S9 K" G8 w! @! O
  399. Forced : No
    , }2 ^' z7 i8 _! }8 b. ~5 u) t
  400. & n6 @8 j4 R, [6 _: ]4 }
  401. Text #26
    $ M2 J3 F9 o! Z/ p+ ]; J  x  i" @. n
  402. ID : 28. }* r. e6 {! t6 {! G3 n
  403. Format : UTF-8% P6 x; j6 Z- D/ t5 A+ ]2 v: \: c  m
  404. Codec ID : S_TEXT/UTF8( V' n: [8 {7 w4 F+ c+ y
  405. Codec ID/Info : UTF-8 Plain Text$ ?* v) u3 b! H/ S
  406. Duration : 42 min 4 s- s+ c& v3 e9 J" \' s$ O
  407. Bit rate : 230 b/s3 L' C* h/ [" J) g" {8 Z, D. H/ a
  408. Count of elements : 7558 u" G* L8 R- H: M5 U4 O2 q2 k
  409. Stream size : 71.2 KiB (0%)
    ) E% e' G; j$ ?5 K( k
  410. Title : Thai [Full]
    2 T' q2 O9 m4 }0 |7 ~
  411. Language : Thai; z+ v' R1 I- {! z5 [+ q
  412. Default : No. S# V1 H+ v+ y7 n- \7 u
  413. Forced : No# Y! h  T2 r$ @+ T8 R
  414. # X" J& N7 n2 q0 j8 x
  415. Text #27+ g# |3 l3 E: v  r$ F; K( M, \
  416. ID : 29) f1 P" S# V: |0 X6 j( t
  417. Format : UTF-8& x* r( J1 q  H* T& g, _
  418. Codec ID : S_TEXT/UTF8' J/ p9 h# u6 u9 q3 J8 K
  419. Codec ID/Info : UTF-8 Plain Text( u5 C" @; H) I( Y: N' `  v
  420. Duration : 42 min 4 s
    7 t+ o/ B! R4 t# }- V: ?4 h% k
  421. Bit rate : 109 b/s
    2 K7 ?  B- P  i3 E. G3 a; |
  422. Count of elements : 753
    ; f, E# z, p# [5 j4 d* T" R' s
  423. Stream size : 33.7 KiB (0%)
    2 D6 F' Y7 {- S8 x8 i* X
  424. Title : Korean [Full]
    8 l2 B# a7 U! Z' w9 J$ V
  425. Language : Korean4 Y) I6 k% t9 N! p9 u1 T
  426. Default : No
    " @! K; {  j' A
  427. Forced : No
    ! w. n! N* t: B/ D% v
  428. 7 r  ?: L0 K) M# a
  429. Text #28
    . |2 ?% f  e1 ?* O# h  ~) o9 l
  430. ID : 300 `! I( J0 _  c8 ~
  431. Format : UTF-8
    - a" O! z( O" d: \, i2 c' T% y
  432. Codec ID : S_TEXT/UTF8+ L. r& K' \) b4 p) Q/ l
  433. Codec ID/Info : UTF-8 Plain Text- S0 K8 c3 H+ ~& n7 J7 }5 S1 n0 |
  434. Duration : 42 min 4 s
    $ E( d$ m, P6 E9 V7 @* ?0 I) f4 `
  435. Bit rate : 92 b/s
    4 o! g) X: `$ j5 `. Z
  436. Count of elements : 750
    , ]7 k5 h9 D$ c* q1 r( U
  437. Stream size : 28.6 KiB (0%)5 y9 r$ R# D% a& D& D) f" M; Y
  438. Title : Chinese (Simplified) [Full], ]9 t$ M" c4 F6 M3 O! [, `; \
  439. Language : Chinese
    0 `0 X7 N& v: P- X9 ]
  440. Default : No
      ]. X4 j8 g8 N7 d% H
  441. Forced : No
    7 b2 `# Z. S- u! D+ h5 x! w

  442. * E* @( E7 Z) n" X! S$ G
  443. Text #29
    6 a9 I% B2 L* s8 ?
  444. ID : 31
    : z+ P, O7 b) a6 w' N4 g
  445. Format : UTF-8) E7 n! o% ?5 i
  446. Codec ID : S_TEXT/UTF8
    ) f* ?; H  m' l" m- z- j/ M
  447. Codec ID/Info : UTF-8 Plain Text. t9 m$ Y# F2 t: _
  448. Duration : 42 min 4 s( v( p/ w; B# u, E
  449. Bit rate : 89 b/s
    & _! o) T1 P5 m. V3 n9 q2 y& K
  450. Count of elements : 830* w8 \- `, e3 S7 P2 b; B) G
  451. Stream size : 27.5 KiB (0%)
    1 o* y  y; M1 F/ }5 |  ~
  452. Title : Chinese (Traditional) [Full]
    - R* n1 @! `3 ~' ~8 I  e1 G
  453. Language : Chinese' A; K7 g" W; B5 h  [# w
  454. Default : No* g! i) A- ^, [) e) K
  455. Forced : No3 _8 c6 K1 ?1 ]# S4 c, V7 U* a
  456. 2 f+ ~. u8 T4 D8 ?) x
  457. Text #307 ^6 r, C* v" W/ u- w' `
  458. ID : 32
    : k' A& m! [8 ^# }' V  R3 P
  459. Format : UTF-8
    8 g- i6 B2 m5 I, t
  460. Codec ID : S_TEXT/UTF8& H/ f# \$ c0 N, Z. V" i
  461. Codec ID/Info : UTF-8 Plain Text
    , k, k/ ^* K2 N
  462. Duration : 42 min 4 s
    + O* d3 {2 f4 F, v
  463. Bit rate : 78 b/s8 Y  F& z; v& B4 d* _( F2 K& d
  464. Count of elements : 7902 A+ N3 u2 j6 ^! x2 W6 m% {
  465. Stream size : 24.2 KiB (0%)
    . l! Z! L: b; u8 u4 k+ q/ V" E' e
  466. Title : Japanese [Full]
    * x% F$ L* }: ?% X
  467. Language : Japanese
    ( X& k/ q7 F% C6 |. N. i5 c
  468. Default : No
      A4 o8 i5 j* _7 |# P* _
  469. Forced : No
复制代码
- W  b7 x7 _* y( x% i: U  D
/ Y, {* @; s9 e) v
/ [& h4 h& {% m- C: R# s

$ p& U1 Y+ I( Z5 w* X$ Z- y1 h" J2 U; @
- e- c( E; \( P, [
游客,如果您要查看本帖隐藏内容请回复  VIP可免回复查看隐藏内容 详情请点击
发表于 2020-7-12 09:55:25 | 显示全部楼层
游客无权限浏览该内容
发表于 2020-7-12 10:06:29 | 显示全部楼层
游客无权限浏览该内容
发表于 2020-7-12 12:58:17 | 显示全部楼层
游客无权限浏览该内容
发表于 2020-7-12 14:56:08 | 显示全部楼层
游客无权限浏览该内容
发表于 2020-7-13 01:34:38 | 显示全部楼层
游客无权限浏览该内容
发表于 2020-7-13 17:37:27 | 显示全部楼层
游客无权限浏览该内容
发表于 2020-9-30 23:53:46 | 显示全部楼层
游客无权限浏览该内容
发表于 2020-11-1 06:33:20 | 显示全部楼层
游客无权限浏览该内容
您需要登录后才可以回帖 登录 | 立即注册

本版积分规则

封号公示|电子邮件联系本站hd1tj.net#[换成@]outlook.com|免责申明|HD一条街

GMT+8, 2021-12-3 08:51

Powered by Discuz! X3.4

Copyright © 2001-2021, Tencent Cloud.

快速回复 返回顶部 返回列表