HD一条街

 找回密码
 立即注册
搜索
查看: 325|回复: 7

[欧美] 寻找继承人 第一季[自带中文字幕]Win.The.Wilderness.Alaska.S01.1080p.NF.WEBRip.DDP2.0.x264-SPiRiT 13.8G

[复制链接]
发表于 2020-4-26 20:39:07 | 显示全部楼层 |阅读模式

马上注册,结交更多好友,享用更多功能,让你轻松玩转社区。

您需要 登录 才可以下载或查看,没有帐号?立即注册

x
尋找繼承人5 d5 W4 n( E0 i1 a0 _
202013+1 季實境與綜藝脫口秀節目
& J: F7 I% W4 ]六對伴侶必須相互競爭,證明他們擁有野外求生技能,足以贏得這間位於偏遠阿拉斯加的絕美小屋,在這片廣袤粗獷的荒野地契上生活。
  1. Video
    : I8 ?" z5 \7 E+ e
  2. ID : 1
    9 V8 X9 H- _' d% B5 y, A/ v9 E/ K
  3. Format : AVC
    9 d3 b; T6 J" Q" n* j
  4. Format/Info : Advanced Video Codec3 n, s' `  Z" Y% w" R3 d9 o
  5. Format profile : Main@L4
    ! l( L* X0 x1 D0 Y
  6. Format settings : CABAC / 3 Ref Frames
    0 Z+ k: l) i/ |* w, R+ k. ?
  7. Format settings, CABAC : Yes
    & B8 ?$ @( O# U) [
  8. Format settings, Reference frames : 3 frames3 P+ T9 ^2 h# i9 K
  9. Codec ID : V_MPEG4/ISO/AVC$ e1 R- C4 Z' _
  10. Duration : 48 min 44 s
    ! Y, f  r; n+ G% o9 l2 S* K* G0 \
  11. Bit rate mode : Variable  L" X- S; y: U0 z
  12. Bit rate : 7 500 kb/s
    0 }1 S5 W$ }, Z' L) K' Q' }
  13. Maximum bit rate : 11.2 Mb/s
    1 t5 L( r0 e3 U" P) a* \- E
  14. Width : 1 920 pixels" x  E, \$ L+ n' E/ H: [
  15. Height : 1 080 pixels- w) U* y& r* V5 z- Q
  16. Display aspect ratio : 16:99 v# r2 i6 c! N" }# _* y, N1 M( ?) d
  17. Frame rate mode : Constant- f5 V9 X9 t" f5 d! j
  18. Frame rate : 25.000 FPS
    + K+ \$ u# s, F% H& j0 U
  19. Color space : YUV8 \$ R+ Y5 z  W0 O( |
  20. Chroma subsampling : 4:2:0! y8 |1 e! Z% V
  21. Bit depth : 8 bits
    1 z- J; U+ V5 L4 J( _# Q* t  y1 A
  22. Scan type : Progressive" K% U) b3 h  B' N% r
  23. Bits/(Pixel*Frame) : 0.145# z" Z1 H0 M0 c
  24. Stream size : 2.53 GiB (98%)3 o0 ]) O7 q" z8 a$ O. D& k( w
  25. Writing library : x264 core 148 r2717 0d2410d: A; ^- x3 T1 A2 V0 g5 b
  26. Encoding settings : cabac=1 / ref=3 / deblock=1:0:0 / analyse=0x1:0x111 / me=umh / subme=10 / psy=1 / psy_rd=1.00:0.00 / mixed_ref=1 / me_range=24 / chroma_me=1 / trellis=2 / 8x8dct=0 / cqm=0 / deadzone=21,11 / fast_pskip=1 / chroma_qp_offset=-2 / threads=8 / lookahead_threads=1 / sliced_threads=0 / nr=0 / decimate=1 / interlaced=0 / bluray_compat=0 / stitchable=1 / constrained_intra=0 / bframes=2 / b_pyramid=0 / b_adapt=2 / b_bias=0 / direct=3 / weightb=1 / open_gop=0 / weightp=2 / keyint=250 / keyint_min=25 / scenecut=0 / intra_refresh=0 / rc_lookahead=50 / rc=2pass / mbtree=1 / bitrate=7500 / ratetol=1.0 / qcomp=0.50 / qpmin=6 / qpmax=51 / qpstep=4 / cplxblur=20.0 / qblur=0.5 / vbv_maxrate=11250 / vbv_bufsize=15000 / nal_hrd=vbr / filler=0 / ip_ratio=1.40 / aq=1:1.00
    ) D) t- ^7 F. @$ x8 |' N
  27. Default : Yes  B- e. ~8 U6 X/ d
  28. Forced : No7 h# H  W' S, b

  29. 8 m! J: w& @, M/ W
  30. Audio
    : s9 o& k* F* i) x* g/ `% p* w: \
  31. ID : 29 k2 z' L& R7 z9 R) M
  32. Format : E-AC-3, W8 v2 s4 ?: K% o4 ]9 ^9 F8 @
  33. Format/Info : Enhanced AC-3
    ' q1 m7 A) Q2 n" w
  34. Commercial name : Dolby Digital Plus
    , o! n$ \" k1 Y7 j
  35. Codec ID : A_EAC36 y& V9 h1 m9 M. d+ y: T0 r" i, U
  36. Duration : 48 min 44 s
    * o& j5 x* E5 r7 I
  37. Bit rate mode : Constant4 S- z: }. ^1 C7 }( J! v2 `
  38. Bit rate : 128 kb/s% H2 `! A! d( B1 n9 k. J
  39. Channel(s) : 2 channels. }" _- M2 C. O  c0 T
  40. Channel layout : L R
    , @) Y! j! ~8 w" \, h7 \! s5 u0 l
  41. Sampling rate : 48.0 kHz. Z9 x$ I, g3 \( v
  42. Frame rate : 31.250 FPS (1536 SPF)
    # o6 D; v, \" S1 ^& f
  43. Compression mode : Lossy
    5 D& q3 H# i# i- k& d# R+ @
  44. Stream size : 44.6 MiB (2%)3 o/ @8 ]  `8 F2 ?- G
  45. Language : English' a- ~, c* A6 Y: e7 N
  46. Service kind : Complete Main3 P7 D9 [) z( C; S7 d# u& h
  47. Default : Yes
    ! t8 W( e( N5 U
  48. Forced : No; j) j8 n9 S0 U$ z! y

  49. % U! o$ A8 }* I7 f: f9 r* L
  50. Text #14 d2 A9 m' |4 E! D& h! S% X
  51. ID : 30 i5 h) {  W" j0 f& \1 U% z
  52. Format : UTF-8& ^* D" l3 i; P1 y/ U% X6 s) _# U
  53. Codec ID : S_TEXT/UTF8
    1 q# O  V# s" C: E& c
  54. Codec ID/Info : UTF-8 Plain Text
    1 O: x( v( F' N
  55. Duration : 47 min 47 s! S% l# i3 i2 C
  56. Bit rate : 91 b/s5 @1 R, H; l* v$ e- x0 ?$ U
  57. Count of elements : 853* s( ]* `8 r( C# E( U
  58. Stream size : 32.2 KiB (0%)
    7 y: F% G( Q- I5 f) J1 p( [- h
  59. Title : SDH2 Q8 A! O' ^; ~/ u& X" c0 ^4 J
  60. Language : English
    + ^8 [9 q' ]2 R  d6 u  n
  61. Default : No4 c3 ^! G' g0 R0 A9 P" K
  62. Forced : No! p+ {( |& t! K; |

  63. 6 j/ S$ n! b% g* E2 `! }2 t
  64. Text #2# |( T5 H6 p$ C/ n
  65. ID : 47 g% }2 Y+ U9 n7 c: l
  66. Format : UTF-8
    & p9 C  ]. |) K! s2 w5 T) t
  67. Codec ID : S_TEXT/UTF8
    ; ~8 l/ d6 ~# m4 l( G- T6 x& N
  68. Codec ID/Info : UTF-8 Plain Text
    ( O/ r: l; G2 Z# K7 H- t& r+ `
  69. Duration : 48 min 19 s# a# ?- u4 `( y+ a; l( @
  70. Bit rate : 132 b/s+ {- S2 y2 A1 I! }1 b; h
  71. Count of elements : 8198 ~, |; j. Y0 G4 Z
  72. Stream size : 46.9 KiB (0%)& H' c& M8 M# p- p' v4 }7 t9 R
  73. Language : Arabic
    4 J5 p6 g% Q& l# @5 u! ^
  74. Default : No
    ) z6 }) f2 Y& [' ]7 F" X3 N
  75. Forced : No
    8 x, H  N- f5 s; Z+ i) D- z

  76.   @- V. Z6 v8 R' m2 C
  77. Text #3
    * q- @. x' k& ^" _# R. L# k
  78. ID : 58 j7 `; ]" C0 y+ w
  79. Format : UTF-8+ Q+ i+ Q2 ?6 b0 a) q' c& q
  80. Codec ID : S_TEXT/UTF8- V; w' U) W  r) j* `
  81. Codec ID/Info : UTF-8 Plain Text
    4 s8 y& }* ^  M. p  Q4 N
  82. Duration : 48 min 19 s
    ; [: |+ e/ ]- O& `2 d
  83. Bit rate : 74 b/s6 r: T( s1 b, m/ C
  84. Count of elements : 8264 }1 B! T! d6 o7 Z; _) u
  85. Stream size : 26.3 KiB (0%)
    - T/ o* F: U4 q/ T% T
  86. Language : Czech
    5 j3 H8 D9 V+ C( u. w; @2 t
  87. Default : No' v1 V& m1 N' _6 Y
  88. Forced : No; {& R4 w" u( G
  89. - A% f3 S0 u% R; x3 Y1 e1 `
  90. Text #4
    0 C6 k4 J( o- g' R" j6 e
  91. ID : 6% S# l  X9 ^; V8 F$ `. S; g6 F
  92. Format : UTF-8
    " V1 q) _2 g6 u: u1 S
  93. Codec ID : S_TEXT/UTF85 V" D8 q( }, Q4 Z9 p- U5 ^
  94. Codec ID/Info : UTF-8 Plain Text, f8 Q" ~* S' m1 }0 t  _8 I
  95. Duration : 48 min 19 s
    - C1 Y, j+ u9 U9 m) N. \- d
  96. Bit rate : 69 b/s- _4 y3 b( ]3 R. Q9 k
  97. Count of elements : 785- ?5 X8 ?" [9 N0 }9 i7 d# V
  98. Stream size : 24.7 KiB (0%)
    ; @8 \" ^( o* N% i) {. o. ^1 q
  99. Language : Danish; |( C) I7 C* ~4 b+ p  \
  100. Default : No
    5 X& d& D3 n% f5 a0 J' P1 e
  101. Forced : No
    ! z& {1 N# J  u- }0 X$ n. B  I

  102. , o; h8 s3 B  @6 O! v
  103. Text #5, u/ n- z! N& G1 O$ d+ t# h* p; J
  104. ID : 7* C- M* s% ]4 f5 h8 c( y
  105. Format : UTF-8) [/ p; c5 P# u) I
  106. Codec ID : S_TEXT/UTF84 D/ N( ?# V0 g; B( _7 \. s% F
  107. Codec ID/Info : UTF-8 Plain Text
    7 b, u" O" M' y1 V# X2 n
  108. Duration : 48 min 19 s
    4 i. v/ ?* `" Y  R0 j
  109. Bit rate : 81 b/s1 p$ L6 p7 h" Y2 S. U. ?6 ^, C
  110. Count of elements : 818
    + b  d' A) Y- X; [- O
  111. Stream size : 28.7 KiB (0%)2 \' O/ s! d6 h0 t- e4 o" G
  112. Language : German6 [  K, T9 n, P
  113. Default : No
    1 {/ D; n5 u5 V
  114. Forced : No, l9 N9 K; C. ~! h  k5 o" g

  115. 4 h0 }* o' f1 k; @: T8 q- s$ W
  116. Text #6/ r# X8 X& Y. ^+ A& g  p
  117. ID : 8
    # h. L/ ^; @# @$ Y9 r
  118. Format : UTF-8
    . v* S6 P0 Z, y1 j2 a* G* r3 c3 T
  119. Codec ID : S_TEXT/UTF8) x( s+ O, o7 P9 V) f5 r. f& W) f
  120. Codec ID/Info : UTF-8 Plain Text" ^! @, u0 g: U9 w- W
  121. Duration : 48 min 19 s
    / s) W" G. G# o& u5 [3 ^
  122. Bit rate : 131 b/s
    0 F8 P5 H2 c( W: c7 [" j
  123. Count of elements : 766
    . S, x1 L: E3 a  j7 B  A# |
  124. Stream size : 46.4 KiB (0%)7 K9 [: ^* f9 p" ~  }) K- `$ E
  125. Language : Greek
    : ]3 ]5 `; k$ K* g4 W. H! a
  126. Default : No- n  W9 Z- ~8 C" ^6 g( }; r: n% ~& D
  127. Forced : No
    8 p+ Y) \7 M; w- O

  128. 2 a) R! |' S4 l- h. }
  129. Text #74 [) u5 \. Z5 n& W
  130. ID : 9
    ) P6 C9 w; {" Z( U
  131. Format : UTF-8; e, J9 O& e7 I( {6 j
  132. Codec ID : S_TEXT/UTF8
    3 O; E% p  t' ], k+ R1 H) M
  133. Codec ID/Info : UTF-8 Plain Text
    4 `( p/ q# l4 x# w: z. o5 O
  134. Duration : 48 min 19 s. M3 ?; [- {  f( q3 y: g
  135. Bit rate : 79 b/s8 F; f9 h+ n  K% V
  136. Count of elements : 844
    7 R3 ]) V* ?4 \# W4 _; v' P& s( W" u
  137. Stream size : 28.2 KiB (0%)7 }5 n- I6 `( H" S4 ^6 k9 g7 i
  138. Title : Latin American3 ?6 L" G6 L, E  m
  139. Language : Spanish) R& \8 V4 X4 J0 a# K9 J7 F2 Q) w
  140. Default : No
      Q( k+ w1 W/ V/ w4 ]* M
  141. Forced : No
      }6 I# N! w4 N" j; V# m
  142. ! \6 j- K8 k. G% `
  143. Text #8
    * D0 m0 ?) Z9 a- U
  144. ID : 10
      e# Q4 J5 h- H4 R) B
  145. Format : UTF-8
    / L" C1 y, c& S9 N5 t% M
  146. Codec ID : S_TEXT/UTF8
    8 k$ x* @2 k' }4 o
  147. Codec ID/Info : UTF-8 Plain Text8 h, M& E( K- u; A, E2 ]2 K: c- C
  148. Duration : 48 min 19 s" U$ p! ]( C6 C7 Q% B9 N
  149. Bit rate : 74 b/s9 b4 l% B4 \4 T/ t
  150. Count of elements : 798
    , E5 I2 K# [: z" U2 p8 ?2 I1 j
  151. Stream size : 26.3 KiB (0%)5 d7 ~' `0 |% h" i, p
  152. Title : European9 |( R& h4 r4 J7 ?2 ~. H4 t1 C( Y, A# S
  153. Language : Spanish
    0 D4 s  q4 x. w7 u) E# ?
  154. Default : No
    4 i8 p* f* k! b, W
  155. Forced : No/ C) r" E. N# h( v
  156.   p8 H) i+ Q. L7 Z4 O' C( a% K) V
  157. Text #9
    9 @6 Y' V. J& }/ J9 m6 z
  158. ID : 11$ A% g5 ?$ Y4 b, u- s1 z
  159. Format : UTF-83 f. Z8 }+ h, @) t+ C
  160. Codec ID : S_TEXT/UTF8% h) U# V* X' |' c& O# n8 I  F
  161. Codec ID/Info : UTF-8 Plain Text; h* O5 N1 f- R% c" Q- V
  162. Duration : 48 min 19 s- ~" d+ x1 A- ]. @
  163. Bit rate : 74 b/s; i) f- ]1 y' w- J
  164. Count of elements : 8093 u' |7 L6 b, t  t& D$ i8 Z
  165. Stream size : 26.5 KiB (0%)5 F6 w  ?# i) G- h7 y& U& z7 U
  166. Language : Finnish
    / F7 R! ^3 B/ `5 l
  167. Default : No! M" V1 A9 A+ Z( T* i: R1 D! e
  168. Forced : No! H* k; Q/ v6 D: L' n! x! i( F
  169. 5 V2 @. X/ G  ~
  170. Text #100 }% e* ], R* [, Q
  171. ID : 128 I1 m/ q: C7 p* ]( r. |2 }. O. g
  172. Format : UTF-8
    $ p) B7 j/ ~$ W% ]. g
  173. Codec ID : S_TEXT/UTF8
    0 ^$ G& ^( @4 V
  174. Codec ID/Info : UTF-8 Plain Text
    $ ^4 v9 p/ L3 [1 h$ B. T
  175. Duration : 48 min 19 s
    2 [( e0 G+ y" V+ y. V
  176. Bit rate : 70 b/s
    " c# K; R6 y# R% M; p* _2 H8 H
  177. Count of elements : 758$ `& J: r  s1 l+ `0 m$ @3 q/ A
  178. Stream size : 24.8 KiB (0%)
    * C% ?/ P: T# |5 y3 e
  179. Language : French% A4 M2 e" T' _6 y" M; B2 P- q
  180. Default : No+ J0 ?% F& }% t6 N$ H  ]  r/ [
  181. Forced : No
    ' a- w& X+ m, D1 Q9 E1 P/ g
  182. 0 R4 S7 R7 O& X  U. }7 J! M
  183. Text #11
    6 a6 a9 t" j  f. v1 [% _; V
  184. ID : 13( Q9 K' A; k* ^: i  y
  185. Format : UTF-8
    7 E, o, A' x3 N$ x9 E/ X3 s' U
  186. Codec ID : S_TEXT/UTF83 Z/ g" D& H) D) p3 i- Z" d
  187. Codec ID/Info : UTF-8 Plain Text) i! L; @" ^, o' i/ I9 c
  188. Duration : 48 min 19 s
    " Y6 V  A. [% b- ]7 [( v8 J: ?
  189. Bit rate : 120 b/s
    " ]4 h4 t5 v" @# N8 y
  190. Count of elements : 819" O! D0 B8 Z0 n! `& m9 f2 J
  191. Stream size : 42.7 KiB (0%)! }  |& M1 T0 M. w1 |
  192. Language : Hebrew
    1 F; j& f( G. {# Z- f) B& n8 `
  193. Default : No
    ; q! a" k' A1 k' I9 h, g9 x: t
  194. Forced : No1 \+ Y2 D( |: n' Z2 u3 r
  195. / \3 n' E- M8 b
  196. Text #12
    ' H1 e5 J8 }+ {; s9 ^8 s/ v
  197. ID : 14
    . [% ?% l* J6 N3 C4 i$ _* z$ h
  198. Format : UTF-8
    ! o. w! t. T) }8 h+ r1 z
  199. Codec ID : S_TEXT/UTF8! k' }! h5 t, N2 t! z) A2 @
  200. Codec ID/Info : UTF-8 Plain Text
      _' o# F* ]" h( L2 u- C
  201. Duration : 48 min 19 s' p/ T; u; n# g' F1 w& @. ~
  202. Bit rate : 75 b/s
    * u2 E1 {6 D# J7 e
  203. Count of elements : 731. N- E5 ]$ L0 Y+ w, S+ K3 L+ X9 w& U
  204. Stream size : 26.7 KiB (0%)) f. b9 M  M( V& @3 [% Z' X. X# J
  205. Language : Hungarian! G: c: a2 X* h( ~) k( H9 j4 A) t& f! _
  206. Default : No% ^+ c8 R+ O6 r4 F% q
  207. Forced : No, A* Q: |% Y2 U/ n9 D$ ~) D# i  L
  208. , T* O8 M2 V% W4 X- Z- V
  209. Text #13, I0 s1 [8 v3 a' {
  210. ID : 15
    % d1 W3 G) ]. ?9 \* r0 a8 b9 `
  211. Format : UTF-85 }( a" O7 G; k& ~3 Z; @- ^
  212. Codec ID : S_TEXT/UTF8
    + \, S& y4 @" j9 ~
  213. Codec ID/Info : UTF-8 Plain Text! l$ {! [3 \% i* W2 G
  214. Duration : 48 min 19 s& a& l/ C+ _+ c8 |. x9 O/ i
  215. Bit rate : 76 b/s$ k( s/ I: X* K7 u
  216. Count of elements : 803
    & V2 \% a, Q8 ^6 {( N
  217. Stream size : 27.1 KiB (0%)* b: Y4 ~5 V# ]
  218. Language : Indonesian
    ( ]8 Y* B! T: C/ k
  219. Default : No
    7 n  r; F* n* i0 z/ e8 D9 G
  220. Forced : No5 E7 e" y9 L0 I8 g9 Z
  221. ! r) T! n  ]6 K  Q  D
  222. Text #14, Z. }+ W7 g( q6 y6 Z
  223. ID : 160 h8 _( ^4 V% J% X$ `
  224. Format : UTF-8
    % u2 Y0 j4 R: m6 V' Y* g& x
  225. Codec ID : S_TEXT/UTF80 z9 E+ R- z- B3 C
  226. Codec ID/Info : UTF-8 Plain Text
    , i. X( U  E! R: E( v
  227. Duration : 48 min 19 s/ b2 S% h5 G+ C- `
  228. Bit rate : 79 b/s8 w  P( n1 }0 G% V* n  }! a* E
  229. Count of elements : 820
    1 ]" u7 Z/ z$ V% r9 U8 a
  230. Stream size : 28.3 KiB (0%)
    $ {, R9 w0 ~7 ~; y" {
  231. Language : Italian& R, T6 k  _4 ~. w* K
  232. Default : No  u3 F/ S* k( W6 L2 R5 |
  233. Forced : No2 U9 [5 N. \. }. P1 m2 l: j

  234. , \8 w1 _, T9 Z* e2 |- |
  235. Text #15) j0 G8 @# B3 O
  236. ID : 17. Q2 g8 I! f4 ~) X. R/ k8 i" [) T
  237. Format : UTF-8* k, J4 i0 J4 E. G7 d
  238. Codec ID : S_TEXT/UTF80 b; n9 b8 g5 P
  239. Codec ID/Info : UTF-8 Plain Text' `* [  x( o& y) K
  240. Duration : 48 min 19 s
    $ M! O8 W" ^! K. M% K
  241. Bit rate : 69 b/s" ?5 I7 C2 F2 c, K" W
  242. Count of elements : 859
    - {5 p2 H- o4 W4 G
  243. Stream size : 24.4 KiB (0%)
    4 G( R# A( O/ k( l8 S3 c3 s9 }& M0 p
  244. Language : Japanese
      z8 Z- M# J' p( A; K' }( X
  245. Default : No+ `! Q9 q. y/ T6 `
  246. Forced : No( z- u- |$ F. q: n
  247. 7 g# U* O, U) e& X1 [- Y6 k  S
  248. Text #16  j5 ~' Y, B  b' o- C: I
  249. ID : 18
    3 }" `* b% B) f# z- t
  250. Format : UTF-8- M/ r1 j  n) `4 J' _( O. S
  251. Codec ID : S_TEXT/UTF8
    & e3 F' T) I9 f- y6 z
  252. Codec ID/Info : UTF-8 Plain Text
    1 y. K! k5 ^4 y! X: W
  253. Duration : 48 min 19 s
    2 g3 w& c1 B4 l5 T! y
  254. Bit rate : 91 b/s+ f( {" b* {! r2 _7 u: u" b. b% Z
  255. Count of elements : 8251 v4 R$ U* o. F3 F
  256. Stream size : 32.3 KiB (0%); U( @, k2 X: @( B& ?
  257. Language : Korean, e! u" S0 O7 k* ~
  258. Default : No, _+ J4 n5 p9 k" x( @+ f
  259. Forced : No9 C! X" {( k  z

  260. 6 r7 h+ l: N9 K! l2 j
  261. Text #17
    3 D0 h5 g  ^; f) ^7 W# ?
  262. ID : 19
    # B$ F8 K1 ~# k" Z4 ?
  263. Format : UTF-8
      U0 t4 p: Z+ S+ b! F; U4 [
  264. Codec ID : S_TEXT/UTF8
    $ X9 i  C$ `' _" i  G* N9 n+ w# G
  265. Codec ID/Info : UTF-8 Plain Text8 t. d" R5 S* ?9 r& M+ E
  266. Duration : 48 min 19 s
    ! |! w  h; x# D2 K. }
  267. Bit rate : 73 b/s
    / P9 `7 C: n" a$ f
  268. Count of elements : 856" m% _+ [% {/ y- ], L3 v
  269. Stream size : 26.1 KiB (0%)6 F* q. o6 n/ V1 V6 I  y
  270. Language : Norwegian Bokmal! G1 M0 r0 k6 j9 ]( f/ t6 C/ o
  271. Default : No, [. g% B) j- q5 l& Y: M
  272. Forced : No5 a0 g* C! N$ F
  273. + R/ e1 p0 I3 h6 U) w+ L/ ]
  274. Text #18
    7 s. `+ c% S# Q, G& r
  275. ID : 20& v5 t* |7 w/ m7 ]. z, E
  276. Format : UTF-8
    % y! P) O  V2 V: a
  277. Codec ID : S_TEXT/UTF8# G5 P6 T( s" y# u/ q
  278. Codec ID/Info : UTF-8 Plain Text. a3 _; @- }$ J# p7 O
  279. Duration : 48 min 19 s8 x8 Q+ O# q: W: ?4 g
  280. Bit rate : 74 b/s
    7 m4 j7 q# q* J# G2 l
  281. Count of elements : 806# D! w. v7 x! t* U& ^2 a
  282. Stream size : 26.2 KiB (0%)
    . C' i" |/ T# ^& ^1 |7 D+ p
  283. Language : Dutch# _8 ]4 F1 Y) u
  284. Default : No
    ' C6 C5 t) J6 a% y+ B
  285. Forced : No8 a. q1 N' E  g" l- V
  286. 3 W9 V; t# F. I* G5 v
  287. Text #190 b$ y7 l& }: }  I6 }$ }: a2 S
  288. ID : 21
    6 I/ ^9 o6 E# d+ r6 F3 S4 Q) |
  289. Format : UTF-8$ [, T8 J9 n  h: g# N
  290. Codec ID : S_TEXT/UTF8" B' a2 K3 P- a% r$ P) `
  291. Codec ID/Info : UTF-8 Plain Text9 K1 n% Y, T- @8 u2 J
  292. Duration : 48 min 19 s" h% V/ `) P0 w4 z) A  g
  293. Bit rate : 67 b/s6 j! o7 C4 c9 S$ m6 M6 Y; _" ]' t8 d
  294. Count of elements : 707
    / k, Y& F6 S" B7 b+ s0 C$ G! I1 n
  295. Stream size : 23.9 KiB (0%)8 Y7 m) }9 }5 f( W" S' e
  296. Language : Polish
    3 A' ]. k$ Y& Z* ?7 }2 X  `2 \
  297. Default : No
    * S+ Q  K' c1 j. }
  298. Forced : No
    , X9 q- I. \) u* v7 G

  299. 8 N# f) u4 T* s7 J! z- c
  300. Text #20
    - Z( G& W% l: B7 s3 i
  301. ID : 227 z& w  Z. R% e3 L5 i
  302. Format : UTF-87 g$ q! e  F8 B* Z$ ?9 e: e
  303. Codec ID : S_TEXT/UTF8$ U6 v6 M# [- \6 u4 Z# X& {
  304. Codec ID/Info : UTF-8 Plain Text/ x2 Y, I8 T. a; x) [
  305. Duration : 48 min 19 s% R  Z/ Q* M- x5 |* u: m2 a
  306. Bit rate : 72 b/s
      }' M6 b3 |5 f* x1 N
  307. Count of elements : 802
    ; g1 ^) q" Q4 `) R: C5 h
  308. Stream size : 25.7 KiB (0%)8 I, `" t/ _3 P# w8 ?* o0 I
  309. Title : European
    # @- J0 M( R) Z1 v* x: \- i% x# A
  310. Language : Portuguese
      b# y# ]  F& M0 N$ R
  311. Default : No
    ) K8 k2 L5 T' N/ R7 N" S
  312. Forced : No
    3 d3 [: _. k3 d/ r

  313. 6 Z, z8 ]) _/ b
  314. Text #21
      p) M5 H/ d& Y* d/ V
  315. ID : 23" o" r8 l8 G5 H3 j1 m* w
  316. Format : UTF-8
    8 i" r( p+ ~3 s* {+ n  g& S
  317. Codec ID : S_TEXT/UTF8) N( I; R8 h" L: w" T/ l
  318. Codec ID/Info : UTF-8 Plain Text" n% K& D" v3 J
  319. Duration : 48 min 19 s
    " y' s2 }0 `4 |7 o; }! }8 Y
  320. Bit rate : 74 b/s, r! G' k" K( m8 i- t, y
  321. Count of elements : 819" [% x9 b% I0 x; U) E
  322. Stream size : 26.5 KiB (0%)3 Q% u. \4 u6 s& m9 e' M' M/ d" W
  323. Title : Brazilian! f$ _7 U0 H( f( s- k1 z3 ~
  324. Language : Portuguese
    " E1 `7 p' l7 v
  325. Default : No
    7 {. |9 Q" b" O% o
  326. Forced : No
    # q4 s) a# \4 ^& u. [
  327. 6 |% W  Q; a; o: ^3 C
  328. Text #22. u7 g& M6 K4 d, t; J& s
  329. ID : 24
    0 A- U2 s7 b2 {& d! o, g
  330. Format : UTF-8
    ) E7 {3 r# ^) ^9 h* C
  331. Codec ID : S_TEXT/UTF8
    7 w# j) ?6 D& u. f2 U
  332. Codec ID/Info : UTF-8 Plain Text
    + p, }, ?: y, K  r' p
  333. Duration : 48 min 19 s% @% y& A' A0 X  b8 ]$ x& T
  334. Bit rate : 81 b/s2 i% g! p- [0 t3 |$ k; e* X
  335. Count of elements : 807$ Q, ]1 [2 H9 Y7 ^% w5 l/ j5 @
  336. Stream size : 28.9 KiB (0%)
    2 t  f: R7 u/ L0 X8 j8 ~" o' x
  337. Language : Romanian
    3 i7 Y" l! w" W- }3 @
  338. Default : No
    . |$ |- m0 R, r* ~4 q7 j
  339. Forced : No" I+ @+ @# @! q# v

  340. $ k% \5 x) u2 h3 P
  341. Text #23
    4 m/ m: E* H: ~3 {6 Q( c  \
  342. ID : 25: F& |" h# ^: R' X
  343. Format : UTF-8! S; p, w/ s8 c( O
  344. Codec ID : S_TEXT/UTF8
      T: p( n2 f1 ]) f4 w" m
  345. Codec ID/Info : UTF-8 Plain Text
    $ h. c% _% ?$ K$ T% D7 W( `3 y
  346. Duration : 48 min 19 s
    2 m9 C% u( P4 P/ C! z. A- M, o
  347. Bit rate : 122 b/s* ?- C5 z' A$ K) e) q) R, z; L
  348. Count of elements : 8067 ~' w- p; O3 T& q( g  @6 ^
  349. Stream size : 43.3 KiB (0%)
    0 a2 t7 Q: r! T, Q5 _6 |
  350. Language : Russian. g! b# \2 Z4 G# X  Y; J" x' s
  351. Default : No  m. Z: z, s7 [3 Z# W
  352. Forced : No; {' Z5 _( \& ~0 A, M, P

  353. : g5 I- w0 W# b, H2 p- D. i
  354. Text #243 ^/ m4 v3 \3 b
  355. ID : 26
    % D  B* X) _; a( R% r  o) X
  356. Format : UTF-8! Z9 P% z6 ?' X1 I! y7 B+ l
  357. Codec ID : S_TEXT/UTF83 c( J- q& \5 s
  358. Codec ID/Info : UTF-8 Plain Text' g# q1 F! ~3 n" r7 L+ C8 l) @
  359. Duration : 48 min 19 s
    # G- Q! |* p9 A4 j0 t0 g+ z- h
  360. Bit rate : 80 b/s* o1 y3 I3 s2 j3 e' f  @
  361. Count of elements : 803! N; N4 ]/ K9 q( x; o1 b/ f
  362. Stream size : 28.4 KiB (0%)7 A5 T0 X; k! K* p- c0 K0 t! ~
  363. Language : Swedish
    # b/ P. Q% Y! c$ N2 E# V
  364. Default : No
    8 }& u4 h( B6 O. O2 C
  365. Forced : No
    3 h. N5 H, s1 ?; i3 v
  366. / A) I% L/ |2 H3 h: o/ S# C
  367. Text #25
    8 a! m9 k& G9 E
  368. ID : 27
    9 M5 j( z: q9 N
  369. Format : UTF-8) ]8 ?4 ?+ f; A* X7 `. C
  370. Codec ID : S_TEXT/UTF8
    # o7 _+ ^$ k, Y/ c7 V; t* m# U
  371. Codec ID/Info : UTF-8 Plain Text
    5 v& U% D/ |( K1 J# a
  372. Duration : 48 min 19 s
    ) ^+ p$ @" i6 @; J# E* p
  373. Bit rate : 186 b/s; z" q7 ~' f, }1 h8 Q
  374. Count of elements : 825
    9 j1 C! z. ~% r3 T5 k: e0 r
  375. Stream size : 65.9 KiB (0%)1 R! L" d1 i! M1 W
  376. Language : Thai2 J- @1 s0 U8 m4 U; `. W2 J
  377. Default : No
    $ A" K2 @4 u: m+ r/ h
  378. Forced : No
    ( j0 b6 P, q- R0 p

  379. $ V1 A% A+ r/ _: I9 Q9 a# a& {7 P
  380. Text #26+ K9 ?% _6 H- h& F; I. c( ]) j* d& i9 Q% Q
  381. ID : 28& Z( X$ y& l3 L$ l
  382. Format : UTF-8
    % _8 {* B1 K" y; K0 V# b5 Q
  383. Codec ID : S_TEXT/UTF8; f, j, N" X5 R# L% b. ?( Z, K4 x6 k3 T
  384. Codec ID/Info : UTF-8 Plain Text  A% u4 ^/ Z& U5 v- G
  385. Duration : 48 min 19 s" a9 O- o+ J' l! ]
  386. Bit rate : 76 b/s5 }5 o9 u/ K" t; V& Y. e; Y3 E
  387. Count of elements : 794
    5 s, E# [+ F0 L- q( G7 w+ _
  388. Stream size : 27.0 KiB (0%)+ e# W* G% p& q
  389. Language : Turkish( ?2 c( |8 R2 O2 E! e
  390. Default : No- r1 q1 z. k$ i/ q0 Z3 V4 |8 {
  391. Forced : No
    ) O4 z% W; E1 M  \! o  z

  392. 4 o, ~% q1 I' N5 Y# k7 |2 m
  393. Text #27
    & e. K4 j! K& |7 Q
  394. ID : 29
    . [2 l$ Z/ y5 t# k. Y( s  c
  395. Format : UTF-8
    " o/ s6 Q$ {% T" A/ L* a; R
  396. Codec ID : S_TEXT/UTF8- c5 B& v& [5 S3 \& w9 q  q
  397. Codec ID/Info : UTF-8 Plain Text
    8 a2 X# L4 Z( K$ F
  398. Duration : 48 min 19 s
    9 _: q  ~: v4 r' X  f- R" W
  399. Bit rate : 109 b/s
    ! x/ h8 F; ?( _& N
  400. Count of elements : 818
    : a0 h0 t4 |* g& T1 D) D
  401. Stream size : 38.6 KiB (0%)
    , x1 E4 G7 g$ A. |
  402. Language : Vietnamese# j' |8 y5 L9 {5 E# P+ l
  403. Default : No
    * Q5 V+ y; @; m: e8 _4 b1 G
  404. Forced : No
    ( Q4 v/ J2 q$ n( e

  405. # ^- f* P- E4 _) v7 l$ n
  406. Text #28( ?* K: Q9 s& r
  407. ID : 306 ]+ k1 S$ F* @" H  V& Z
  408. Format : UTF-8/ B' B0 W. t. N
  409. Codec ID : S_TEXT/UTF8
    ) G9 j% j* a# \% ]" ]
  410. Codec ID/Info : UTF-8 Plain Text
    + E' Y; C! }# I! \9 C) `
  411. Duration : 48 min 19 s
    - q- [* `! J+ \# K7 P
  412. Bit rate : 75 b/s# Z2 n! s' l2 L8 s, D2 e
  413. Count of elements : 826
      @2 w2 y$ ^- e9 V- [* |% F5 U
  414. Stream size : 26.6 KiB (0%)% [" l% x$ |  }' o& X1 b
  415. Title : Simplified
    $ B9 n! H4 q4 k  z* ~) k9 ~1 E
  416. Language : Chinese
    : V* a5 K" d9 V; S0 Q" F
  417. Default : No- k0 x& d7 n8 K
  418. Forced : No0 u  n; M: F1 L' A! g9 Q6 \) U, O1 F

  419. : i* w5 b" Q2 e
  420. Text #29
    ) o) C. k1 T' P! V' S
  421. ID : 31
    9 {* E  P# K9 }( h8 B
  422. Format : UTF-8
    & _9 e  J4 ?4 w: b9 w
  423. Codec ID : S_TEXT/UTF8
    ! L* N* {( k+ }
  424. Codec ID/Info : UTF-8 Plain Text
    / b% d; k' M5 |, _/ u8 }
  425. Duration : 48 min 19 s9 ^6 Z6 ?; c+ g3 j% u
  426. Bit rate : 81 b/s
    ! w& D  [+ w) b' @. p
  427. Count of elements : 8167 v" i" n1 d( J, \; g+ p
  428. Stream size : 29.0 KiB (0%)9 j& J! p$ `. s2 n+ c
  429. Title : Traditional
    : h$ j2 i2 J; G; q& @0 V
  430. Language : Chinese; n1 N  B" L2 o! \/ E. `* {
  431. Default : No( W+ u& K, p: v3 ~5 f* O. \. J
  432. Forced : No
复制代码

" w( R% M3 q/ \. r( n* D9 T* p
, j9 g4 y3 |. Z+ \! I9 h: ?4 W2 S" {5 A! p

4 {; A) i2 S+ v- E! P& Q" M" }9 ]# m3 @

& _- X3 q- K% f* ~& r
游客,如果您要查看本帖隐藏内容请回复  VIP可免回复查看隐藏内容 详情请点击
发表于 2020-4-27 06:36:04 | 显示全部楼层
游客无权限浏览该内容
发表于 2020-4-28 01:04:59 | 显示全部楼层
游客无权限浏览该内容
发表于 2020-5-17 17:02:18 | 显示全部楼层
游客无权限浏览该内容
发表于 2020-11-4 06:05:13 | 显示全部楼层
游客无权限浏览该内容
发表于 2020-12-1 18:53:40 | 显示全部楼层
游客无权限浏览该内容
发表于 2021-3-20 01:58:57 | 显示全部楼层
游客无权限浏览该内容
您需要登录后才可以回帖 登录 | 立即注册

本版积分规则

封号公示|电子邮件联系本站hd1tj.net#[换成@]outlook.com|免责申明|HD一条街

GMT+8, 2021-11-30 05:11

Powered by Discuz! X3.4

Copyright © 2001-2021, Tencent Cloud.

快速回复 返回顶部 返回列表