HD一条街

 找回密码
 立即注册
搜索
查看: 4274|回复: 25

[1080p] 新古惑仔之少年激斗篇[中文英文字幕]Young.And.Dangerous.The.Prequel.1998.CHINESE.1080p.NF.WEBRip.DDP2.0.X264-ExREN 6.12G

[复制链接]
发表于 2020-3-30 23:16:24 | 显示全部楼层 |阅读模式

马上注册,结交更多好友,享用更多功能,让你轻松玩转社区。

您需要 登录 才可以下载或查看,没有帐号?立即注册

x

. j  t0 L9 c1 z( a: Z                               
登录/注册后可看大图

. f+ n, L+ Y# R; F: i" x6 u9 U" S$ ~9 p% E2 p
◎译  名 新古惑仔之少年激斗篇 / Young and Dangerous: The Prequel
  o# m+ O7 H% I$ o◎片  名 新古惑仔之少年激鬪篇, j) U4 ^% Q1 @7 o
◎年  代 1998+ S; f1 D9 h! l+ P
◎产  地 中国香港1 L) K2 k. s$ w9 m" K& N& c1 P
◎类  别 剧情 / 动作% ?  p% c6 z: z  g
◎语  言 粤语7 @, c& N* u2 I. p3 z* M
◎上映日期 1998-06-058 q+ D' U1 Z. r: e( |
◎IMDb评分  6.4/10 from 327 users
" w& q8 S: t, K6 t) U: l◎IMDb链接  https://www.imdb.com/title/tt0168264
1 m- F9 D# }& m8 H' k& ^◎豆瓣评分 6.4/10 from 12762 users7 E) P! r- D  v) I( g; R
◎豆瓣链接 https://movie.douban.com/subject/1307899/5 v2 ?' K" s* ?* a, N3 [7 t; z
◎片  长 117 分钟4 j8 Y" E7 P/ ?( z( F
◎导  演 刘伟强 Andrew Lau( l- x+ {) |0 S, x
◎编  剧 文隽 Manfred Wong / 牛佬 / 秋婷 Ting Chau+ @) P+ p/ m, H) C
◎主  演 谢霆锋 Nicholas Tse
: E4 u% ]* J1 {: h       李灿森 Sam Lee9 X. q7 Y* H9 a4 l
       余家安 Bruce Yu+ g' c5 h: B8 Z& o1 k
       袁伟豪 Wai-Ho Yung0 L0 G# g+ k, E! g( w
       吴志雄 Chi Hung Ng
8 X) ]; t. o# D6 P" E% [2 l8 z4 b       吴彦祖 Daniel Wu
7 Z/ A  f5 L; y3 \; B) u       吴镇宇 Francis Ng
4 r! G3 e4 z4 }9 b& L* t0 u. v       舒淇 Qi Shu$ v+ D. k% C/ Y( P/ i
       何嘉莉 Lillian Ho
: ^3 y, K: u2 v; {0 J- \       杨恭如 Kristy Yang( W' r$ J( y4 a  }% ]
       吴君如 Sandra Ng$ q. [0 Z+ e/ N
       韩马利 Mary Hon Ma-Li
! H: ]* F9 P3 K       罗兰 Lan Law3 c" y( k& X1 T! O
       李兆基 Siu-Kei Lee
2 s" ~  C) y: h" i
3 K* P. X" i: c; O8 A( }% t& K  B) z! Y. {5 D
◎标  签 古惑仔 | 谢霆锋 | 香港 | 香港电影 | 黑帮 | 吴彦祖 | 1998 | 舒淇
+ k* H4 D, h3 R
0 ~# n9 U' H$ ]  M, d" i! ^◎简  介  9 d& g( r7 V. z, V$ E
4 F+ ~7 P6 q1 R, b; \" a5 [% e
  本片讲述了少年陈浩南(谢霆锋 饰)如何走上黑社会的道路。少年浩南和包皮、巢皮、山鸡等自小就是邻居一起长大,几人情同手足。一日,浩南班上的女生被蛊惑仔纠缠,浩南抱打不平,因此得罪了黑社会。为了不被黑社会欺负,浩南几人加入了当地的黑社会老大大佬B的门下。在一次斗殴事件中,浩南杀死了另一个黑帮东升帮的一个老大的弟弟,浩南最终被东升帮抓走了,他最后究竟命运如何?8 H. e) i& J6 {8 q9 L

$ M+ U6 c( e0 H5 S- o0 \◎获奖情况  9 {" d2 l% ]- S* \! U
, J/ `; _# a/ O0 r7 T$ {% B7 d
  第18届香港电影金像奖(1999)
2 ^+ V* \' b+ x, Z% P6 B2 x  最佳新演员 谢霆锋
  1. Video
    9 \$ x' B4 {$ _- L8 Q' ^1 i1 R8 M8 u
  2. ID : 1
    $ C$ {. ]" r& L9 Q  h- j
  3. Format : AVC
    7 D' |! x7 [3 }5 w6 ]& M
  4. Format/Info : Advanced Video Codec  k% p5 j) l* ~! [/ _1 U  H
  5. Format profile : Main@L4
    5 b; \0 ?8 K# f+ j( e& ^
  6. Format settings : CABAC / 3 Ref Frames
      ]0 Y. Y7 z! H3 e" |
  7. Format settings, CABAC : Yes2 F  {7 l$ B) U1 L5 V0 E9 o
  8. Format settings, Reference frames : 3 frames* O. }. g' L7 \( b4 W; |" U8 A
  9. Codec ID : V_MPEG4/ISO/AVC
    9 G1 n1 {# t1 J) Y; ?8 J0 h' u: o9 N
  10. Duration : 1 h 55 min
    " o5 E# a3 k0 O: J( ]7 O+ @% i6 @5 m( |
  11. Bit rate mode : Variable8 N' S8 c" F& Z/ t+ b* X
  12. Bit rate : 7 500 kb/s; V- ^: z; s5 H! @9 K
  13. Maximum bit rate : 11.2 Mb/s
    4 _2 ?# Y; ]' Y  V2 [$ P6 g# |
  14. Width : 1 920 pixels$ `9 e0 i$ ^: V5 M& Y, r1 W
  15. Height : 1 080 pixels
    4 R( Q! k7 f: B
  16. Display aspect ratio : 16:9
    & ~' D" ?( i. ~- z
  17. Frame rate mode : Constant
    . o6 V0 t' w9 H" l
  18. Frame rate : 24.000 FPS
    4 m/ r! S9 U9 U$ ?5 \: V
  19. Color space : YUV
    , g# `5 l+ S, U! E4 z
  20. Chroma subsampling : 4:2:0
    - P2 b6 M7 ]4 H4 x: n1 N: t2 i+ [
  21. Bit depth : 8 bits
    $ A/ G4 U! N- N6 q& p) s
  22. Scan type : Progressive1 V% w; l# Z3 n. S0 \
  23. Bits/(Pixel*Frame) : 0.151
    - z& D( o3 `1 K4 Q/ H  ^8 ^: v3 ~
  24. Stream size : 5.89 GiB (96%)
    " u1 y1 v) `. j5 X& v/ v8 H& W
  25. Writing library : x264 core 148 r2715 7e75228( j6 E  E7 {  d. t( J
  26. Encoding settings : cabac=1 / ref=3 / deblock=1:0:0 / analyse=0x1:0x111 / me=umh / subme=10 / psy=1 / psy_rd=1.00:0.00 / mixed_ref=1 / me_range=24 / chroma_me=1 / trellis=2 / 8x8dct=0 / cqm=0 / deadzone=21,11 / fast_pskip=1 / chroma_qp_offset=-2 / threads=8 / lookahead_threads=1 / sliced_threads=0 / nr=0 / decimate=1 / interlaced=0 / bluray_compat=0 / stitchable=1 / constrained_intra=0 / bframes=2 / b_pyramid=0 / b_adapt=2 / b_bias=0 / direct=3 / weightb=1 / open_gop=0 / weightp=2 / keyint=250 / keyint_min=24 / scenecut=0 / intra_refresh=0 / rc_lookahead=48 / rc=2pass / mbtree=1 / bitrate=7500 / ratetol=1.0 / qcomp=0.50 / qpmin=6 / qpmax=51 / qpstep=4 / cplxblur=20.0 / qblur=0.5 / vbv_maxrate=11250 / vbv_bufsize=15000 / nal_hrd=vbr / filler=0 / ip_ratio=1.40 / aq=1:1.00
    ; R* c3 @7 H. t4 a2 ?& B
  27. Default : Yes
    7 `# T! K. B7 X. t5 W4 ^9 O, [0 U
  28. Forced : No- Z% ~. \& ?. O( v( {0 x& w4 M9 E
  29. Statistics Tags Issue : mkvmerge v44.0.0 (\'Domino\') 64-bit 2020-03-19 20:27:46 / mkvmerge v44.0.0 (\'Domino\') 64-bit 2020-03-19 20:27:46 / UTC 2019-12-13 13:59:03
    " O- ~5 {7 Y4 O* l0 u9 f
  30. FromStats_BitRate : 7468523
    . {/ y# O+ F, D& }
  31. FromStats_Duration : 01:55:12.917000000
    ! e% w; d2 V8 G: j
  32. FromStats_FrameCount : 165910
    & Y" _9 p& E/ N) ^
  33. FromStats_StreamSize : 6453660592; f4 t- J* X2 a+ p' A( j: w4 ]

  34. ( \& z( ~7 ^% k2 a+ T3 X5 p
  35. Audio4 M8 K/ d! x: b2 Y, X: B
  36. ID : 23 m1 K/ U1 u- r
  37. Format : E-AC-3
    6 d5 ]1 ~2 R, y" @4 N
  38. Format/Info : Enhanced AC-3
    $ _5 j' ?7 V$ E0 P) g; P2 Y
  39. Commercial name : Dolby Digital Plus
    2 Y+ G8 n* U5 \6 a
  40. Codec ID : A_EAC3+ x1 @/ H. l, j5 L, m2 y+ q
  41. Duration : 1 h 55 min
    6 B% n* r: O' Q% M1 U
  42. Bit rate mode : Constant
    ! q4 R; F) T. m% z( m4 g
  43. Bit rate : 128 kb/s4 G" A1 R3 }5 F; t# x
  44. Channel(s) : 2 channels
    6 a6 ?* P1 B' u6 g
  45. Channel layout : L R
    " T) i# Z; X. y5 N3 W6 p
  46. Sampling rate : 48.0 kHz7 J) j. C% I6 I& s9 Q, e
  47. Frame rate : 31.250 FPS (1536 SPF)
    5 ?2 ^5 Q3 l2 `% M. ]0 A
  48. Compression mode : Lossy
    : E( h, b: f; \- M6 D9 O( d# J
  49. Stream size : 105 MiB (2%)
    . r6 e: M9 p; w0 N  w8 j8 ?: K
  50. Title : Chinese
    + O$ q% X  `+ m6 c
  51. Service kind : Complete Main
    % x6 s" f/ S5 e3 P- F
  52. Default : Yes
      k" s% L& @! z; L
  53. Forced : No9 c/ Q5 [" @/ x! s8 {
  54. Encoded date : UTC 2019-12-13 13:59:03: i; o0 i! p6 u7 N% G) X6 u
  55. Statistics Tags Issue : mkvmerge v44.0.0 (\'Domino\') 64-bit 2020-03-19 20:27:46 / mkvmerge v44.0.0 (\'Domino\') 64-bit 2020-03-19 20:27:46 / UTC 2019-12-13 13:59:038 u; \8 P; g( @+ l$ L6 N- K+ C; X
  56. FromStats_BitRate : 128000# L- o2 e, ]9 l5 s
  57. FromStats_Duration : 01:55:13.056000000
    & T' u3 X* U/ w- E; q/ a1 G3 O8 S
  58. FromStats_FrameCount : 216033
    * I2 f8 l% W$ @. N3 [8 k/ w2 }
  59. FromStats_StreamSize : 110608896( N8 n! Z6 [/ M3 t( r  i7 x) J# |: G

  60. ( |! p1 z+ x8 G( r2 Q% p
  61. Text #1
    ) v1 j- [( [0 Z$ G
  62. ID : 3
    + S& ~$ K# ~# S9 z* n
  63. Format : UTF-8
    : ~' ?6 H0 }* n
  64. Codec ID : S_TEXT/UTF8* D( Z# `, ]1 ^4 z2 a' V0 x
  65. Codec ID/Info : UTF-8 Plain Text
    7 Y& A2 v; b4 s" g2 \( b  a
  66. Language : English7 J& x9 b! L/ f* E* |8 U
  67. Default : No
    # ]0 j2 G; J2 q7 `: [
  68. Forced : No5 [2 ^* ~& a. Y' \; s4 s) K
  69. Statistics Tags Issue : mkvmerge v44.0.0 (\'Domino\') 64-bit 2020-03-19 20:27:46 / mkvmerge v44.0.0 (\'Domino\') 64-bit 2020-03-19 20:27:46 / UTC 2019-12-13 13:59:03
    0 C" r9 U/ F; I/ O4 i' z5 q
  70. FromStats_BitRate : 609 u, V! U; W, B' h# W& f: C
  71. FromStats_Duration : 01:53:01.625000000
    & ]4 S; V' J, w, X# l
  72. FromStats_FrameCount : 1748
      x% K1 v* y: i( c1 s
  73. FromStats_StreamSize : 51589) T, U( c, d! m- t1 a

  74. ' O/ x0 s  C# B7 N: Y. l9 Z
  75. Text #2( P+ i/ U( O- G, v7 |
  76. ID : 4; m9 b, ?& \& S# x2 h2 Y4 {! P% K$ j
  77. Format : UTF-8% W1 j1 w: q0 B0 _4 T. a; l
  78. Codec ID : S_TEXT/UTF8
    ; h2 X* J/ w" _$ \
  79. Codec ID/Info : UTF-8 Plain Text2 Y- W( l; v9 C) i
  80. Language : Malay5 m, H7 U; `/ `% A( H
  81. Default : No3 t, x5 i" S/ ]
  82. Forced : No
    . G6 e2 S* H3 F: Q
  83. Statistics Tags Issue : mkvmerge v44.0.0 (\'Domino\') 64-bit 2020-03-19 20:27:46 / mkvmerge v44.0.0 (\'Domino\') 64-bit 2020-03-19 20:27:46 / UTC 2019-12-13 13:59:034 k& {. E& Z0 k1 x6 N
  84. FromStats_BitRate : 56
    & l  A4 _) w" z7 K' X( N
  85. FromStats_Duration : 01:54:12.750000000; f! s9 G+ z. X4 T
  86. FromStats_FrameCount : 17627 j, |- i. {+ f- C
  87. FromStats_StreamSize : 48399! z1 t! ]- `# q* b
  88. / y0 n/ J0 \0 ?" i/ {- C3 w1 H
  89. Text #3% L# O! m8 N" y  V
  90. ID : 5
    / R/ ~+ F1 @$ W: t: g3 ^
  91. Format : UTF-83 i* g; o/ b; M2 c2 J
  92. Codec ID : S_TEXT/UTF8
    + d0 N2 i2 ]& X
  93. Codec ID/Info : UTF-8 Plain Text
    4 |7 w9 X' o" l, ^! }- E3 p
  94. Language : Vietnamese
    - F. i0 ^0 x5 q) N' {( t5 b
  95. Default : No% o  m4 ~, S6 f+ K* B* n
  96. Forced : No4 ~! L( T3 g( ]: ?- Q1 ]
  97. Statistics Tags Issue : mkvmerge v44.0.0 (\'Domino\') 64-bit 2020-03-19 20:27:46 / mkvmerge v44.0.0 (\'Domino\') 64-bit 2020-03-19 20:27:46 / UTC 2019-12-13 13:59:035 P: N  b* Y, U5 }6 `7 f+ F
  98. FromStats_BitRate : 81
    ' l/ J% }$ l. _  m8 x( i) Z7 T) _7 H
  99. FromStats_Duration : 01:54:12.875000000  a/ g4 P1 I6 ^( a4 w7 w+ k4 p) Q
  100. FromStats_FrameCount : 17557 ^" W4 C& O* G3 z( m5 }
  101. FromStats_StreamSize : 701680 \$ y) I- c: @6 l
  102. 6 c! z  z+ \& B: P2 L
  103. Text #4
    ( o& E: ^, d+ }
  104. ID : 6. b7 o( j7 D/ C0 x: d( t) e
  105. Format : UTF-8
    * S$ T4 ~8 B3 B7 ], ]7 r' Q
  106. Codec ID : S_TEXT/UTF8. [$ e8 v3 R. _% k% V! ]+ L
  107. Codec ID/Info : UTF-8 Plain Text2 P: c4 G0 [, Q
  108. Title : Traditional1 ?  M* H$ `' l# N, O) W7 e+ N
  109. Language : Chinese
      u) E) j- y8 q  G
  110. Default : No4 i; \2 m5 a1 @5 y
  111. Forced : No
    9 J- h1 t. a( M7 ]- a& A2 g  n
  112. Statistics Tags Issue : mkvmerge v44.0.0 (\'Domino\') 64-bit 2020-03-19 20:27:46 / mkvmerge v44.0.0 (\'Domino\') 64-bit 2020-03-19 20:27:46 / UTC 2019-12-13 13:59:03
    3 H& \' E3 x. f, T7 A5 R
  113. FromStats_BitRate : 53  l+ A% o/ h4 i! r6 Y
  114. FromStats_Duration : 01:52:22.2920000004 ]5 R9 b* z. C7 h
  115. FromStats_FrameCount : 1870( ?% _7 g3 C/ M) F" o
  116. FromStats_StreamSize : 44984
复制代码
! H- w4 O$ u; a# q* @
9 F8 j! b  ]6 V6 K" k1 o. S4 X
( T. a8 o/ ~( b# D& K/ j' @  @
2 y5 Q' r- }8 b- r/ s

5 s# w9 j& }+ M! l2 u
游客,如果您要查看本帖隐藏内容请回复  VIP可免回复查看隐藏内容 详情请点击
发表于 2020-3-31 00:59:21 | 显示全部楼层
游客无权限浏览该内容
发表于 2020-3-31 09:01:24 | 显示全部楼层
游客无权限浏览该内容
发表于 2020-3-31 13:13:23 | 显示全部楼层
游客无权限浏览该内容
发表于 2020-3-31 16:59:34 | 显示全部楼层
游客无权限浏览该内容
发表于 2020-3-31 18:22:13 | 显示全部楼层
游客无权限浏览该内容
发表于 2020-3-31 21:40:15 | 显示全部楼层
游客无权限浏览该内容
您需要登录后才可以回帖 登录 | 立即注册

本版积分规则

封号公示|电子邮件联系本站hd1tj.net#[换成@]outlook.com|免责申明|HD一条街

GMT+8, 2021-11-30 05:32

Powered by Discuz! X3.4

Copyright © 2001-2021, Tencent Cloud.

快速回复 返回顶部 返回列表