HD一条街

 找回密码
 立即注册
搜索
查看: 2597|回复: 15

[1080p] 夜叉 Yasha.1985.JAPANESE.1080p.AMZN.WEBRip.DDP2.0.x264-SbR 12.77G

[复制链接]
发表于 2020-3-25 22:51:05 | 显示全部楼层 |阅读模式

马上注册,结交更多好友,享用更多功能,让你轻松玩转社区。

您需要 登录 才可以下载或查看,没有帐号?立即注册

x
' h1 F7 l" z' R3 [" p  I1 i
                               
登录/注册后可看大图

( ]5 O8 X  I2 A' X. `$ Z7 B$ r4 h; B& E& S. V! ?/ D
◎译  名 Yasha
" [: O8 Z- s, r* M0 s3 b7 _◎片  名 夜叉
3 i6 W/ {( E" `0 i◎年  代 1985
8 L; Y! |' ^7 s◎产  地 日本
* R' `1 D0 `# Z◎类  别 剧情 / 犯罪
  w( M% y8 \; ?4 o9 \: U# g9 Y◎语  言 日语8 n/ [) ]+ f. }9 q
◎上映日期 1985-08-31(日本)2 K# h+ o' t/ w# G9 y! [
◎IMDb评分  6.8/10 from 151 users. Y3 E; ]3 }* b
◎IMDb链接  https://www.imdb.com/title/tt0090349
/ s: }  Y( E, e4 |: U9 t; g◎豆瓣评分 8.1/10 from 1499 users' n8 d1 O! q0 J. q8 F
◎豆瓣链接 https://movie.douban.com/subject/1303609/
* i  e4 k6 j" [, E! v◎片  长 127分钟
/ H$ a( I! b. w1 `! _8 k0 [/ X# V% I◎导  演 降旗康男 Yasuo Furuhata' }; R3 G/ D' D  I0 p8 U7 l: [; C. p
◎编  剧 中村努 Tsutomu Nakamura# w/ v* L! U8 `+ p$ H
◎主  演 高仓健 Ken Takakura: [- p2 u, [# V8 P- u$ k
       石田良子 Ayumi Ishida
" B# `, d8 i( [       岩崎裕美 Hiromi Iwasaki
! ?4 ]9 i; e0 A$ s       乙羽信子 Nobuko Otowa
+ i0 C6 P* H* U7 T       田中裕子 Yûko Tanaka3 M) h8 [) S' p! m6 R7 D9 z& M2 F
       北野武 Takeshi Kitano* v  L: _. z/ A' d1 u6 `
       田中邦卫 Kunie Tanaka0 X0 J- [2 G  G$ {& o( d
       竹城明 Aki Takejo
. h' n% Q% [% J% Y: W       奈良冈朋子 Tomoko Naraoka
8 M: r: x8 q! \! N1 B! e# f; I5 F1 X       小林稔侍 Nenji Kobayashi
) P  z' `/ |$ O2 v* v7 Y' s       大泷秀治 Hideji Ôtaki( P$ [8 o! x4 c: e6 z
       檀富美 Fumi Dan
* |  R! g! {7 O' y0 u       寺田农 Minori Terada
7 e  u1 c. r& L5 V2 N- P# I" k/ F       真梨邑惠 Kei Marimura5 V) c# ^8 P% k7 x8 V) B
       丹古母鬼马二 Kibaji Tankobo: h5 Q  q1 L" w7 S; B- H
- F" e: H# g2 _: |6 P3 G
+ ~; w+ y9 u4 j7 M, t; o
◎标  签 高仓健 | 日本 | 日本电影 | 北野武 | 降旗康男 | 田中裕子 | 剧情 | 1985  f8 D3 a& [  m) Q5 {
1 E4 L2 c  R8 ?  U! J
◎简  介  , m( [3 [- V# [

3 W& e" h/ X$ Z* ]  北国渔港小镇,沉默寡言的修治(高倉健 饰)和妻子冬子(いしだあゆみ 饰)一家几口人过着平静的生活。虽然已在此生活十多年,但是即便修治最为亲近的朋友,对他的过去也知之甚少。当年修治曾是大阪夜叉组一名猛将,风光无两之时致令唯一的妹妹被敌对帮派杀害。从此他隐姓埋名,带着妻子来到这个小镇靠打鱼为生。
% D6 }$ r; u# k3 c2 x  C  某天,那清秀的女子萤子(田中裕子 饰)来到小镇开设萤火虫酒吧。渔夫们蜂拥前来,热烈捧场。萤子的男人矢岛(北野武 饰)粗暴无礼,赌毒俱全,他引诱渔民们沉湎赌博和毒品,为此与劝阻他的修治发生冲突,最终导致修治的黑道身份被当众揭穿。另一方面,修治也陷入对萤子的迷恋,平静生活再起波澜……
  1. Video) |7 D, I' Y) p* A
  2. ID : 1
    4 V/ }7 P* d- |% U$ n% E  o, }; Q4 a
  3. Format : AVC$ M3 W, }$ b. M4 _1 ~& k  t2 `
  4. Format/Info : Advanced Video Codec" r* _8 x# R5 Z) h
  5. Format profile : High@L43 I5 p; Q! Q  V' m
  6. Format settings : CABAC / 4 Ref Frames8 ^6 I) J6 P( G1 b! f& r+ j- i+ F
  7. Format settings, CABAC : Yes
    : s) k3 K9 L( `( z
  8. Format settings, Reference frames : 4 frames
    - s8 ?/ d$ f- n: L& B
  9. Codec ID : V_MPEG4/ISO/AVC. ]& ]1 D* v: [: b, j! ^
  10. Duration : 2 h 6 min
    ' q4 t  j5 P! [1 E( j
  11. Bit rate mode : Variable
    ( B/ t" v0 k; i" t! ]
  12. Bit rate : 14.2 Mb/s3 r( E+ }  }* a. C, c
  13. Maximum bit rate : 15.0 Mb/s
    . q/ t3 r0 X7 U. P4 n" Y
  14. Width : 1 920 pixels
    9 ?7 H: d+ N  O8 L9 T5 H. E
  15. Height : 1 080 pixels
    4 N. \2 C' X4 t6 I
  16. Display aspect ratio : 16:9% [* C- T% S% a2 c$ l: U4 g
  17. Frame rate mode : Constant: i( Y: H7 ^/ L: r* U% L  p% z. _
  18. Frame rate : 23.976 (24000/1001) FPS1 c! w" j5 U1 ~* b" r5 A, [
  19. Color space : YUV/ i2 K; ?" i' U2 O* G( A3 ~
  20. Chroma subsampling : 4:2:0$ m! R' R7 A* [) h, j
  21. Bit depth : 8 bits! x0 o$ v. P# k  C- X9 j
  22. Scan type : Progressive
    $ ?5 w% e# M$ r- \- I
  23. Bits/(Pixel*Frame) : 0.285
    7 q/ ]# g% Q% N% e' q7 L( n- f0 [0 Y% ~
  24. Stream size : 12.6 GiB (98%)) q2 m; x2 M# ], `
  25. Writing library : x264 core 148 r2623 d5b23749 F# l3 m, Z6 L5 W# K1 j7 H
  26. Encoding settings : cabac=1 / ref=4 / deblock=1:-1:-1 / analyse=0x3:0x133 / me=umh / subme=9 / psy=1 / psy_rd=1.00:0.15 / mixed_ref=1 / me_range=24 / chroma_me=1 / trellis=2 / 8x8dct=1 / cqm=0 / deadzone=21,11 / fast_pskip=1 / chroma_qp_offset=-3 / threads=34 / lookahead_threads=5 / sliced_threads=0 / nr=150 / decimate=1 / interlaced=0 / bluray_compat=0 / constrained_intra=0 / bframes=8 / b_pyramid=2 / b_adapt=2 / b_bias=0 / direct=3 / weightb=1 / open_gop=0 / weightp=2 / keyint=120 / keyint_min=61 / scenecut=0 / intra_refresh=0 / rc_lookahead=120 / rc=crf / mbtree=1 / crf=18.0 / qcomp=0.60 / qpmin=0 / qpmax=69 / qpstep=4 / vbv_maxrate=15000 / vbv_bufsize=31250 / crf_max=0.0 / nal_hrd=vbr / filler=0 / ip_ratio=1.40 / aq=3:1.00( Z0 _0 L# \; k: U
  27. Language : Japanese9 ^  K( P& b- Z0 W: Y/ h  H' R2 x# u
  28. Default : Yes
    ; R+ s9 O# V3 _* C, K0 D! p
  29. Forced : No% b+ @2 e2 p7 o" g
  30. Color range : Limited; l8 p5 O* `- s# T+ R  ~% v
  31. Color primaries : BT.709
    ( O$ j% F4 c0 r" W
  32. Transfer characteristics : BT.7094 N/ u' g7 T4 o: l
  33. Matrix coefficients : BT.709
    $ O4 M3 d8 @; T
  34. " z  u$ [1 O9 H8 ?  _! v
  35. Audio; c! ^: W" O( q" P
  36. ID : 2
    3 x2 f8 i6 j' B" Y6 ]
  37. Format : E-AC-3
    0 P/ p5 h( F+ L$ ^; @
  38. Format/Info : Enhanced AC-3
    6 @  ]! D" ?/ V6 n
  39. Commercial name : Dolby Digital Plus
    5 T7 t5 X/ Y# ]0 w& L) {- F
  40. Codec ID : A_EAC3
    - v& d" x+ g; [: S
  41. Duration : 2 h 6 min
    0 P- ~! k" P: s
  42. Bit rate mode : Constant
    4 a7 x$ g, o. S% w
  43. Bit rate : 224 kb/s
    6 J4 u$ ]8 Q9 Z% y, n1 L
  44. Channel(s) : 2 channels
    4 m; z5 p! \: q3 _- {' l; V+ |
  45. Channel layout : L R  w; y7 X2 f) m( [* h6 }) ^- K
  46. Sampling rate : 48.0 kHz0 b0 S# [- D/ x
  47. Frame rate : 31.250 FPS (1536 SPF)
    & ^& b. W; x4 d* B# b  V. O
  48. Compression mode : Lossy" t9 o$ H/ n% `- o6 L: k
  49. Stream size : 203 MiB (2%)
    ; o# v4 m0 P* Z& Z. b/ ]0 f
  50. Language : Japanese
    3 _% Q' l7 U7 M" z1 c% h+ f6 h
  51. Service kind : Complete Main
    * u. ?" `, T3 A8 I2 i
  52. Default : Yes
    " B1 c' _3 B; X
  53. Forced : No
      D  L* h: a3 l- I$ w% Z& O
  54. 7 Q! j) N! f% Z+ n3 G/ ~8 k
  55. Text- T8 \& {% y) D5 O- Y
  56. ID : 3: t$ q3 b2 w( ?  F3 I7 y2 Q) p
  57. Format : UTF-8
    + ?8 X# b' |4 M$ v! {
  58. Codec ID : S_TEXT/UTF8
    " k& @" \. ~# V; t: X5 O
  59. Codec ID/Info : UTF-8 Plain Text
    * a4 E% d" g/ n/ g' m7 Q
  60. Duration : 2 h 6 min: O0 g+ d/ i" E4 N1 m8 E: p0 z; A
  61. Bit rate : 21 b/s
    5 x! L& i+ B) d* j
  62. Count of elements : 1035
    ; V8 v- O6 J; g$ |# g
  63. Stream size : 20.4 KiB (0%)
    3 P  |$ F2 _+ Z, G
  64. Language : English2 p( w) V! f3 ~# W5 C8 R
  65. Default : Yes' i" a$ \4 p# R6 i: v% s
  66. Forced : No  i% L& Q* r$ J0 H$ |5 J4 |7 J

  67. 6 F% B+ T0 T# P
  68. Menu
    $ k. {+ u2 l" r! @: _5 A
  69. 00:00:00.000 : en:Chapter 13 f1 J, @7 W/ c
  70. 00:05:04.095 : en:Chapter 2
    5 l3 h3 j6 k' N& D; m! h  r  i
  71. 00:09:10.550 : en:Chapter 3
    / W4 C6 j' ?7 ?, w) n
  72. 00:14:19.776 : en:Chapter 4# u. W8 k5 y* u& @  O6 H$ w6 l" J
  73. 00:18:05.918 : en:Chapter 5/ S& k3 b, {1 B- D8 b) v
  74. 00:22:19.922 : en:Chapter 6: c# ]9 {* S/ @" z- v+ @
  75. 00:30:13.103 : en:Chapter 7
    2 h* M9 G& c- `) Z
  76. 00:38:08.036 : en:Chapter 8
    ' Y8 Z$ Z" T9 N. S
  77. 00:43:55.424 : en:Chapter 9
    - l5 P: ?- C0 ]$ o/ N
  78. 00:46:47.638 : en:Chapter 10( ~' e/ Q) v  D6 N8 s+ I, O
  79. 00:49:04.150 : en:Chapter 11
    + W7 `3 M5 }/ p1 i: Z  \
  80. 00:58:13.281 : en:Chapter 12# s8 i5 g( {8 y( P+ Z: y/ L0 T
  81. 01:00:05.477 : en:Chapter 13! b5 [' ]4 r0 K* N
  82. 01:05:47.318 : en:Chapter 14
    ! I5 D6 j8 M% a/ U  `: B& T) t0 U
  83. 01:14:13.699 : en:Chapter 15
    ) }! h7 ?! q, m/ E4 G
  84. 01:18:26.493 : en:Chapter 16
    ( }9 B; ^. ]/ h- f6 c( o
  85. 01:20:44.298 : en:Chapter 17
    ( p7 I) Y; |8 Z. N+ q
  86. 01:23:32.466 : en:Chapter 18( z7 j, o8 c9 U2 z, d( ]
  87. 01:26:06.953 : en:Chapter 19
    # _. u! E$ B6 I; S/ s) |  P3 |: p* i
  88. 01:32:58.656 : en:Chapter 20
    . h4 D( w! m( h
  89. 01:41:36.716 : en:Chapter 21
    ( Y8 Z/ R# t. d  A% u6 C0 T- i
  90. 01:47:39.828 : en:Chapter 22( ?0 k8 D& g; |; s3 \2 h, T
  91. 01:55:22.415 : en:Chapter 23
    ; \1 P2 s: C' l) d4 P5 ^
  92. 02:02:11.449 : en:Chapter 24
复制代码
( v5 q$ b4 ?+ A* R
" g( D2 g! c2 Q
) K$ A5 C0 k  w" }" P

6 J/ `# p3 Q  W' y) U7 Q0 f2 Z$ Z% @' b9 V- u  R) Y+ }1 U

: f6 F/ L, p4 {6 T
游客,如果您要查看本帖隐藏内容请回复  VIP可免回复查看隐藏内容 详情请点击
发表于 2020-3-26 00:03:20 | 显示全部楼层
游客无权限浏览该内容
发表于 2020-3-26 00:40:24 | 显示全部楼层
游客无权限浏览该内容
发表于 2020-3-26 04:07:36 | 显示全部楼层
游客无权限浏览该内容
发表于 2020-3-26 22:24:37 | 显示全部楼层
游客无权限浏览该内容
发表于 2020-3-28 09:30:22 | 显示全部楼层
游客无权限浏览该内容
发表于 2020-3-28 11:12:11 | 显示全部楼层
游客无权限浏览该内容
发表于 2020-3-30 22:50:34 | 显示全部楼层
游客无权限浏览该内容
发表于 2020-4-4 00:25:53 | 显示全部楼层
游客无权限浏览该内容
发表于 2020-4-7 07:49:55 | 显示全部楼层
游客无权限浏览该内容
您需要登录后才可以回帖 登录 | 立即注册

本版积分规则

封号公示|电子邮件联系本站hd1tj.net#[换成@]outlook.com|免责申明|HD一条街

GMT+8, 2021-12-3 08:53

Powered by Discuz! X3.4

Copyright © 2001-2021, Tencent Cloud.

快速回复 返回顶部 返回列表