HD一条街

 找回密码
 立即注册
搜索
查看: 383|回复: 8

[欧美] 百人社会实验 第一季[自带中文字幕]100.Humans.S01.1080p.NF.WEBRip.DDP5.1.x264-ASCENDANCE 12.76G

[复制链接]
发表于 2020-3-15 21:37:06 | 显示全部楼层 |阅读模式

马上注册,结交更多好友,享用更多功能,让你轻松玩转社区。

您需要 登录 才可以下载或查看,没有帐号?立即注册

x
  T, j) ?4 X# Q4 F
                               
登录/注册后可看大图
: Y9 _, b- D1 i/ k; e1 t6 S, w5 v' M) K
4 t! S- ~  Q. i* q4 D4 {- n9 n
◎译  名 百人社会实验 第一季
7 D% r2 X7 ]! G3 }4 Y9 h◎片  名 100 humans Season 1% o+ Z: ~, ~3 s+ @: Y: T/ s
◎年  代 2020# Y) K  o3 {) Q( r+ w; E- w$ r
◎产  地 美国
' A) L5 U1 l% K0 i◎类  别 真人秀. V: M5 i, z+ i2 h+ ?% z
◎语  言 英语8 L, [& D* I; X
◎上映日期 2020-03-13(美国)5 K2 i9 u1 O8 ^
◎IMDb评分  5.4/10 from 52 users
: `6 |& \% L: K8 q◎IMDb链接  https://www.imdb.com/title/tt11823088- p) G% j$ r: R( {6 K, k. v
◎豆瓣评分 0/10 from 0 users
- t+ _, a. j7 X2 |$ D6 T+ y◎豆瓣链接 https://movie.douban.com/subject/34992760/2 K9 |3 p6 g* S) }" U7 v
◎集  数 8
" C9 ?& K+ h% s. x  k◎主  演 Ryan Zamo% T* i% U; V9 N4 R" g
       Brooke Somer: c' i4 i! s. a. I4 L
       Alfredo Tavares6 J) P, ~  b$ ]( W  t

# q( b' S/ B/ F' O& `- b; ~
; e: |: `4 E$ n/ R" ^$ Q/ h◎标  签 美国 | Netflix | 2020 | 真人秀 | 电视剧 | 综艺 | 纪录片 | RealityShow0 u4 N6 u$ a2 K4 [3 r

& N7 v. B0 b4 X2 W◎简  介  " t) v2 W6 |; [5 i! i

2 `6 |2 }9 U: r9 |  }$ O2 q8 e! S  一百名背景各异的强人参与了多种趣味实验,借以探究年龄、性别和幸福感等人性奥秘。
  1. Video
    . ^7 a4 h- a$ j' ~
  2. ID : 1% \8 F5 C2 s/ o- C+ ~
  3. Format : AVC
    # V, s1 s  q- [: i+ I+ g
  4. Format/Info : Advanced Video Codec( ]5 n1 x3 [8 u  r$ m5 p8 ^2 ~$ n
  5. Format profile : Main@L4  k  a# k& s4 k5 S* z
  6. Format settings : CABAC / 3 Ref Frames
    + I' ~! a% l$ O
  7. Format settings, CABAC : Yes
    ' C' E5 D; a2 h' D9 `! T
  8. Format settings, Reference frames : 3 frames
    . [5 p( X+ l6 D  I% S
  9. Codec ID : V_MPEG4/ISO/AVC
    8 \) H# ^2 `/ K. \7 F
  10. Duration : 37 min 42 s! j5 V0 w& S% I( ]
  11. Bit rate mode : Variable4 E( r8 l* W* ~
  12. Bit rate : 7 150 kb/s( a3 r7 z9 Q, F9 t" W
  13. Maximum bit rate : 10.7 Mb/s
    3 E$ m) G) t: W$ D2 U
  14. Width : 1 920 pixels4 r1 ^% \. m: I$ s( C/ X# S7 X# z5 W/ S
  15. Height : 1 080 pixels; K6 c3 S2 {( T8 q
  16. Display aspect ratio : 16:9
    + P, e1 H/ q8 s
  17. Frame rate mode : Constant) \7 Q" n( I6 Z; l+ V# \' |
  18. Frame rate : 23.976 (24000/1001) FPS" [6 a% R% F! C2 J
  19. Color space : YUV! q  C! C( k2 L7 I) H7 C
  20. Chroma subsampling : 4:2:06 y% ~  x  i3 Z+ U9 B) Y( a7 X
  21. Bit depth : 8 bits
    , T0 g! a' y% v6 f: T2 J
  22. Scan type : Progressive
    8 u" L4 \) }4 G: i
  23. Bits/(Pixel*Frame) : 0.1442 _) h  Y$ n- _. h* f
  24. Stream size : 1.84 GiB (92%)
    ' M% L" v0 t& s6 W$ k8 T" y7 s9 N
  25. Writing library : x264 core 148 r2717 0d2410d
    % n" b5 Y$ H6 h- n4 M
  26. Encoding settings : cabac=1 / ref=3 / deblock=1:0:0 / analyse=0x1:0x111 / me=umh / subme=10 / psy=1 / psy_rd=1.00:0.00 / mixed_ref=1 / me_range=24 / chroma_me=1 / trellis=2 / 8x8dct=0 / cqm=0 / deadzone=21,11 / fast_pskip=1 / chroma_qp_offset=-2 / threads=6 / lookahead_threads=1 / sliced_threads=0 / nr=0 / decimate=1 / interlaced=0 / bluray_compat=0 / stitchable=1 / constrained_intra=0 / bframes=2 / b_pyramid=0 / b_adapt=2 / b_bias=0 / direct=3 / weightb=1 / open_gop=0 / weightp=2 / keyint=250 / keyint_min=23 / scenecut=0 / intra_refresh=0 / rc_lookahead=48 / rc=2pass / mbtree=1 / bitrate=7150 / ratetol=1.0 / qcomp=0.50 / qpmin=6 / qpmax=51 / qpstep=4 / cplxblur=20.0 / qblur=0.5 / vbv_maxrate=10725 / vbv_bufsize=14300 / nal_hrd=vbr / filler=0 / ip_ratio=1.40 / aq=1:1.00
    ( S% d& A- r; g/ o( u+ b' S
  27. Default : Yes
    7 _( f$ n& {; h. q
  28. Forced : No& ]1 j1 h; N* P# C7 o
  29. 7 Z8 w' f" H7 l1 y# g2 o, f1 t
  30. Audio9 ~' u1 ^4 B2 G% V. j2 Z
  31. ID : 2  r% L1 R6 u4 Y  I- _2 x* ~
  32. Format : E-AC-3
    + U5 V2 _: Q' Q" A; A
  33. Format/Info : Enhanced AC-37 Y5 r* B, ?+ J
  34. Commercial name : Dolby Digital Plus) s- i+ T# f8 H8 Y- x
  35. Codec ID : A_EAC3
      Q8 s# U& C$ {) y# Q( [# l
  36. Duration : 37 min 42 s; ~" j. K8 V! k; E2 h) C
  37. Bit rate mode : Constant3 Y' ?- f6 Q& a: H6 p
  38. Bit rate : 640 kb/s9 \' r$ p7 N. A0 H3 z
  39. Channel(s) : 6 channels
    + m% O$ V+ y8 ~: T8 k0 W
  40. Channel layout : L R C LFE Ls Rs, d0 r" T6 X: w! y, P! ]% z
  41. Sampling rate : 48.0 kHz
    ( ^7 Q8 P# R! k6 N
  42. Frame rate : 31.250 FPS (1536 SPF)
    6 l# m  l/ x7 _( M0 s6 s
  43. Compression mode : Lossy2 H% K' G3 a7 j. C1 c+ n
  44. Stream size : 173 MiB (8%)
    : Z" ^' V4 S9 h
  45. Title : English& U* |# P  T! a4 s4 \8 N/ P* |
  46. Language : English
    2 O1 F3 s$ {$ a$ C% F9 z, [4 O; p
  47. Service kind : Complete Main/ r4 M, X  n. J* M
  48. Default : Yes1 [# H1 b) a6 j  h, i$ F: k
  49. Forced : No
    2 q! z3 |1 a# v2 P
  50. % _+ E* M) S9 o! I& u7 T0 T; m; E
  51. Text #18 r8 v9 C4 Q" e8 I% a' ]
  52. ID : 34 C9 b5 L" M2 w# ~- |# q
  53. Format : UTF-8
    8 N( i9 h5 ~$ t) g: ]
  54. Codec ID : S_TEXT/UTF8
    $ v( Y( ^1 d( b! w0 J' L% }
  55. Codec ID/Info : UTF-8 Plain Text
    0 D2 V* a" |/ b, @' _# d3 a
  56. Duration : 24 min 59 s
    0 K2 j& }0 i: Q) q
  57. Bit rate : 0 b/s
    - ?, S- B9 g  J6 {1 Z0 p) C% F) |
  58. Count of elements : 33 R; B/ p/ ]. t& T+ B" i8 Z
  59. Stream size : 70.0 Bytes (0%)8 K" F. j8 Z! M; L# H: e; h2 }
  60. Title : English [Forced]
    . P+ _  F$ M  V: u1 w* O
  61. Language : English
    - p. Z* L) }0 w& \0 u
  62. Default : No+ p0 v, y" G6 {& o8 o! l9 o9 X
  63. Forced : Yes. z2 l7 t3 I5 i& c7 y/ _3 _. f- u/ \

  64. $ S0 I3 h! N% R2 J
  65. Text #2
    . X! r9 X: C5 {& J0 G' a
  66. ID : 45 q) D% G( z! M: _; N) @! x
  67. Format : UTF-8+ k$ g: `$ {* h: I
  68. Codec ID : S_TEXT/UTF8/ _& z3 W8 ^7 v$ I" G1 N8 F
  69. Codec ID/Info : UTF-8 Plain Text
      h% U' u; E, d& w8 H) s
  70. Duration : 36 min 7 s* U) b9 y6 u1 O, W) z8 H
  71. Bit rate : 124 b/s
    " G, X$ G6 i3 O* O" f0 K' v
  72. Count of elements : 8505 t. `! W9 z/ N
  73. Stream size : 33.0 KiB (0%)2 @5 D) g  N) w: t$ q& T  K! G
  74. Title : English [Full]' m3 V6 Q" ?- ]# y
  75. Language : English" Q3 K6 @2 J) [
  76. Default : No- ~" U" o% P" n) ?9 Y, N+ F
  77. Forced : No
    6 ?% [& ?+ u: S( |! L* i$ Q% {' b) Q

  78. 2 _: J4 N- U/ F: `. H% }/ G- y3 R. Q
  79. Text #3
    # @7 l* c2 `3 g6 g( f0 ^. ?% l
  80. ID : 5
    , t; S6 G7 B6 I, k) P7 Y  o- p
  81. Format : UTF-83 |% F. D! J$ v: a
  82. Codec ID : S_TEXT/UTF8
    " m1 h/ o* r: R
  83. Codec ID/Info : UTF-8 Plain Text
    7 }- i  `8 k6 J/ F8 `
  84. Duration : 36 min 47 s1 s# D- K" x! N( o$ g, |2 K: d4 A
  85. Bit rate : 108 b/s# _1 W: `; d4 e/ b8 F' J
  86. Count of elements : 7731 V4 v4 q+ \% r+ l- h& }
  87. Stream size : 29.1 KiB (0%)8 I" Q; E6 C" c* Q2 J" [% z/ t
  88. Title : Castilian [Full]
    . L. \, U; y- N9 I% W2 ^% m$ T9 V: c
  89. Language : Spanish0 [8 S3 R  v' G6 U
  90. Default : No' ^9 g8 B! I8 p6 j
  91. Forced : No
    " P$ W. t* A" p1 P1 E
  92. ! u. g/ L; F" T3 X$ Y% |/ S
  93. Text #4% W, Z( R0 O, R5 R- U9 b! {
  94. ID : 6  ]$ M3 B1 @6 [3 t& d* ?7 l" R
  95. Format : UTF-8
    3 b) d: O/ N) @+ v( i1 t" D. J: |# K
  96. Codec ID : S_TEXT/UTF8
    % n; D) a: S, a* \2 g+ i
  97. Codec ID/Info : UTF-8 Plain Text6 N' j" f6 @" Y. X- h
  98. Duration : 36 min 47 s6 y: h" L' g) s  W
  99. Bit rate : 106 b/s
    $ l7 F4 {4 t5 {8 G& @
  100. Count of elements : 767
    ' U# h' ~$ W0 v- C9 Q- J) F' s! |
  101. Stream size : 28.7 KiB (0%)% j# {% |/ R% p  m/ z
  102. Title : Spanish [Full]0 g0 {7 [  }4 Z4 A6 \! @, q) y; M
  103. Language : Spanish
    . y- L; t& i; c. A
  104. Default : No
    9 t' i& N- c' k5 n- [
  105. Forced : No8 I! ^" c. [9 Y+ v) F  Y. h
  106. ( M2 T: r# d* p9 ~; r2 A
  107. Text #5' _& r  o3 i! r# H$ \- p/ b, J$ C
  108. ID : 7
    2 r# J1 B# d  z. L, F
  109. Format : UTF-8  G6 `0 f0 I  S) p% F
  110. Codec ID : S_TEXT/UTF8+ I  Y8 J! G: ~6 L$ N" y6 v1 k6 h
  111. Codec ID/Info : UTF-8 Plain Text
    9 {$ q/ A4 i: u3 g. D( u7 f  r
  112. Duration : 36 min 47 s, ~7 U( S3 N) o
  113. Bit rate : 106 b/s
    * a- S5 T9 F  D0 h' e
  114. Count of elements : 760
    ! g- I7 o* ~3 x  H
  115. Stream size : 28.7 KiB (0%)
    ; Q' x2 }- b$ V4 L1 b0 p5 i0 u
  116. Title : French [Full]
    % E2 G% Y& W1 T! T7 D0 Z
  117. Language : French& l3 h, g8 z: G
  118. Default : No3 \) h) g" I$ y( o9 q7 M8 n5 ^/ r
  119. Forced : No; V6 _7 Z; ]9 T" g. G
  120. " B* @. c; p1 F- J1 f
  121. Text #6
    6 D3 [" r1 Q9 K9 O- t; J
  122. ID : 8( ?. F" `) x  [* `( f* ]) o: C
  123. Format : UTF-8
    ( @6 l: V; y& }& R( c: C
  124. Codec ID : S_TEXT/UTF8
    $ V. i+ }( ]; ]) }2 H- T. }7 U( }
  125. Codec ID/Info : UTF-8 Plain Text
    3 e  h1 c$ E' F5 n4 d. y
  126. Duration : 36 min 46 s5 h8 B* P* x, H( I3 k+ b" S8 w+ m
  127. Bit rate : 97 b/s
    ; e4 y0 }* w! L( N- |
  128. Count of elements : 704+ d: g8 f2 L! F, I3 m( f
  129. Stream size : 26.3 KiB (0%)
    6 N0 y( W- k4 n( W0 {8 d
  130. Title : German [Full]" k+ K/ p" `  C! ^% f- j$ |
  131. Language : German( H/ _! L7 w8 q1 t9 }
  132. Default : No
    7 w# B4 Z4 G/ S: b8 D/ ?
  133. Forced : No9 H( y5 ~" W) [( b, t  X, X( O

  134. - P. X3 S; N1 C/ `% g5 [
  135. Text #7% R; B( s' v9 F0 r
  136. ID : 9& ^, L. m/ k2 r: V2 v9 J
  137. Format : UTF-8  w7 f# q- R" H6 x- J! q
  138. Codec ID : S_TEXT/UTF84 f: ~6 |" D0 B  Q( g1 [0 S' a( B
  139. Codec ID/Info : UTF-8 Plain Text
    % }5 F6 N, ?5 D% u4 n3 R
  140. Duration : 36 min 48 s
    . }: S: q6 k8 q6 ~# O. ^, B6 _& X
  141. Bit rate : 101 b/s
    0 z4 Z& z' C. F9 {/ n
  142. Count of elements : 7598 W/ z9 u5 p' `! P- ~# @; E- Y
  143. Stream size : 27.4 KiB (0%)1 u. `3 w5 k5 H; X
  144. Title : Italian [Full]1 D! s, {* A' B* b- _: z/ t
  145. Language : Italian
    2 b" B' C5 [1 K# L- h9 X3 x! [! x
  146. Default : No# R6 Y6 d1 U& c  B# ]
  147. Forced : No
    3 `4 u9 Z' e, @5 u9 v. B2 ~$ Y

  148. $ k" z) h! B- |! `
  149. Text #87 _2 n$ B, {" @  R* q% X6 `
  150. ID : 10+ g# D' y, e8 m2 V4 S1 ~& d' g) h
  151. Format : UTF-8
    + ^; @: J3 p# M# `/ d4 N7 p
  152. Codec ID : S_TEXT/UTF8( M4 @% x* S) g* O
  153. Codec ID/Info : UTF-8 Plain Text% i* S9 I0 _+ \- z# b$ {
  154. Duration : 36 min 47 s
    2 r2 G. i! d' ~' i
  155. Bit rate : 98 b/s: X- Y9 g  Y/ A! I  ~8 m6 z/ v4 p. d
  156. Count of elements : 7143 P- P! B1 D% y( v8 ^, y* g* L; c
  157. Stream size : 26.6 KiB (0%)
    5 c8 _+ W0 Z, P) \
  158. Title : Portuguese [Full]9 H) o! @3 y( B
  159. Language : Portuguese
    - j2 f8 w* p% ^: Q+ I
  160. Default : No
    ' _; ?; I0 d+ X1 ]
  161. Forced : No
    ) T" r/ Q  m" E2 B7 f' \) R
  162. 4 o: Q# U' @: H; a, q' L
  163. Text #94 J4 p+ p4 N: o, |/ ~) ?
  164. ID : 11! n' q8 @$ B9 p+ u0 r8 ]" J! m
  165. Format : UTF-8
    / F5 N1 J' e- @- Z5 w. I3 r
  166. Codec ID : S_TEXT/UTF83 i" W: b$ s4 L5 H* T
  167. Codec ID/Info : UTF-8 Plain Text
    - p  D1 s9 d9 Z+ n
  168. Duration : 36 min 48 s
    & e& U" V- I! }- {' g3 I, F
  169. Bit rate : 103 b/s
    , Z) Z$ a. p" h
  170. Count of elements : 767
      b& d0 c7 c; |; q
  171. Stream size : 28.0 KiB (0%)
    + T3 i' k! I$ @+ E
  172. Title : Brazilian Portuguese [Full]; K, o" H* P- S: q2 l
  173. Language : Portuguese
    ; M3 g  y0 G$ y  i
  174. Default : No1 ^( h3 }# ]) K- v
  175. Forced : No
    ' R" n6 N  X7 k* o) j' l
  176. 9 K( S7 u' m1 ^
  177. Text #10
    8 K/ V% ]. r; H
  178. ID : 12
    ' D+ N  B$ h) |2 [
  179. Format : UTF-83 _( f: H; V- I0 w
  180. Codec ID : S_TEXT/UTF8
    7 s" E" E  `- K" e
  181. Codec ID/Info : UTF-8 Plain Text+ X9 ?5 j. V% q
  182. Duration : 36 min 48 s
    8 L: X9 f& s& Z& `' A4 N
  183. Bit rate : 92 b/s: s1 Y6 t5 B- _! p
  184. Count of elements : 748
    0 S2 \; ~. u8 Y' T
  185. Stream size : 24.9 KiB (0%)
    8 |* \0 p* p* B1 X- a/ v$ }# A
  186. Title : Polish [Full]) g9 L& c4 U; _0 f
  187. Language : Polish
    ; B- [% i/ `; K  z$ c) k
  188. Default : No
    % z& Z2 d7 V0 V. M/ U( h9 s9 ^  X
  189. Forced : No# i, u7 J4 O4 W+ L: A( u
  190. 3 _1 [8 B' u& x& g9 F% ]
  191. Text #11
    ; ^/ j. I- `2 O- i+ S& F
  192. ID : 13
    6 e! @# N* I6 U+ P9 F: G
  193. Format : UTF-8  `: ?! q6 I/ p/ u
  194. Codec ID : S_TEXT/UTF87 r$ M+ w$ ]- z9 s' @# j. ~
  195. Codec ID/Info : UTF-8 Plain Text- G) Y* U7 s+ j1 O
  196. Duration : 36 min 47 s/ u1 n7 c9 J, F% ~3 K# ?
  197. Bit rate : 104 b/s0 P' `' q3 L3 J' I; m& X3 @8 [1 e
  198. Count of elements : 749
    $ J6 J" A8 t4 c. e4 Z
  199. Stream size : 28.3 KiB (0%). x; H7 ^* M6 I2 P
  200. Title : Turkish [Full]& r& F2 r/ s# M: V$ L
  201. Language : Turkish7 f* u, y2 T* {, @
  202. Default : No. a3 F& Y0 v+ x$ ?# M3 [1 S. d! E
  203. Forced : No8 _' b, }6 R! J( K1 {5 W/ Q

  204. + l0 }8 e( r, h1 z
  205. Text #127 n* Y% ]  H9 L
  206. ID : 14' V0 Y4 U* ^. `. x2 u& Q( z2 u; t
  207. Format : UTF-8, X" k( A2 a; P! |
  208. Codec ID : S_TEXT/UTF8, V7 n1 g. p. z4 U# k
  209. Codec ID/Info : UTF-8 Plain Text9 b  b" S* c$ o2 [
  210. Duration : 36 min 47 s
    , V: j% j9 m4 M5 M; y
  211. Bit rate : 101 b/s
    + o0 A' r# ]' y' ^& T% m& @
  212. Count of elements : 770
    9 O' T/ U  \( n9 [! \- ~: ?4 w1 J
  213. Stream size : 27.3 KiB (0%)
    ! F* c4 g: E& U( z2 C
  214. Title : Swedish [Full]  c5 D( W) A7 o+ q9 @" T
  215. Language : Swedish
    . T0 \5 e$ m8 P# E: {' ^
  216. Default : No/ g5 s' b1 u9 s% s2 ]2 ]+ f4 b
  217. Forced : No
    - t% l& G& C- l5 Q1 ]. R& f
  218. & A2 I$ H8 u  I. h
  219. Text #13( q9 _; Y  O5 d* t% U: V& T0 K
  220. ID : 15, u" ?- T% d# _6 L$ Z
  221. Format : UTF-8
    & ~) R$ {# j! z: K3 b; t& ?
  222. Codec ID : S_TEXT/UTF8
    0 f, t& H1 h# Q# W' C" N8 ^
  223. Codec ID/Info : UTF-8 Plain Text5 K( G( E3 l5 f, S/ y  {! o
  224. Duration : 36 min 48 s6 L' L3 F  s: d+ F8 N" o
  225. Bit rate : 91 b/s
    3 W" \4 j4 v; Z% C7 k
  226. Count of elements : 6981 |5 x, t1 A. [; n2 G( Q7 P
  227. Stream size : 24.6 KiB (0%)  o% C9 G4 D/ _& k! D3 y
  228. Title : Danish [Full]; T& H0 _! u: h
  229. Language : Danish2 A; g: a2 s$ F5 g* J9 q9 K
  230. Default : No
    5 o0 j# x4 z/ ^" R
  231. Forced : No
    ; b" _0 u, L+ `7 p

  232. , @3 }0 \) J6 u* N) V
  233. Text #14
    ; y% Y  d; j* J# p
  234. ID : 16
    , P: k: _1 ]0 I, }7 h
  235. Format : UTF-8) B3 S: `  f0 W! A/ Z" _3 R* \/ ?
  236. Codec ID : S_TEXT/UTF8
    $ J5 U* V' D3 S. @
  237. Codec ID/Info : UTF-8 Plain Text
    8 K# o% u" T5 @1 T* E
  238. Duration : 36 min 47 s
      l  y8 K7 Q# ^: ?, `' ^
  239. Bit rate : 94 b/s0 F& G. f. j4 g$ r# u& d
  240. Count of elements : 632
    # v& }+ B8 O+ J0 l
  241. Stream size : 25.4 KiB (0%)
    % ]4 e# b" O' Z3 l5 X* @, }# i" Y
  242. Title : Finnish [Full]$ t! ~/ `2 R3 [; \& Y1 ~; a& L: i# K
  243. Language : Finnish4 J" ?0 U8 \8 l) w7 m, d4 D6 O( K
  244. Default : No4 N( J0 A4 g- {% Q
  245. Forced : No
    ; R, B9 `! ^7 ?. [* ^7 Z+ A+ k

  246. $ j' s, o1 C9 U& v! ?. U
  247. Text #15# Z: x/ t  D! ]
  248. ID : 17' h/ Z. J- y7 a1 `
  249. Format : UTF-8
    ' g6 |4 [3 N: P& @' ^* b
  250. Codec ID : S_TEXT/UTF8& \, a' H( x1 ^$ g, G' a/ c1 f$ U
  251. Codec ID/Info : UTF-8 Plain Text9 y: P$ b% o/ i8 q
  252. Duration : 36 min 50 s
    , ^2 _, r6 L. `9 `& s
  253. Bit rate : 86 b/s
    ! S) L( o9 E1 [! o
  254. Count of elements : 7223 H* [1 q  r# n* t6 H9 N# O
  255. Stream size : 23.2 KiB (0%)
    - N5 d$ x! H- \+ I$ p6 B9 s
  256. Title : Dutch [Full]" C' r; t: i# D( B5 s0 Q2 X
  257. Language : Dutch
    3 p/ R; S' [) g! [8 r4 O# l# ^
  258. Default : No
    8 R9 A/ H2 P. ~  q* u. |3 M  R2 e
  259. Forced : No2 `: d0 w# ~  K! {: H& G  h
  260. + n/ E$ g0 s4 s6 H
  261. Text #167 C' M. j9 n; U! v) W
  262. ID : 18
    1 I- C! N9 `. t0 z
  263. Format : UTF-8
    ! e: y/ l: m. u% ^6 [
  264. Codec ID : S_TEXT/UTF8
    9 |8 R4 i! v& |7 r# \
  265. Codec ID/Info : UTF-8 Plain Text* z! v! n9 q6 _' b& X# _' j+ m
  266. Duration : 36 min 48 s
    ( l. j8 S% z& u& B; I% t  v0 Z
  267. Bit rate : 92 b/s
    9 D) [# ]3 ?3 X3 o' R  W
  268. Count of elements : 632
    1 ^0 e9 Z- A, [" }. z5 V( K8 H
  269. Stream size : 25.0 KiB (0%)! e: }; u9 x! e. t- o. i( ?; t
  270. Title : Norwegian [Full]; X4 ?. E$ U" |0 B! o
  271. Language : Norwegian* O$ _! G# @- T1 j) X& |( s
  272. Default : No
    ; u; g7 g9 e: H6 b. E8 f8 A* B1 k
  273. Forced : No$ p1 n. P' r& {5 S' J: W
  274. / e. S+ ]! p; w, {* G2 {8 C
  275. Text #17. ]; J4 {0 \& H4 |* v
  276. ID : 19
    4 h, j% X9 N4 u5 O7 h, U/ Z
  277. Format : UTF-8
    2 U! G8 l+ X: f, A
  278. Codec ID : S_TEXT/UTF8
    6 [, w# e1 F6 g, N  i
  279. Codec ID/Info : UTF-8 Plain Text4 I' y) O9 ~/ Z, E
  280. Duration : 36 min 48 s( i9 p4 h# ?- w1 E
  281. Bit rate : 145 b/s5 f; P2 `6 M6 f$ P
  282. Count of elements : 733* T- X( M( V# O; E% U5 X# F) ^
  283. Stream size : 39.4 KiB (0%)" B, ^$ z6 K* i/ t* h: V, ^
  284. Title : Russian [Full]
    2 T+ U, A& K8 h8 K1 X
  285. Language : Russian9 a% }& a- |) v8 \2 A
  286. Default : No
      h4 G9 |0 o5 [1 s9 _9 H! Q
  287. Forced : No
    9 T8 E6 z) l; z0 j

  288.   @* }$ \7 E* K% `9 Y; _7 c
  289. Text #18
    $ \6 t! l: a- O7 R+ r& D
  290. ID : 20+ ?4 h5 F$ `* v) }: u/ |' Q
  291. Format : UTF-8
    : a* @4 l7 r7 V* F7 _8 {* C
  292. Codec ID : S_TEXT/UTF8
    3 M+ K% H& h& f8 p
  293. Codec ID/Info : UTF-8 Plain Text
    ( G: C1 z, u6 \; s( _/ m6 Z8 X
  294. Duration : 36 min 53 s
    $ C& p; Q; U. C: @
  295. Bit rate : 100 b/s
    ; A) m* D, \0 s; d3 v5 `
  296. Count of elements : 779* [, T8 t% U2 I
  297. Stream size : 27.1 KiB (0%), y' b% `) l1 Z) D, S
  298. Title : Hungarian [Full], J- A* o+ H  T$ p% Y/ |( A, M. R
  299. Language : Hungarian
    0 r* s! E. z8 W9 K4 ?, m" H
  300. Default : No5 N( t; j0 Z! k) j/ {. f
  301. Forced : No. H3 n1 D6 ~* N/ M6 ]* G5 R2 l
  302. . x; ?. z5 z. ~# E
  303. Text #19
    % w( D! N5 u& ~2 P
  304. ID : 21
    4 ?2 ^5 l9 b- G* |, F6 Y: G4 r# l
  305. Format : UTF-8; J) c2 ]2 y9 f7 e) a
  306. Codec ID : S_TEXT/UTF8
    2 ^" \* d8 k, u0 y
  307. Codec ID/Info : UTF-8 Plain Text
    " w, R7 F. Y% h( w
  308. Duration : 36 min 47 s  W( S# l, ^' l: |3 D
  309. Bit rate : 162 b/s
    * j; H+ H- ^: n. b7 Y* L9 j
  310. Count of elements : 7782 w" g( Q# d# N. i) k. k/ g% _
  311. Stream size : 43.9 KiB (0%)
    % O) h" S" W1 I% v# d' N' T/ C
  312. Title : Greek [Full]& M) i0 d6 s. [) w# x
  313. Language : Greek4 g! g& o1 y" X1 K- R  @
  314. Default : No
    + z/ R  {$ f5 F
  315. Forced : No! g: ?6 ?" z3 U# P4 \' O

  316. 9 l8 q% Q  i+ g( K0 a; q" V
  317. Text #20
    - O2 V# p+ i" i- l( h
  318. ID : 22
    : `2 l; ?/ t/ k' Y. Z
  319. Format : UTF-8
    ( k4 u8 J3 f+ y, [# t0 S- Z
  320. Codec ID : S_TEXT/UTF8
    3 Y" L& d2 w! Q
  321. Codec ID/Info : UTF-8 Plain Text
    0 {* L$ m( ~5 `+ z; N  M, p5 q
  322. Duration : 36 min 51 s
    : N* V5 L, _0 f9 m3 I% e" A
  323. Bit rate : 142 b/s
    . e$ W& O) o7 L# c! F7 v
  324. Count of elements : 729
    $ d, ^/ A. X$ w# Q% m
  325. Stream size : 38.6 KiB (0%)
    & E  ?# D4 p  k5 ]# z, D
  326. Title : Hebrew [Full]
      z. y, l4 t, x: @/ L: d
  327. Language : Hebrew
    , k. Q+ u  x  l) n! O' g% |
  328. Default : No7 D! T% z% L3 J4 M. z% u/ b
  329. Forced : No
    - V) ?3 y- L6 K+ s# a2 K1 Z
  330. # }5 b* P7 p$ G' F  t4 @8 F. E
  331. Text #21) v& z1 k$ B( t0 S
  332. ID : 234 P9 |0 A' }, Q! k9 \, g% i1 @1 j
  333. Format : UTF-8
    8 i; {5 M2 ]# C* g" s: F
  334. Codec ID : S_TEXT/UTF8& s: r5 M: o# G: ~: T6 c
  335. Codec ID/Info : UTF-8 Plain Text
    ! z: ]: k7 }3 c% ^
  336. Duration : 36 min 47 s+ l' D. S0 |2 B* y: a5 d1 q  b: _
  337. Bit rate : 167 b/s
    ; d2 I( O8 Z( w, n2 T
  338. Count of elements : 748# D) b8 C3 `! N) P
  339. Stream size : 45.3 KiB (0%)  I* w' V, z4 n% [% X. [. _
  340. Title : Arabic [Full]
    7 X' @" d" s; Y5 ]/ c) l
  341. Language : Arabic* \  G0 R! R' X) z1 ]7 D$ {" Y6 p
  342. Default : No2 R+ \+ ?+ [: w/ x0 F% ?
  343. Forced : No6 _8 y8 j0 i9 b! ]
  344. 6 ?3 I3 Q2 k' ]+ `5 g: {; X4 J
  345. Text #22  c. P7 S' h; O* I  z
  346. ID : 248 ]% `1 X! ~" g$ U& n  E
  347. Format : UTF-8( i2 |8 o2 p: O% ~, |$ e
  348. Codec ID : S_TEXT/UTF8
    " _- b2 P, H) _' m7 K/ n
  349. Codec ID/Info : UTF-8 Plain Text
    # M2 c( n9 _/ L) ^" }5 b5 I
  350. Duration : 36 min 47 s
      a8 i  S% _; ]0 J1 ~' _* c
  351. Bit rate : 107 b/s
    ( e, @& V* i( e6 ~
  352. Count of elements : 777( ~- Y% x/ K: a1 {, B$ P& s
  353. Stream size : 29.1 KiB (0%)
    4 q" X; @; ], m) L
  354. Title : Romanian [Full]
    * K' |! I4 l- z/ L- g) B- S  R
  355. Language : Romanian
    ! B, {' U! `4 ^  Q
  356. Default : No! l8 O) K7 g& D8 B1 H
  357. Forced : No
    3 H1 i9 C# c" Z; M2 V5 F
  358. $ `4 O) }$ S. Q9 F# \. \
  359. Text #23
    ( b- `+ J8 n9 Q
  360. ID : 25
    & D* `2 Z  }2 t! `
  361. Format : UTF-8
    6 q8 O% H: b  A" |2 P
  362. Codec ID : S_TEXT/UTF8+ k; ?* D0 L  ~7 d1 Y7 C
  363. Codec ID/Info : UTF-8 Plain Text8 X+ V: P) j! J8 |7 N0 ?  b# {
  364. Duration : 36 min 48 s' ~# z9 P2 N' F" ~' `& O
  365. Bit rate : 101 b/s
    3 n' d3 l) s6 C( U8 V& U
  366. Count of elements : 717, B  @! i" p- L- E- J3 a
  367. Stream size : 27.3 KiB (0%)
    5 M& A9 S. ]! |9 f6 g, c
  368. Title : Czech [Full]/ S/ T+ Q* _3 f. z! O
  369. Language : Czech  N0 A- G, H1 c3 E: Z3 v% m0 q) W
  370. Default : No
    % X4 s. u7 Z. x- o: V
  371. Forced : No
    % @' |9 n9 x. b# x% f7 f

  372. 3 G; D- H# g: I. \
  373. Text #249 H8 z3 Q1 F4 ?1 t* c5 r; c
  374. ID : 26
    1 H7 {! c3 u+ ?" ^2 k
  375. Format : UTF-8
    $ y: A6 D4 o- z9 X. I9 D
  376. Codec ID : S_TEXT/UTF8
    - U  [8 D; }! m4 h
  377. Codec ID/Info : UTF-8 Plain Text
    / W  a% D' j. C: X- K
  378. Duration : 36 min 48 s8 L+ h8 d0 ~4 S$ o, O  W" {
  379. Bit rate : 106 b/s: ?3 }9 M) `. ?( U. C' X: f; N0 F
  380. Count of elements : 780% i+ P9 R$ c% J
  381. Stream size : 28.7 KiB (0%)
    ( @& G  {. ]$ k' [
  382. Title : Indonesian [Full]
    # _3 F" P7 I8 G
  383. Language : Indonesian
    % R6 W0 S' t1 q
  384. Default : No5 v! h' M) @3 j& e0 t4 U0 b6 H! W
  385. Forced : No! h: X3 P& ^' k

  386. ( t. _5 V# Q; k7 m1 F
  387. Text #252 J8 V6 |2 `' C
  388. ID : 27
    : X, `  u4 Q* v, p# J" u5 x
  389. Format : UTF-8/ I3 l+ z- ]( p
  390. Codec ID : S_TEXT/UTF8
    0 ]9 h: \2 d: I: ^
  391. Codec ID/Info : UTF-8 Plain Text
    ! l- {4 ?4 j9 {" q, C
  392. Duration : 36 min 47 s
    9 }; Y# A- {* u8 m+ _
  393. Bit rate : 137 b/s
    ) i9 j7 w& n. w3 R! p
  394. Count of elements : 762$ E% R! W( a+ h3 _9 M
  395. Stream size : 37.0 KiB (0%)
    ( t5 i( F8 `) n3 r0 S
  396. Title : Vietnamese [Full]1 s8 e& [/ I: {
  397. Language : Vietnamese5 \/ ^( N8 P( s
  398. Default : No5 j9 s* O! J8 V1 p$ ~
  399. Forced : No7 J+ s) l% d! M; N
  400. * u' R/ W- i- T' K* f
  401. Text #26
    $ s$ f7 W. D/ o6 e8 ]
  402. ID : 28
    : A* r& L1 j8 b) M! V
  403. Format : UTF-8
    5 ~: b3 ~# p: P% ?" }
  404. Codec ID : S_TEXT/UTF8
    , l* K5 f2 C- t% S) ~) z* e
  405. Codec ID/Info : UTF-8 Plain Text
    # ?: t, Q. W: A# [: P; o$ M
  406. Duration : 36 min 47 s
    + j1 m5 \# Q0 r; P  k
  407. Bit rate : 247 b/s, p4 s3 s# f2 D( ^2 q
  408. Count of elements : 776
    . C2 S% s5 n$ y  P
  409. Stream size : 66.6 KiB (0%)
    0 t* r" B8 @9 {# }9 f5 g. q
  410. Title : Thai [Full]
    ! u2 x6 }! J' ^1 H) Y4 S0 C+ u( G: \
  411. Language : Thai
    8 C' H9 ?1 h6 I& [1 z6 L/ R
  412. Default : No
    5 a$ ], z( D8 O8 N9 i
  413. Forced : No, w2 b; W6 t& k
  414. / X2 J+ E% ^0 t
  415. Text #27
    : j; w. }5 M% ^! @3 {3 U' u
  416. ID : 29! j, p: ^; Z1 A- ~
  417. Format : UTF-8
    + i. i/ R8 i: Y+ d& p8 n; I
  418. Codec ID : S_TEXT/UTF8( U, ^5 N- t. ~9 @5 s) i* [
  419. Codec ID/Info : UTF-8 Plain Text
    : ?0 o( p. _9 e$ |0 Y
  420. Duration : 36 min 50 s8 L# U9 |  i4 H3 ^: n4 H$ M$ y
  421. Bit rate : 115 b/s! ~4 |8 B* v5 ^: z
  422. Count of elements : 778
    % W" ~0 i8 K! q3 c- z/ n
  423. Stream size : 31.1 KiB (0%)1 V; x/ T8 K& x# V; P! l
  424. Title : Korean [Full]* c" A$ O3 u) {4 `* K
  425. Language : Korean/ K( T7 z$ i* [
  426. Default : No
    8 K+ j" u. c9 |
  427. Forced : No0 r  O$ M6 e0 i" e4 ~
  428. 9 D( M( e1 X4 h( i
  429. Text #28
    3 [# w8 g! q2 ]- E2 Q
  430. ID : 30
    + l5 c) ^% z( ]  e6 o7 M
  431. Format : UTF-8
    1 C' l) l# H4 D+ F2 `
  432. Codec ID : S_TEXT/UTF81 L$ w5 |- I* }  L
  433. Codec ID/Info : UTF-8 Plain Text
    - D9 K5 b9 o! R( h& N
  434. Duration : 36 min 47 s
    2 }+ R, L) K& R- c! T$ [4 {3 \
  435. Bit rate : 85 b/s8 p  H" f% ~5 O: L* Y" c: C
  436. Count of elements : 7762 [+ B/ w( o8 `* t% b. J+ P7 y2 S
  437. Stream size : 23.1 KiB (0%)
    7 Z" o7 y: e/ @  m7 |$ }' l; f( l
  438. Title : Chinese (Simplified) [Full]( i4 d8 a8 J0 l
  439. Language : Chinese
    * ]+ O2 x; U3 k. U
  440. Default : No1 l6 t7 \& h/ x1 w
  441. Forced : No6 l4 ~+ C( l+ _* i2 i

  442. 6 E6 E& x- g2 L' O* T( _
  443. Text #291 z8 ?: I3 Q1 p! h3 N
  444. ID : 31' |6 `" L6 u" I! \
  445. Format : UTF-8
    0 D+ ~, t/ z' x
  446. Codec ID : S_TEXT/UTF8
    $ a( M/ v5 H$ q
  447. Codec ID/Info : UTF-8 Plain Text5 {- m. c; T2 U  k4 P
  448. Duration : 36 min 47 s$ O% E) B+ O5 f5 T( ?1 {
  449. Bit rate : 88 b/s
    # r$ N( `/ \% X
  450. Count of elements : 7790 b. f7 |( G& X9 `
  451. Stream size : 23.8 KiB (0%)
    , c& U3 w/ N  c; B0 z
  452. Title : Chinese (Traditional) [Full]8 l' m# V; w. e, ^
  453. Language : Chinese
    ! P, F/ r! O* W: [4 l8 [
  454. Default : No5 w$ j5 ~) T$ o) Q, c
  455. Forced : No' ~5 \2 l. ^# R$ j

  456. # ]4 g9 c8 r1 C
  457. Text #30
    ( [. X' L/ R* I# U: R- @
  458. ID : 329 p, X0 K$ u/ n' K  V5 `
  459. Format : UTF-87 o1 _( R; Z! I' ~
  460. Codec ID : S_TEXT/UTF8
    : [. o, j' f+ N6 y3 K( w
  461. Codec ID/Info : UTF-8 Plain Text+ @6 G4 y* C% X' M0 m- ]) E( g
  462. Duration : 36 min 47 s& d: R2 t1 u- V, W: t+ h
  463. Bit rate : 105 b/s/ N# Y5 R" P5 @# g! j
  464. Count of elements : 8230 x& B6 g' ]0 l9 }: K
  465. Stream size : 28.4 KiB (0%)
    0 N0 f( Q6 W5 g) Y* a: p7 M
  466. Title : Japanese [Full]
    " z9 w4 J: A) N. x
  467. Language : Japanese
    , z) L: U1 F% }$ U4 k( t
  468. Default : No
    $ x8 p  a9 ]  P4 T9 o
  469. Forced : No
复制代码

4 M9 g6 _+ R3 J3 a: X) _$ M+ {
. a8 I5 M6 {# t" y  ?
4 h* g& U- Q; ?! I! F
) t+ o6 f$ ], [1 e4 X1 M" \
8 o/ I  G0 M  T. z1 ]# f- N7 u! P) a. ?, O" m- y9 ^" i
游客,如果您要查看本帖隐藏内容请回复  VIP可免回复查看隐藏内容 详情请点击
发表于 2020-3-16 00:14:00 | 显示全部楼层
游客无权限浏览该内容
发表于 2020-3-16 05:23:21 | 显示全部楼层
游客无权限浏览该内容
发表于 2020-3-16 07:00:16 | 显示全部楼层
游客无权限浏览该内容
发表于 2020-3-17 07:32:21 | 显示全部楼层
游客无权限浏览该内容
发表于 2020-4-2 08:41:01 | 显示全部楼层
游客无权限浏览该内容
小荷朝露 该用户已被删除
发表于 2020-4-2 09:44:54 | 显示全部楼层
提示: 作者被禁止或删除 内容自动屏蔽
发表于 2020-4-28 21:21:57 | 显示全部楼层
游客无权限浏览该内容
发表于 2020-5-9 17:54:40 | 显示全部楼层
游客无权限浏览该内容
您需要登录后才可以回帖 登录 | 立即注册

本版积分规则

封号公示|电子邮件联系本站hd1tj.net#[换成@]outlook.com|免责申明|HD一条街

GMT+8, 2021-12-3 09:19

Powered by Discuz! X3.4

Copyright © 2001-2021, Tencent Cloud.

快速回复 返回顶部 返回列表