HD一条街

 找回密码
 立即注册
搜索
查看: 3945|回复: 32

[1080P和1080i] [无台标][韩剧:王国 第二季 全6集][1080P-Netflix版/12.78G][韩语 中文英文多国软字幕][MKV]

[复制链接]
发表于 2020-3-13 17:50:07 | 显示全部楼层 |阅读模式

马上注册,结交更多好友,享用更多功能,让你轻松玩转社区。

您需要 登录 才可以下载或查看,没有帐号?立即注册

x
: C& f/ g& I2 ~9 h! E
                               
登录/注册后可看大图

  h1 E8 }! d0 X2 l8 L% S% i8 ^+ p9 b+ D8 q
◎译  名 王国 第二季 / Kingdom / 李尸朝鲜(港 / 台)
% |4 {* J9 Q. C) r◎片  名 킹덤 시즌 Season 2& [% Z6 O* E% Z% F% n
◎年  代 2020
5 J5 n: L8 m3 k7 o◎产  地 美国 / 韩国
: s. |0 U) Y) a, E, E◎类  别 剧情 / 动作 / 惊悚; e- \' Z) {7 h* ?% v4 g$ ?" t
◎语  言 韩语; I: H3 S& r/ g
◎上映日期 2020-03-13(韩国)
) X" D' `4 }: Q) v+ G) N◎IMDb链接  https://www.imdb.com/title/tt9256448
4 N- w' b" i0 t8 A◎豆瓣评分 0/10 from 0 users
+ d  ?2 r0 X* V9 {+ ]) r◎豆瓣链接 https://movie.douban.com/subject/30306401/
3 R: t' H4 g2 T◎集  数 6
. E$ B. I; u' Z+ P( v9 U- N; t◎导  演 金成勋 Seong-hun Kim / 朴仁载 In-je Park8 W$ x3 ^3 y% @" [9 ]
◎编  剧 金恩熙 Eun-hee Kim/ Y$ Q5 b- H# h( p
◎主  演 朱智勋 Ji-hun Ju
. D4 X5 ^4 g" ^; ]5 L       裴斗娜 Doona Bae- t7 \' r9 R$ f) Y/ }
       柳承龙 Seung-yong Ryoo
% H- Y1 J  u7 M: x       全智贤 Gianna Jun4 B# v- A0 `3 C& [+ v/ _
       金相浩 Sang-ho Kim
' b0 N' m& [7 {$ T+ a  s$ P) O1 k       金圣圭 Kim SungGyu
( B% Y; ~; a% {' R) u       金成圭 Seong-gyoo Kim
5 q# w: Q+ r$ j! z       朴秉恩 Byung-eun Park
1 u) c' {; L# q3 y4 i       金惠濬 Hye-joon Kim
- X' y8 P, v/ p( l       金太勋 Tae-hoon Kim
7 j( K$ S% s$ }       许峻豪 Jun-ho Heo
& w' t$ F/ m$ S7 ?7 |9 }. k0 _4 P) q2 \, d) y+ j9 P* v: \

$ j) R# S5 ^# |% H" A◎标  签 丧尸 | 古代丧尸 | Netflix | 韩国 | 韩剧 | 裴斗娜 | 朱智勋 | 剧集
1 `* c8 R, v: q5 F
# P0 b8 f: O0 p* g0 v+ G◎简  介  # N8 u) ]6 I5 I' D. B

2 s( Y/ q4 ?+ g: s( d  Netflix续订韩剧《王国》第二季,计划将在该剧第一季于今年年底明年年初播出后开始制作,《信号》编剧金恩熙将继续执笔,第一季主演柳承龙、朱智勋和裴斗娜也将悉数回归。/ M0 `/ l) T7 [% B  D- d; M- |; @2 u7 B
  《王国》讲述了朝鲜王世子在调查离奇疫病的过程中发现了威胁国家安危的残酷真相的故事,是一部六集长度的僵尸剧。而第二季将接续第一季展开,整个故事将在第二季完结。
4 r* v5 H4 _0 I6 P; k  据韩媒消息,目前《王国》第二季正在制定具体日程,计划将于《王国》第一季在今年12月或明年初播出后开始制作。第一季主演柳承龙、朱智勋和裴斗娜将继续出演,《信号》编剧金恩熙将继续执笔。( x, z. ?6 T7 e* x1 r. y

2 v0 V, E" X* x9 Q◎获奖情况  2 p4 Y) O/ L5 E' p, a' N' c3 H: @
7 S& q4 _" u0 i
  第6届豆瓣电影年度榜单(2019)
( R  ~% F" D* p! [; I  最值得期待的剧集(提名)
  1. Video
    2 [. u& Q8 M: @* X# M' m
  2. ID : 1
    5 d$ U9 W3 b2 `) p: n
  3. Format : AVC& f8 h8 I8 {- V3 w: v0 \& |
  4. Format/Info : Advanced Video Codec
    & O7 ?! [6 p! H6 k5 ?
  5. Format profile : Main@L46 y4 _6 w5 ?- y' |  m; P4 \
  6. Format settings : CABAC / 3 Ref Frames
    + {0 a6 f: C" }8 T" |4 W
  7. Format settings, CABAC : Yes5 m0 Y; W/ v9 Q/ i5 _1 G4 K; q
  8. Format settings, Reference frames : 3 frames/ H/ p1 C1 [- ?* ^
  9. Codec ID : V_MPEG4/ISO/AVC
    9 z2 M; D% I) ]. u6 J. I  l
  10. Duration : 52 min 23 s7 Y( G( J* y0 R0 O. [
  11. Bit rate mode : Variable
    % J& y3 v( T  b9 B/ F3 q7 `; `
  12. Bit rate : 7 500 kb/s
      W1 f/ X) `' z. y4 |3 |
  13. Maximum bit rate : 11.2 Mb/s
    ) i2 y) u% t  Q4 N9 W0 P
  14. Width : 1 920 pixels# O  D% S5 m1 P* c" f" R
  15. Height : 1 080 pixels
    7 e' O# L% P1 A. L2 b% Z5 {' @& D
  16. Display aspect ratio : 16:97 k; j4 {6 h6 I( i
  17. Frame rate mode : Constant4 s" X! G8 d8 H
  18. Frame rate : 23.976 (24000/1001) FPS
      U) N) W& @2 v* n5 l$ Z' {* X' L) M
  19. Color space : YUV1 r% S- X0 B7 P2 G( a' H  z
  20. Chroma subsampling : 4:2:0
    * ^5 S5 F. X! d# ~. |
  21. Bit depth : 8 bits
    * H  @& s7 _6 D8 J( A. o
  22. Scan type : Progressive
    * l2 G. O& W# M- h- C2 h
  23. Bits/(Pixel*Frame) : 0.1510 N! y4 C( f( ^3 B$ j5 b
  24. Stream size : 2.67 GiB (90%)( s! e3 U% {9 ?, |$ ?9 E- y1 T" [
  25. Writing library : x264 core 148 r2717 0d2410d
    % V( t7 ?2 g0 F; v6 A
  26. Encoding settings : cabac=1 / ref=3 / deblock=1:0:0 / analyse=0x1:0x111 / me=umh / subme=10 / psy=1 / psy_rd=1.00:0.00 / mixed_ref=1 / me_range=24 / chroma_me=1 / trellis=2 / 8x8dct=0 / cqm=0 / deadzone=21,11 / fast_pskip=1 / chroma_qp_offset=-2 / threads=6 / lookahead_threads=1 / sliced_threads=0 / nr=0 / decimate=1 / interlaced=0 / bluray_compat=0 / stitchable=1 / constrained_intra=0 / bframes=2 / b_pyramid=0 / b_adapt=2 / b_bias=0 / direct=3 / weightb=1 / open_gop=0 / weightp=2 / keyint=250 / keyint_min=23 / scenecut=0 / intra_refresh=0 / rc_lookahead=48 / rc=2pass / mbtree=1 / bitrate=7500 / ratetol=1.0 / qcomp=0.50 / qpmin=6 / qpmax=51 / qpstep=4 / cplxblur=20.0 / qblur=0.5 / vbv_maxrate=11250 / vbv_bufsize=15000 / nal_hrd=vbr / filler=0 / ip_ratio=1.40 / aq=1:1.00
      k* k# e( n" ?  z
  27. Default : Yes5 a* J8 ~! U% Q/ Z
  28. Forced : No7 ^/ ~/ a+ D+ l, C0 C) u
  29. 5 F; A% b3 B/ F% |& L
  30. Audio% Y% \# K! w% E8 ]' N2 d; J6 A( W
  31. ID : 2& [0 b% {+ d8 D3 n1 X7 S7 t& K" w
  32. Format : E-AC-3 JOC( Z9 v. f. y% }9 Y, x
  33. Format/Info : Enhanced AC-3 with Joint Object Coding4 p+ m, B: j, B' ]2 y, t, V0 Z
  34. Commercial name : Dolby Digital Plus with Dolby Atmos
    ' @/ V" d  U$ a
  35. Codec ID : A_EAC3
    - ^% f$ b0 B9 N: r
  36. Duration : 52 min 23 s! {* I+ ]- g2 j& Q
  37. Bit rate mode : Constant& g, L7 A9 E6 Y6 \- s# c" K
  38. Bit rate : 768 kb/s) ]; p2 J6 ?5 P- J; Y! ~
  39. Channel(s) : 6 channels& A6 `" n2 h- |& ^+ N8 W
  40. Channel layout : L R C LFE Ls Rs5 K; M+ \0 U( f% A2 @, m
  41. Sampling rate : 48.0 kHz# j$ o+ _3 G! X* c7 ?+ ?; Q, o; W7 g
  42. Frame rate : 31.250 FPS (1536 SPF)& X# g  a1 G. D- P% J7 E( h" E, G
  43. Compression mode : Lossy/ ~) K3 k% {! N) B$ }+ O
  44. Stream size : 288 MiB (10%); M& [0 Y0 Y; L# X& G
  45. Title : Korean
    . z: p* `; N$ Q+ ]
  46. Language : Korean
    1 t, a; g0 F  ~7 b
  47. Service kind : Complete Main+ }1 D3 b! ^: s$ K2 g: u% o6 m4 p
  48. Default : Yes
    ! X, L% I" ]( U# c2 p8 [
  49. Forced : No$ ]( {$ i1 J+ j0 t+ `% o
  50. Complexity index : 164 C3 F1 q, A. P
  51. Number of dynamic objects : 15
    / n: P) Z; V, N' X0 X5 M. r  Z2 h
  52. Bed channel count : 1 channel% r% h; ~  H' i: f) j6 `! p
  53. Bed channel configuration : LFE
    " f2 m! u; Y1 ^; Y
  54. , f: [, R( @& r) e: j* X
  55. Text #1
    9 l( B9 `) c/ V  i1 n5 M, t6 f
  56. ID : 31 ?% ^6 C: \% H2 n. K4 a
  57. Format : UTF-8
    7 ^6 z% c4 e9 ]% G# j
  58. Codec ID : S_TEXT/UTF8
    5 Y: L' s/ X2 I& g- E- G
  59. Codec ID/Info : UTF-8 Plain Text3 H7 g0 o$ _/ H
  60. Duration : 51 min 12 s
      [( e3 }. S5 D9 ^& q$ _. q
  61. Bit rate : 40 b/s4 S5 `8 _  k3 b3 q" a6 P! s' Q9 T2 L
  62. Count of elements : 6007 [3 S; d# r( O) d3 {- F7 o7 ?
  63. Stream size : 15.1 KiB (0%)$ U, m: ~" P. u! |/ Q: E  I" R
  64. Title : SDH  r$ Y  K  b2 T( |- @% g
  65. Language : English# q; k% `' V6 M! I( E5 S; i; N: u
  66. Default : No
    8 f6 ?9 k* B: @9 u
  67. Forced : No9 F1 C6 A: t2 h, J8 m# U  K7 W7 p
  68. 2 q: G. j9 z' l" |: [! N. V
  69. Text #2; `0 C; ]+ A5 @. Y
  70. ID : 45 Z; M+ j- v( ?4 V* e4 k: Q4 s) s7 X
  71. Format : UTF-88 B/ q8 |/ E$ R" A/ y9 A! @  a
  72. Codec ID : S_TEXT/UTF8
    0 D. V0 e* b/ ?8 ~9 Y& _0 Y- z
  73. Codec ID/Info : UTF-8 Plain Text
    4 r" O5 }+ J) e  {3 y/ o4 h
  74. Duration : 51 min 12 s- ]9 Y+ U; ?! j# Y! I8 O0 @
  75. Bit rate : 31 b/s. k7 i1 f% t. O$ T6 h0 e
  76. Count of elements : 3934 S8 P* T' j7 i
  77. Stream size : 12.0 KiB (0%)
    9 r& e* h( Y8 N/ v$ T
  78. Language : English
    1 i# {3 b( N' g9 s
  79. Default : No- w3 r* i7 p5 {# }2 w; Z
  80. Forced : No! t# V$ ?4 V+ [! X
  81.   Y4 e: R1 {1 |
  82. Text #33 n- Y/ Z. v5 f( O
  83. ID : 5
    0 Z1 ?, _5 Q% d- H
  84. Format : UTF-8
    0 O; J3 Z8 i" t* V5 o
  85. Codec ID : S_TEXT/UTF8
    9 y# T8 H( B/ `$ z
  86. Codec ID/Info : UTF-8 Plain Text
    ) j1 ?) @& T$ N8 W
  87. Duration : 51 min 27 s
    8 Q7 u( Q- {# X/ Y' ]% G! W
  88. Bit rate : 52 b/s8 }! X# \1 L' B8 R
  89. Count of elements : 398
    6 W: O  b/ R& G4 h2 h" C
  90. Stream size : 19.6 KiB (0%). Y+ Z: I( l# q3 m$ N8 e! u
  91. Language : Arabic
    * G& Z  ~! c6 k( w
  92. Default : No- J8 L8 C' p* J: b
  93. Forced : No6 f7 [7 C( e. |5 A

  94. # G  `) V! D  v' h; x6 Z4 X
  95. Text #4
    / c/ |' `! V. u/ K" T% U% ^
  96. ID : 69 \/ h& D, z7 g$ W7 A. Q
  97. Format : UTF-8
    - Q# J; ]- ^, |$ n
  98. Codec ID : S_TEXT/UTF87 c. S: \' I9 `
  99. Codec ID/Info : UTF-8 Plain Text+ J* J; A. W! {# R
  100. Duration : 51 min 27 s- r4 K0 u. M; N  p# i. Z
  101. Bit rate : 27 b/s
    " ^+ M! k" O9 L! l
  102. Count of elements : 394
    8 x; J/ h  U- x1 }9 ]) e
  103. Stream size : 10.3 KiB (0%)
    ( u& A4 M: j/ u' O# _  O
  104. Language : Czech( {) `. k8 F1 I# g
  105. Default : No" N; d' u( x" b
  106. Forced : No5 R& `, q/ l% T4 n. e, v
  107. ; T8 |: ]/ L1 B9 [# W1 B( ]: E
  108. Text #5
    2 o/ \( K" {4 }
  109. ID : 77 \) r8 r' `7 C1 O8 K! {1 ^% H
  110. Format : UTF-8! p8 i8 P* V5 s
  111. Codec ID : S_TEXT/UTF8
    % I" i- ^' w7 c! ]! T5 w" b+ T
  112. Codec ID/Info : UTF-8 Plain Text
    / K6 o1 o  ~9 [! y% e
  113. Duration : 51 min 27 s) L  f5 p" R0 D
  114. Bit rate : 29 b/s( S$ w2 F% o6 q
  115. Count of elements : 381. E' ]; O8 h( e: y- h
  116. Stream size : 11.0 KiB (0%)
    % q9 \7 x/ F* D" e5 I0 A2 j, X
  117. Language : Danish
    0 W& `& l3 G4 G0 _2 Q- b) \
  118. Default : No
    1 |0 s8 R$ b8 ^" N9 K9 A
  119. Forced : No" h, z3 u) J. ^2 h9 c6 S

  120. / q# z1 F  M6 K" o2 q
  121. Text #6# C$ R0 v9 c+ w( W% j. J
  122. ID : 8, q2 f: [2 a& q8 L; W! W* t
  123. Format : UTF-82 X' j- U/ [; y" p/ i
  124. Codec ID : S_TEXT/UTF8
    " a7 B$ S: S4 Z6 G; t
  125. Codec ID/Info : UTF-8 Plain Text- R! x# t" F: W' n, Z: b
  126. Duration : 51 min 27 s) N! w9 E1 A2 m6 _! ^
  127. Bit rate : 29 b/s
    9 i1 ^2 r- ~1 w/ x5 D3 n: k1 q3 |
  128. Count of elements : 381
      _# o, z# |* H! i! q, r- \
  129. Stream size : 10.9 KiB (0%)
    . O! D8 \! r2 ~/ Y$ i  Y
  130. Language : German
    " _; b0 e' b3 K' B! i% Q
  131. Default : No& m5 r# p4 X+ C, H& h3 K
  132. Forced : No
    ) A% x$ c: s, d! Z! p4 v$ U9 P; H- T

  133. 6 z9 {# o/ f$ O. i3 c- }: `
  134. Text #7
    7 `0 N, A5 |) E8 q: n( x2 w! A8 `; A; L
  135. ID : 9' ?/ n0 q& m& X0 _# p( e# ~
  136. Format : UTF-89 h' Y" |4 ]# d- f% Y
  137. Codec ID : S_TEXT/UTF8$ I4 A; _% m3 L1 F
  138. Codec ID/Info : UTF-8 Plain Text6 G; X. T9 c, r- Z: E
  139. Duration : 51 min 27 s
    ) J, ~! X- ^% d
  140. Bit rate : 49 b/s
    . n. h$ q7 L6 ^$ @! K: |! M
  141. Count of elements : 384
    8 i0 O6 R$ d; {1 D0 Y5 _- h* I, ~
  142. Stream size : 18.6 KiB (0%)/ T" M: w5 n1 k, p" @
  143. Language : Greek
    0 [& T- q* j1 ~
  144. Default : No6 ?( G4 X, [/ p/ y/ F
  145. Forced : No
    # [" S* W9 n% _1 `
  146. 3 z$ ~. g$ @# N, O$ A
  147. Text #8
    ' _5 a* q4 I, r7 i& g* |, ^. f
  148. ID : 10
    0 E( @' L; Y1 A8 @  p& p
  149. Format : UTF-8" {  ^0 @$ U0 E8 E  B
  150. Codec ID : S_TEXT/UTF8
    / F! r% M8 u* A, x. l4 _
  151. Codec ID/Info : UTF-8 Plain Text
    6 p+ H8 p$ F# h! e% j& }
  152. Duration : 51 min 27 s
    3 D8 l! e2 Z/ G1 Y) v
  153. Bit rate : 29 b/s* N3 _- y; |& H
  154. Count of elements : 380/ U3 k" M+ d$ F4 S# g/ h" ?
  155. Stream size : 11.2 KiB (0%)& d7 P; S( l( C% o4 T$ K
  156. Language : Spanish& P8 K5 v1 U) ^: {
  157. Default : No- _# E0 [3 L2 ^6 Q
  158. Forced : No$ J  e$ x8 B6 U; h; [

  159. 1 {$ q! N  K, C' y; c6 q5 Z$ ?
  160. Text #9
    ; }* V2 N- b3 Z! ?2 ?% i% ^! m% f4 I
  161. ID : 111 ^+ K/ S! \9 w! Y# N; V, U1 P
  162. Format : UTF-8
    6 o# G0 f9 r3 j, R8 `
  163. Codec ID : S_TEXT/UTF82 W" P7 e) D: [- l2 G
  164. Codec ID/Info : UTF-8 Plain Text2 l/ D% G" t7 ^" C- e
  165. Duration : 51 min 16 s
    2 w. |' m" [; U8 B; K6 s* E( U
  166. Bit rate : 28 b/s- `3 z& z: \* r0 Y
  167. Count of elements : 3841 v. F" m* x4 U+ `6 ~* ^
  168. Stream size : 10.6 KiB (0%)+ e% A' Y  R! Z$ B
  169. Title : European7 Z$ ]! S! ~8 C! _
  170. Language : Spanish$ P3 }0 s6 T& }- r5 Z* K
  171. Default : No
    1 D% B6 I  G" R" W' m$ D, P0 _
  172. Forced : No
    & ~5 P# S9 d* \+ y

  173. 5 A- h6 A% C8 h, X' x
  174. Text #10
    $ p3 d( J& Y2 b' H0 C% Z
  175. ID : 12
    5 F; }5 A" \% T. Y5 E( e
  176. Format : UTF-8- p# W3 K3 t7 ^  u
  177. Codec ID : S_TEXT/UTF86 _2 w" [$ {8 b# t! z) V
  178. Codec ID/Info : UTF-8 Plain Text0 H/ \5 D# H5 U6 ]1 K) Z
  179. Duration : 51 min 16 s! R5 B$ [. d, a, T& g# U, L
  180. Bit rate : 29 b/s; F& `1 y7 e, w: {  P7 L' ]: l  T1 ^! z
  181. Count of elements : 384. C$ V, Z2 t" z$ g0 b* \. x
  182. Stream size : 11.2 KiB (0%)
    : {6 H! h0 v! I
  183. Language : Finnish3 W3 r# A# A. i
  184. Default : No3 D. ~. ^& A7 r9 D) T* ~, d
  185. Forced : No4 A! D! G# O$ s: a; _9 A
  186. 4 a8 O, r, R6 l- Q4 q
  187. Text #11
    * s  M9 M! d8 I+ ]+ P- ?
  188. ID : 13
    & c8 g4 q$ d9 F# }
  189. Format : UTF-8
    $ l, Q% ]5 L( |: |' [/ y
  190. Codec ID : S_TEXT/UTF8' `( S5 k* m3 ]9 ?3 a. z: D0 p
  191. Codec ID/Info : UTF-8 Plain Text8 R+ s# R6 L8 ^4 W
  192. Duration : 51 min 27 s
    6 K" ?" n9 O1 i0 u* Q+ s
  193. Bit rate : 30 b/s
    , r# v8 E, X* U, A% |
  194. Count of elements : 3919 u6 M. T0 R( Z( E" o
  195. Stream size : 11.5 KiB (0%)* g6 Z) X$ L' y
  196. Language : French1 `% a- \! [8 ?! N
  197. Default : No
    # s/ s4 x( q" C' G1 u: R, v) U
  198. Forced : No
    / n7 ~* s, S6 k; ]4 g
  199. 9 E# u2 ?" ~+ p; I6 k" [* @. L$ L4 B
  200. Text #12! o" V3 {  e- U
  201. ID : 14
    # w3 x' V" D; ~& y7 k, V
  202. Format : UTF-8
    4 d7 f& \. A+ }4 y$ ?( o5 D5 G: k
  203. Codec ID : S_TEXT/UTF8
    9 o: _% r+ w# _
  204. Codec ID/Info : UTF-8 Plain Text0 {' C* t% E: Q' I8 C
  205. Duration : 51 min 27 s: y2 g0 j* |1 q) ?2 K" e4 N5 z
  206. Bit rate : 47 b/s
    0 W7 M3 i2 |" v) o- j# P3 t& {
  207. Count of elements : 399
    8 c/ E5 ?( i. m5 Z0 }& a! G2 C
  208. Stream size : 17.8 KiB (0%), [& M( p! H2 X" r  l+ j
  209. Language : Hebrew
    8 ?$ J9 n) y3 k# N
  210. Default : No
      P) O) X% [7 O) c1 x" s
  211. Forced : No9 k$ F! M9 Q- P& U4 P* @" R* I

  212. ) p0 `$ b1 g/ q
  213. Text #133 }* Z5 J5 {: o* y) ]% Q2 i
  214. ID : 15: s. ^1 S- p0 b1 V8 u
  215. Format : UTF-8" t/ `0 ?. x& v: Y
  216. Codec ID : S_TEXT/UTF8+ N& J: S0 ~% V9 F& O
  217. Codec ID/Info : UTF-8 Plain Text* R( Q: i: r5 v& P2 }* G
  218. Duration : 51 min 28 s
    4 r: E# n8 M" a" I& J/ g
  219. Bit rate : 28 b/s
    + e- m% w& M' T: P4 t1 j7 ]# K
  220. Count of elements : 392  t3 Q" q& c/ J  }
  221. Stream size : 10.6 KiB (0%)) `; n1 Q" _( t# ]9 n* ^- k
  222. Language : Hungarian7 K- D1 `9 w: x5 A3 P, u: z3 m; j
  223. Default : No
    - r( I5 H) _8 t2 ~
  224. Forced : No: ~8 e) c. ^# n/ S
  225. 4 k9 }3 |! s3 _: w) g7 y
  226. Text #14
    ' Q' f' D  k1 e8 l( _" y; w
  227. ID : 16" K( q( g# i0 f" z  N: j$ K% m# L
  228. Format : UTF-8
    % K* h! l( K- y3 ]7 c- C8 g
  229. Codec ID : S_TEXT/UTF8
    0 p; w! b4 r4 P6 L- x
  230. Codec ID/Info : UTF-8 Plain Text
    1 ?( G9 u6 O) T
  231. Duration : 51 min 27 s
    1 a" r% v: A$ C( X' l
  232. Bit rate : 29 b/s3 |, I0 Q) U& p- Q
  233. Count of elements : 3990 V, Q/ V( j9 y; p' q  R
  234. Stream size : 11.0 KiB (0%)
    7 U% L0 T0 V$ s4 P! k8 h
  235. Language : Indonesian( |2 ]% {$ a9 m! ?" e' p- z4 O% E
  236. Default : No3 X+ o# K# U2 z1 v
  237. Forced : No3 r; u# \+ m  k' z
  238. % T0 d5 w- }% p# q
  239. Text #155 b: p# n( y$ u# ~! f
  240. ID : 17% }, H- H' e: ^
  241. Format : UTF-8" N4 h- Q% k  c9 K6 j
  242. Codec ID : S_TEXT/UTF8, P- p6 }1 I& W( o
  243. Codec ID/Info : UTF-8 Plain Text7 |6 M! P/ W0 |
  244. Duration : 51 min 27 s
    4 L0 l+ m1 p5 Z) {
  245. Bit rate : 30 b/s, W9 b7 R( x$ s+ C
  246. Count of elements : 397
    1 r4 i  n5 x0 f8 @
  247. Stream size : 11.4 KiB (0%)3 c: F0 t8 T: H
  248. Language : Italian! O  s9 v4 T6 w' J/ b
  249. Default : No/ j. Q: C8 t) P
  250. Forced : No
    ! Q' c$ K% o+ V  I

  251. ' U7 z, }& H& F/ K: S
  252. Text #16
    ; i* _7 ~/ A; z8 o
  253. ID : 18) F3 D% ^3 ?4 H+ [: V: Y
  254. Format : UTF-8( A! M" H* w0 ]/ N) n7 |6 v
  255. Codec ID : S_TEXT/UTF8
    % p# T! d% T3 ?8 z: m' w; L8 ]
  256. Codec ID/Info : UTF-8 Plain Text& j: }5 n0 [+ G1 Q+ C6 E7 K
  257. Duration : 51 min 29 s
    ; f9 n) p5 f+ ]0 T3 s
  258. Bit rate : 27 b/s
    ! [- [0 X+ I% H4 Y! z$ ]! o
  259. Count of elements : 336% j; m4 q# m+ u6 h
  260. Stream size : 10.5 KiB (0%)+ Q' O% u$ N& H1 c1 R' q
  261. Language : Japanese! M: {- q; J2 d; T- q5 c
  262. Default : No4 a) \; P/ k( h- ?# P2 G$ G" b
  263. Forced : No* U5 J* [8 c, W1 M1 \6 h# H
  264. ( W: b1 Y0 l3 z* n* d5 |
  265. Text #17+ ^+ `4 L  S& d7 \% V
  266. ID : 19/ G7 a0 J, X7 i& }2 d) Z; i
  267. Format : UTF-8, v( f3 d& a3 }4 @5 I
  268. Codec ID : S_TEXT/UTF8* ?2 d% ]  S% J9 q) G- n
  269. Codec ID/Info : UTF-8 Plain Text
    9 b9 g8 F( T. h" `: j% k
  270. Duration : 47 min 44 s: U7 S9 r: N3 d" Q7 o+ u5 u
  271. Bit rate : 43 b/s: s" i% k4 ^4 i6 l
  272. Count of elements : 371* S3 |$ X% ^3 v; H2 Z8 O
  273. Stream size : 15.2 KiB (0%)
    9 W) o; l% }$ l/ }  I
  274. Language : Korean( p# p) q& {2 M+ a
  275. Default : No- Z  i) Q" T- |  ~! o( E9 m6 ]
  276. Forced : No
    0 V. Q8 j+ O" e; q& g
  277. 2 s. x, o* J1 r& f" W# E# ~& L6 L
  278. Text #18
    ) l% j& }, V' @0 l) ]* b& k
  279. ID : 205 n! Q6 y! {- z4 q% a0 H  r: A
  280. Format : UTF-8
      q0 O* n  U: C% |. R5 Z: u
  281. Codec ID : S_TEXT/UTF8
    - S2 T& @) @! x7 Y$ r8 e
  282. Codec ID/Info : UTF-8 Plain Text6 s" s  j% _1 f4 S6 m. ^% o
  283. Duration : 47 min 56 s2 Q* L- j  w% c  Y* Q/ B2 }
  284. Bit rate : 71 b/s
    # w+ N% A' S+ w, z7 B$ \
  285. Count of elements : 657
    ( t- |% v9 F7 d: z: J
  286. Stream size : 25.1 KiB (0%): a& F2 Y# E: a
  287. Title : SDH
      F0 ~! g8 T/ B0 @& u
  288. Language : Korean5 E0 D3 Q+ `; a9 P: s5 x8 x/ B
  289. Default : No0 S: h( R" H+ o7 e* q
  290. Forced : No9 Q% P' B# \: G  ]  ?; _1 p
  291. * `  `4 @2 W/ Q9 x# |
  292. Text #19
    ) j) X2 s0 X' T5 C
  293. ID : 21
    0 u4 o* G* I2 _+ A+ D: `
  294. Format : UTF-8
    ( i  S. Y8 s2 f9 E6 L
  295. Codec ID : S_TEXT/UTF8
    ! a# l1 x+ W& a, T$ D. B  ^1 I
  296. Codec ID/Info : UTF-8 Plain Text
    / `0 A' s6 y* S( M! n  E8 S
  297. Duration : 51 min 27 s" Q# ~& A. j) ^  J* {. G8 u
  298. Bit rate : 28 b/s
    : @) R! O4 o+ j* X) H# z7 n
  299. Count of elements : 385
      _, y/ s6 Q1 N
  300. Stream size : 10.6 KiB (0%)! u0 N9 X! u5 l. P
  301. Language : Malay
    5 S* a5 h! \* R& o1 Z) E
  302. Default : No8 U8 K- q5 d: J
  303. Forced : No
    2 u2 j  p8 y! X

  304. . C1 L6 z) ?. B- v, B- a$ X
  305. Text #201 h  m; G3 H8 @6 x7 z5 h9 C
  306. ID : 22
    + q/ \2 @$ x1 B
  307. Format : UTF-8
    * ]1 M; u! u+ B
  308. Codec ID : S_TEXT/UTF8( S0 v- V# s2 {- c/ v: o2 z
  309. Codec ID/Info : UTF-8 Plain Text8 |; T6 r/ k  o. J( c, C2 C1 P
  310. Duration : 51 min 27 s
    , z" E5 y" D8 F9 z; [# Z
  311. Bit rate : 29 b/s
    : ]" S" ?6 @. _$ i; \5 `
  312. Count of elements : 372# _3 G8 `: k( z) ?6 y" G
  313. Stream size : 11.0 KiB (0%)& o- c( q8 F2 H; y1 i
  314. Language : Norwegian Bokmal
    $ F, V& F6 T$ p# C. [# a
  315. Default : No
      v/ K! E0 ?6 q8 _) y' O' s
  316. Forced : No
    8 T( P& U" v5 y& F$ [6 e

  317. + s3 ^* B4 I1 G& k1 E9 T% F1 P5 P
  318. Text #21
    2 q( X$ F6 s+ E; s4 f, M
  319. ID : 23
    4 n  C7 K6 {5 \8 E& h4 e- b! Z
  320. Format : UTF-8/ G( p* i* W; j# `
  321. Codec ID : S_TEXT/UTF8
    6 V  z1 O- W: q: \
  322. Codec ID/Info : UTF-8 Plain Text# Y; [" E1 D1 }9 O  l
  323. Duration : 51 min 30 s
    ' B# L# {- C+ r3 y5 f/ I) y
  324. Bit rate : 28 b/s$ W( f6 C1 E9 j; m7 G4 o/ z- v/ d
  325. Count of elements : 388
    / k* K( g: W6 ]$ }) n
  326. Stream size : 10.9 KiB (0%)3 `. B; J7 U8 k, n! H5 M
  327. Language : Dutch( U% I9 a2 ?- e2 b
  328. Default : No  m; K* e, a8 u- S# N& B# q
  329. Forced : No
    6 ~9 U9 U4 [, }: W1 }0 ^

  330. : V5 O, ]! |5 O) D, s/ n- T: [
  331. Text #227 C$ b) s$ w; s9 e; ~! _
  332. ID : 247 `9 x9 B/ x4 G) M2 a
  333. Format : UTF-8$ K# r. q- w. ^6 s1 H
  334. Codec ID : S_TEXT/UTF8
    1 q& S) ^7 ~) ^
  335. Codec ID/Info : UTF-8 Plain Text
    $ d7 W* c  J& m1 e
  336. Duration : 51 min 27 s1 z' G6 a6 a% S) ^# @1 H
  337. Bit rate : 27 b/s" u# @2 d  o+ ?4 t
  338. Count of elements : 389
    ; E/ ^$ V) |1 S- A
  339. Stream size : 10.3 KiB (0%)
    5 n4 p. Z0 \9 c$ \- |8 ^6 M9 H- F
  340. Language : Polish. Z5 ^* b/ j0 U0 e
  341. Default : No
    6 A( Q6 x, `6 ?+ h8 G; Y$ M
  342. Forced : No. a4 J  q& b$ ~; Z3 q
  343.   U1 F: S4 H& n+ k1 m1 @
  344. Text #23
    ) O' E% f$ r. @8 F) {
  345. ID : 25
    3 v* ^% O' |5 p9 B7 n% \0 [4 Q7 y
  346. Format : UTF-81 U6 l) Q) F& ]: l
  347. Codec ID : S_TEXT/UTF8
    ! A8 x% U+ `6 u1 J2 i, @
  348. Codec ID/Info : UTF-8 Plain Text
    ! N. N2 x. T+ ^- Q7 |3 T5 H
  349. Duration : 51 min 16 s
    : l6 V7 n/ R/ Q, C  _7 H- D" @
  350. Bit rate : 29 b/s
    : ]9 E* z2 Q. a/ c  p
  351. Count of elements : 384
    . _! l! C* X% e
  352. Stream size : 11.0 KiB (0%)
    4 u# i1 u* h$ |7 {+ Z* ]& b
  353. Language : Portuguese
    . e0 b& t& s& I' j2 y
  354. Default : No
    * T( _2 M0 F! p) M' V
  355. Forced : No
    $ w! I7 f* Z; k4 e+ Z" B  W1 I- u% h
  356. ! O2 {' b/ P1 x  ]+ A- F4 Y) S
  357. Text #24
    2 P( a( x+ C. j$ d$ r) q
  358. ID : 26% H- B/ H8 L# V2 T1 w4 B
  359. Format : UTF-8$ d- ]3 `, r; [! ~
  360. Codec ID : S_TEXT/UTF83 o! B2 V9 z" k0 {. N+ `- g
  361. Codec ID/Info : UTF-8 Plain Text
    / _; @9 K3 K% O; ~
  362. Duration : 51 min 27 s4 j& W& N, l5 @
  363. Bit rate : 28 b/s, ]  K' ^# a  T' p5 E. J
  364. Count of elements : 395, S" N6 k1 k+ z5 L; a! |2 F, p# X
  365. Stream size : 10.7 KiB (0%)8 B& w2 b7 P+ t& \
  366. Title : Brazilian
    7 ^# ^& i4 j! }: T# s, H1 j- F
  367. Language : Portuguese- b  ]5 K# [- p& K+ L' X7 k
  368. Default : No- G+ i3 w6 `6 M  N) v) e
  369. Forced : No
    . _  _) G& L) ^, D/ A

  370. 7 G, ]/ \; ~, H& Y' B2 ~
  371. Text #25" T- h: B, u  t
  372. ID : 27
    9 [) B% j: V/ N" v) v2 X( p6 T+ V! \+ Q
  373. Format : UTF-8/ ~! {8 w/ U5 s
  374. Codec ID : S_TEXT/UTF8
    1 E9 C, _4 P; B
  375. Codec ID/Info : UTF-8 Plain Text( C! F4 d+ t: K. @9 G- H( r  h
  376. Duration : 51 min 27 s
    ) t4 V+ D$ T% {" c9 N" q( f
  377. Bit rate : 33 b/s
    0 e3 u9 V0 t) k! ^
  378. Count of elements : 388& W6 e! Q/ x: \; Y- }' o  E/ c8 _
  379. Stream size : 12.6 KiB (0%)
    % S( u8 ?  S- G' E/ \3 H6 `
  380. Language : Romanian, S$ s! {/ ]+ K* m  \! s0 N8 f
  381. Default : No
    6 l  [$ g. b* j% F, H6 A
  382. Forced : No
      s1 G8 P: F1 f( K' b( Y3 x
  383. : k3 q! r' X9 s# _% Z
  384. Text #26# _4 \3 E7 e' [
  385. ID : 28
    7 X, p. L- ^+ f. \, s+ ~% j
  386. Format : UTF-8
    ; h* w/ i" r8 a$ q( G0 B
  387. Codec ID : S_TEXT/UTF84 ?# w+ q$ S$ L* m/ \/ ^: w+ }
  388. Codec ID/Info : UTF-8 Plain Text
    . b1 @3 l/ `. a) Q, M" }
  389. Duration : 51 min 27 s
    , ^4 n0 q1 t" l9 [
  390. Bit rate : 45 b/s
    $ i" c+ d8 ]. P; O$ m' c
  391. Count of elements : 399
    8 G, @5 L* u+ |! |/ g7 y
  392. Stream size : 17.0 KiB (0%)
    9 E  s/ U4 U$ T* A+ j: |+ H' i/ F
  393. Language : Russian  d+ h5 m+ x1 \
  394. Default : No+ E  T* Q8 _+ k& O
  395. Forced : No
    / x6 ^+ j  I6 H/ e$ s2 D7 m+ q9 l

  396. 1 C; a3 D: l& @# r8 a' H# @5 Y
  397. Text #27
    ( }1 W5 H! w' H6 H
  398. ID : 29
    & |: Z1 M) e* n, h1 ~
  399. Format : UTF-8. j. d0 ^3 P0 d5 E2 z' b  O
  400. Codec ID : S_TEXT/UTF81 k; G' s1 O! G$ M- E0 ^' O1 I
  401. Codec ID/Info : UTF-8 Plain Text' |2 ~3 K! o' x7 C+ d6 {8 ?  Q" Z
  402. Duration : 51 min 27 s- v. A. v3 ^6 g
  403. Bit rate : 29 b/s3 t% Z0 {! o( C
  404. Count of elements : 397! N. S: v- N- ]% f' X* ]
  405. Stream size : 11.2 KiB (0%)
    9 O. Q# }! \5 P7 e) ~
  406. Language : Swedish
    1 ]& B7 R$ {; f7 \# e1 E
  407. Default : No
    0 q8 o# l% P" a: h
  408. Forced : No8 {- a4 l' [4 M. G/ b+ `- l4 ~5 J  d

  409.   s$ R* L% ~& Z9 Z1 _. A- c" a
  410. Text #283 {. h, Y3 E( Q: Z) E* P9 x( M. s
  411. ID : 30
    . L: F1 X: q2 j/ A0 u" P6 \
  412. Format : UTF-8
      b0 }# D0 ?* U0 g, s
  413. Codec ID : S_TEXT/UTF8
    $ J0 R7 u1 ]# I1 `* m
  414. Codec ID/Info : UTF-8 Plain Text
    2 a- ?% V$ M/ E2 N, Z3 q% d
  415. Duration : 51 min 29 s# P# q5 S) Z6 n) _& w9 C- x& f
  416. Bit rate : 78 b/s* j' d6 `) ], W5 G$ F
  417. Count of elements : 381- H# f! U& d0 q$ [9 X. K; {
  418. Stream size : 29.7 KiB (0%)5 x$ h) I7 j, a& {" R
  419. Language : Thai
    % K+ Z& k# [  G; w" @
  420. Default : No
    ! n: k! M' c1 }' n) Q
  421. Forced : No" g$ _* n8 Z; }' @. q/ R) d1 _1 p
  422. 0 }& o! Z/ d: a) U' b
  423. Text #29! u- y# _( a2 F, ^! j
  424. ID : 318 f8 U, d( P! C& w/ `4 T: P
  425. Format : UTF-8
    0 u) \8 @( o5 Y7 B6 g) y
  426. Codec ID : S_TEXT/UTF8
    3 s$ g4 k  V, j! H* {, b/ z$ Z) ^1 j
  427. Codec ID/Info : UTF-8 Plain Text
    6 _, u" O, }6 s- k( e0 x+ ^* t$ V- d# c
  428. Duration : 51 min 27 s
    : D* F0 N  h" s/ y9 E2 Y
  429. Bit rate : 27 b/s
    * z1 @0 {# [4 t: f; E' I- J
  430. Count of elements : 399
    ) B* D3 B  c. x4 Q6 \8 `; @2 u3 g
  431. Stream size : 10.5 KiB (0%)$ e/ V+ ^7 q3 c& ^- O
  432. Language : Turkish1 y; Q) R' I5 R! t9 p: `; M5 C% O9 c& p
  433. Default : No
    ( l* Y6 y* M' T
  434. Forced : No
    / b; j4 Q! D. W" L% l& o, z- J( p! q

  435. 8 l' ~5 _, T2 O* w7 p/ z* G3 E
  436. Text #30" z2 B  X) U2 e1 m* h" R
  437. ID : 32- ^; @: D; b8 [3 Z2 s" H, J; b& I
  438. Format : UTF-80 [. m. q0 `$ u
  439. Codec ID : S_TEXT/UTF8
    0 _. K) \3 f" ^" X* g1 {
  440. Codec ID/Info : UTF-8 Plain Text$ o8 ~7 u7 n4 r3 e& X) b
  441. Duration : 51 min 27 s
    % J8 y6 ~' W) ?3 i/ [# Y5 [
  442. Bit rate : 39 b/s5 h# Y5 B! q; z0 K4 Q( C3 L
  443. Count of elements : 399
    2 W% m$ z' o0 k/ D& k+ E
  444. Stream size : 14.9 KiB (0%)
    2 [$ a& z6 B$ G# r
  445. Language : Vietnamese
    # g6 Z( [5 ^- L1 `7 J# W
  446. Default : No
      p" d6 \& A( M6 K
  447. Forced : No. K5 q; t- V: ?3 ]$ [+ Z$ h

  448. % g4 K! P- b7 O9 s' j* @- m
  449. Text #31
    6 l8 W* ~9 w( l4 G  P1 m( \4 f; S
  450. ID : 33
    ' R0 p9 B" n4 ]* u
  451. Format : UTF-83 I5 m8 n1 X  V
  452. Codec ID : S_TEXT/UTF8
    ' U0 V3 u1 U) a; X
  453. Codec ID/Info : UTF-8 Plain Text
    7 U7 B5 N1 u. y6 l6 E5 P) o
  454. Duration : 51 min 27 s
    : G' ]1 R* x9 `2 c; R
  455. Bit rate : 28 b/s
    9 t; k' b0 b; Y" N9 H' S
  456. Count of elements : 398
      G4 w6 W( l$ A# n6 F9 D
  457. Stream size : 10.8 KiB (0%): k( a' c" J# k& {
  458. Title : Simplified
    " [9 C0 M- v/ Q9 e1 }* B
  459. Language : Chinese! r" [! X' _9 t2 }
  460. Default : No- C. L: [( S; `" I7 p
  461. Forced : No
    - U- z7 \) C; N

  462. $ x% c1 O7 V+ Z+ p
  463. Text #32
    , p$ T( l5 l2 s& Y8 X3 A* d; G
  464. ID : 34
    0 c! l4 E! Z. @5 ]1 X- U
  465. Format : UTF-8: w6 a( b' {* C
  466. Codec ID : S_TEXT/UTF8
    ; Q3 d- g5 ^% q  {: |* H/ X& B
  467. Codec ID/Info : UTF-8 Plain Text
    9 j; n, T: ]% `" s- E5 ~
  468. Duration : 51 min 27 s5 Q0 n. K4 J" ?- Y
  469. Bit rate : 28 b/s
    4 h9 w/ W" p& Y4 `
  470. Count of elements : 398
      Q* p- ?4 z9 y2 ~4 M
  471. Stream size : 10.8 KiB (0%)& N0 ^8 O( j' ~, E1 u3 n
  472. Title : Traditional
    2 d1 h1 k, q6 L' }  u5 ?9 p
  473. Language : Chinese) F- [& P* [. m0 m. V
  474. Default : No- o, u4 s1 y& \: H' R* W: V
  475. Forced : No, b/ ~/ y4 _, \/ F' W6 r8 U6 Q
  476. ( o2 ^# e& E4 g' T* T5 s
  477. Menu
    ' U/ x8 c: D6 I9 D3 J5 f% `
  478. 00:03:19.219 : en:Intro start+ I) v. y5 {- S0 e8 t
  479. 00:04:38.257 : en:Intro end
复制代码
+ K1 c; P% x; k# x2 C
0 K2 d: O4 P3 W. m- [
4 C  p1 R$ g3 y* w& X9 Q9 u
1 j8 |$ P+ ?: @: K

1 Q2 p2 B( k. ~1 `% S) r4 T
$ j3 Q% w+ t* d0 h1 n" }
游客,如果您要查看本帖隐藏内容请回复  VIP可免回复查看隐藏内容 详情请点击
发表于 2020-3-13 17:58:51 | 显示全部楼层
游客无权限浏览该内容
发表于 2020-3-13 18:27:44 | 显示全部楼层
游客无权限浏览该内容
发表于 2020-3-13 19:16:49 | 显示全部楼层
游客无权限浏览该内容
发表于 2020-3-13 23:21:05 | 显示全部楼层
游客无权限浏览该内容
xiaosiaivv 该用户已被删除
发表于 2020-3-13 23:25:54 | 显示全部楼层
提示: 作者被禁止或删除 内容自动屏蔽
发表于 2020-3-14 10:56:05 | 显示全部楼层
游客无权限浏览该内容
发表于 2020-3-14 18:33:20 | 显示全部楼层
游客无权限浏览该内容
发表于 2020-3-14 20:22:27 | 显示全部楼层
游客无权限浏览该内容
您需要登录后才可以回帖 登录 | 立即注册

本版积分规则

封号公示|电子邮件联系本站hd1tj.net#[换成@]outlook.com|免责申明|HD一条街

GMT+8, 2021-8-4 17:45

Powered by Discuz! X3.4

Copyright © 2001-2021, Tencent Cloud.

快速回复 返回顶部 返回列表