HD一条街

 找回密码
 立即注册
搜索
查看: 8359|回复: 32

[1080P和1080i] [无台标][韩剧:王国 第二季 全6集][1080P-Netflix版/12.78G][韩语 中文英文多国软字幕][MKV]

[复制链接]
发表于 2020-3-13 17:50:07 | 显示全部楼层 |阅读模式

马上注册,结交更多好友,享用更多功能,让你轻松玩转社区。

您需要 登录 才可以下载或查看,没有帐号?立即注册

x
3 W) X2 K9 {& q
                               
登录/注册后可看大图

" P0 G: U% \: g* q# F* @1 @7 j; t5 S' R5 d; H% ]% l
◎译  名 王国 第二季 / Kingdom / 李尸朝鲜(港 / 台)
9 G+ K4 p# {6 z; m9 {/ |◎片  名 킹덤 시즌 Season 2
9 l8 x& i, Z, W6 a3 c◎年  代 2020& [  o; n, [' |
◎产  地 美国 / 韩国
8 R( F% m6 T4 r" |9 P: N◎类  别 剧情 / 动作 / 惊悚
% G9 |0 W& e6 J- @& ^! P◎语  言 韩语! I0 J0 S: M* k: A9 @
◎上映日期 2020-03-13(韩国)4 A6 _/ A6 [3 t4 L
◎IMDb链接  https://www.imdb.com/title/tt9256448
# b2 U, @  Q3 c) H$ }8 [8 \8 \; j◎豆瓣评分 0/10 from 0 users
9 L# a" T; G* Y◎豆瓣链接 https://movie.douban.com/subject/30306401/
# e( ]1 B' d  t: V" p+ z◎集  数 6/ `6 P) W5 O+ L% u2 T
◎导  演 金成勋 Seong-hun Kim / 朴仁载 In-je Park
" n. c& T) K- g  y# ~' ]◎编  剧 金恩熙 Eun-hee Kim
" h; f. f) \5 y5 [4 u$ H- @" P9 Y6 |◎主  演 朱智勋 Ji-hun Ju
* U/ }$ r! H5 h) j; i$ _       裴斗娜 Doona Bae4 t: k6 s% S, a9 s0 r- J
       柳承龙 Seung-yong Ryoo0 p/ f" O# r/ N# F6 X5 z  t+ ~
       全智贤 Gianna Jun
) d& N6 ?% K1 @$ A: z3 P' n       金相浩 Sang-ho Kim
  H. @+ ?9 r+ `       金圣圭 Kim SungGyu
1 R' Z3 d5 ?" N0 n1 R* [       金成圭 Seong-gyoo Kim
+ q- ]6 x' i5 s( q1 a: x0 Z/ ?       朴秉恩 Byung-eun Park: i' J8 N; i# e
       金惠濬 Hye-joon Kim
! |- I1 Q* [+ v% r6 r- g, w+ U0 F# Z/ n4 e       金太勋 Tae-hoon Kim2 q! _- a# g5 _$ p" n8 ]' p3 ~# {
       许峻豪 Jun-ho Heo" x- P/ P5 m0 H: D& c7 j; y" f" g

  ~& N( Q: U  Y/ ^. v" H" T9 U' s) J2 ?* q
◎标  签 丧尸 | 古代丧尸 | Netflix | 韩国 | 韩剧 | 裴斗娜 | 朱智勋 | 剧集: Z' ]' j* z  a( i  v: {

' [. M6 t% f4 [◎简  介  
- C5 P1 H7 W4 u5 I2 A9 J" \0 G2 a! p1 M/ n  e6 u
  Netflix续订韩剧《王国》第二季,计划将在该剧第一季于今年年底明年年初播出后开始制作,《信号》编剧金恩熙将继续执笔,第一季主演柳承龙、朱智勋和裴斗娜也将悉数回归。2 N# T5 c$ n' ]: o' s/ l
  《王国》讲述了朝鲜王世子在调查离奇疫病的过程中发现了威胁国家安危的残酷真相的故事,是一部六集长度的僵尸剧。而第二季将接续第一季展开,整个故事将在第二季完结。  D5 E) i8 o# ?2 Z( o$ V  c7 w
  据韩媒消息,目前《王国》第二季正在制定具体日程,计划将于《王国》第一季在今年12月或明年初播出后开始制作。第一季主演柳承龙、朱智勋和裴斗娜将继续出演,《信号》编剧金恩熙将继续执笔。
1 D5 X8 B9 ]- n7 w  E& F4 ]) b! p9 u* U) J/ b4 a* K8 A
◎获奖情况  6 k, ]+ a  Q! G5 y4 `+ j9 W

9 d0 F! g) I/ n- k9 W0 \  第6届豆瓣电影年度榜单(2019)
2 k! i, N- M# K* C  最值得期待的剧集(提名)
  1. Video
    3 |5 g: V$ N1 Y9 ^8 O) Z
  2. ID : 1
    5 H. L6 U( B  _
  3. Format : AVC
    ( q, U+ T. w9 A: o! N; q
  4. Format/Info : Advanced Video Codec7 D6 Y$ p8 [4 s
  5. Format profile : Main@L4
    2 p7 ?0 }- L  A4 p5 p, [
  6. Format settings : CABAC / 3 Ref Frames/ ^; N5 k' q5 D. |7 s: Z) F$ E: [
  7. Format settings, CABAC : Yes
    . ?8 b# U! N3 f/ i, N5 J
  8. Format settings, Reference frames : 3 frames
    % o9 @/ P5 I: F0 C4 J1 z3 f
  9. Codec ID : V_MPEG4/ISO/AVC
    * ^! e3 G& i) i4 z
  10. Duration : 52 min 23 s
    8 z0 @( y8 {/ P3 B& i  u" v
  11. Bit rate mode : Variable* Y2 g1 t& B1 v) ]6 s
  12. Bit rate : 7 500 kb/s- u3 l7 b+ q0 |- Z' ]
  13. Maximum bit rate : 11.2 Mb/s$ J) J8 a- R4 A' s$ m
  14. Width : 1 920 pixels' M% D% e4 V8 O; F$ y& {" q
  15. Height : 1 080 pixels6 F/ p1 |8 d6 f1 d$ m
  16. Display aspect ratio : 16:9
    , \" b* D: c& ^5 C2 g
  17. Frame rate mode : Constant
    4 S) i$ f% t  N/ b
  18. Frame rate : 23.976 (24000/1001) FPS
    : ^( x* x0 U. o: \
  19. Color space : YUV: A# u% Y2 C2 m: |  `
  20. Chroma subsampling : 4:2:0
    4 n! `) Y9 m4 u; E4 y, y2 _4 c6 s
  21. Bit depth : 8 bits
    5 E" \$ q. n1 F' E( ?
  22. Scan type : Progressive! J: {+ A" p. n9 Q
  23. Bits/(Pixel*Frame) : 0.151
    1 R8 ]7 g5 k" G7 w) ^# c3 q
  24. Stream size : 2.67 GiB (90%)
    $ ~+ {" i; ^) j" c
  25. Writing library : x264 core 148 r2717 0d2410d& d0 t$ t* ^/ G" |
  26. Encoding settings : cabac=1 / ref=3 / deblock=1:0:0 / analyse=0x1:0x111 / me=umh / subme=10 / psy=1 / psy_rd=1.00:0.00 / mixed_ref=1 / me_range=24 / chroma_me=1 / trellis=2 / 8x8dct=0 / cqm=0 / deadzone=21,11 / fast_pskip=1 / chroma_qp_offset=-2 / threads=6 / lookahead_threads=1 / sliced_threads=0 / nr=0 / decimate=1 / interlaced=0 / bluray_compat=0 / stitchable=1 / constrained_intra=0 / bframes=2 / b_pyramid=0 / b_adapt=2 / b_bias=0 / direct=3 / weightb=1 / open_gop=0 / weightp=2 / keyint=250 / keyint_min=23 / scenecut=0 / intra_refresh=0 / rc_lookahead=48 / rc=2pass / mbtree=1 / bitrate=7500 / ratetol=1.0 / qcomp=0.50 / qpmin=6 / qpmax=51 / qpstep=4 / cplxblur=20.0 / qblur=0.5 / vbv_maxrate=11250 / vbv_bufsize=15000 / nal_hrd=vbr / filler=0 / ip_ratio=1.40 / aq=1:1.00
    2 t+ g& m  y/ h5 _  E* V2 z
  27. Default : Yes$ ~3 ~' R! e) Q
  28. Forced : No
    ( b3 j4 s) J3 s9 Q; C

  29. $ D* d$ [$ ^7 U
  30. Audio) k% u: M+ [! Y! g  Y. X
  31. ID : 2
    9 k& h5 u4 Z$ d+ g7 p
  32. Format : E-AC-3 JOC; N! I$ u" s% a7 C: F
  33. Format/Info : Enhanced AC-3 with Joint Object Coding
    & S( ?4 C  J+ H1 M8 i
  34. Commercial name : Dolby Digital Plus with Dolby Atmos& `: t6 J+ _: @1 b2 R+ B
  35. Codec ID : A_EAC3
    2 E3 R  G1 H8 i6 M) H0 b
  36. Duration : 52 min 23 s. I( C; c& y$ v* W2 X5 ^
  37. Bit rate mode : Constant3 f0 \' M! q+ f1 y& I, ~
  38. Bit rate : 768 kb/s
    - Q7 ^  g* d3 c8 z
  39. Channel(s) : 6 channels
    - H" O+ x' u( g3 v; h1 F
  40. Channel layout : L R C LFE Ls Rs
    ; A1 o' E) ], f
  41. Sampling rate : 48.0 kHz
    ' L$ C! M; o" j
  42. Frame rate : 31.250 FPS (1536 SPF)
    0 B0 j1 |# P5 O* g  _
  43. Compression mode : Lossy
    3 u3 g2 I" h/ d8 d  @8 n( s" n' B
  44. Stream size : 288 MiB (10%)* |  n/ A0 n& Q1 x$ X( U* V
  45. Title : Korean' `: _) Q; }! S$ @& a7 @( I
  46. Language : Korean4 ~, U& E. ]5 [% C* b
  47. Service kind : Complete Main
    + g" L7 V1 `: y6 j
  48. Default : Yes
    & c' ]/ Z  N3 @5 _1 l% |% ^+ r- s
  49. Forced : No' d) e3 N; A; t/ E# T' r! n$ y
  50. Complexity index : 16: q( r' M; {; Y! }. f  n
  51. Number of dynamic objects : 15
      t. p; i: w4 T5 L6 `, s2 R# N
  52. Bed channel count : 1 channel6 M$ f- Q1 J$ L) A5 B$ w
  53. Bed channel configuration : LFE; D0 q1 U% @  n0 Z0 a& ~* u
  54. $ J# X( ^( x- ^. j' ^
  55. Text #1
    2 U( J7 D7 j: ^  C' m
  56. ID : 34 |: q( r5 G% _+ s; `. V0 H
  57. Format : UTF-8" ~+ i+ _6 @2 C9 V/ f' ]' O
  58. Codec ID : S_TEXT/UTF8) p! v+ a! G4 O0 @  t
  59. Codec ID/Info : UTF-8 Plain Text( g6 `0 Z0 g0 [2 s' T) I: {
  60. Duration : 51 min 12 s9 a$ }+ x) O1 n7 x7 Z
  61. Bit rate : 40 b/s6 v3 @5 ?$ P8 ^1 A' y5 P, B
  62. Count of elements : 600- j# B# T2 ]2 j4 x
  63. Stream size : 15.1 KiB (0%)- Z. t6 K4 V) U2 }: |9 z5 c' i
  64. Title : SDH
    . _: N  z5 W9 h+ S, I! N: a
  65. Language : English0 B/ M2 [7 f( [
  66. Default : No
    - M" }  I- J8 j; M5 ?
  67. Forced : No$ K2 e$ P0 O* @  _: U4 U
  68. % J; ~" l; [& g% ~9 c
  69. Text #2
    4 m; T5 i* H4 `) `( V4 _5 m
  70. ID : 4/ i2 y( H5 q' H1 c
  71. Format : UTF-8
    4 L. |" L3 U$ ]; H$ X
  72. Codec ID : S_TEXT/UTF89 j* r- p* s& S# `7 q
  73. Codec ID/Info : UTF-8 Plain Text
    : R* t( i; A& p( p) j' K+ L
  74. Duration : 51 min 12 s& `/ z9 d3 y4 `3 i
  75. Bit rate : 31 b/s# ?# v' C  d) ]# n5 m$ N, v
  76. Count of elements : 393
    , Z- y- \) N5 Q- G6 f
  77. Stream size : 12.0 KiB (0%)* A4 ~- s; i4 r' g8 z$ O$ c( I3 Z
  78. Language : English& D% ]/ e9 f/ H; K
  79. Default : No
    4 I- _1 C& J- p" `9 \. t
  80. Forced : No5 D; m8 b' ]4 D3 K5 K
  81. 7 O1 Q; ^+ x9 a( W% Y+ g- f
  82. Text #3/ S- ]' I: C& `; b
  83. ID : 5& N  i0 k2 p2 S3 q7 R
  84. Format : UTF-89 C& s; \2 `+ a! t
  85. Codec ID : S_TEXT/UTF8- ~- V- d: x- q3 i9 K
  86. Codec ID/Info : UTF-8 Plain Text
    7 a3 j, K( J/ {! W3 n
  87. Duration : 51 min 27 s$ `) n7 y( C9 M) v2 |8 l
  88. Bit rate : 52 b/s
    . ?6 t9 G0 o9 G  {# t
  89. Count of elements : 3980 e1 N* I7 X0 n0 j' ]
  90. Stream size : 19.6 KiB (0%)8 d5 g8 f9 r2 x! _
  91. Language : Arabic8 n1 g1 O$ W- B; B, E
  92. Default : No
    3 G3 `/ l3 G, e2 c+ [, {5 ?7 g
  93. Forced : No
    9 K6 L& b# ~5 t0 J7 s/ P

  94. / V2 \% m; Q$ u: m4 h  O
  95. Text #4
    " m2 B1 V: [% v& R
  96. ID : 6* `6 m' k: [/ Q' ?; V' I
  97. Format : UTF-8& x' l8 u4 i' @# |
  98. Codec ID : S_TEXT/UTF8
    ( r" w& S( F( s! d0 M
  99. Codec ID/Info : UTF-8 Plain Text  c9 [6 r* H7 s  L
  100. Duration : 51 min 27 s
    ; B8 \# @2 h' }2 H* j& D* k* f$ _
  101. Bit rate : 27 b/s! _* Q& u3 s" V  V; k3 M* `
  102. Count of elements : 3946 b* d0 ]& I* n5 {$ ^( @% Y0 n; g  d
  103. Stream size : 10.3 KiB (0%)! R+ C: \/ |7 H6 k, J
  104. Language : Czech
    ) h0 N. o0 r& n1 a, v$ {
  105. Default : No( {  j& W6 T- j- W6 n
  106. Forced : No: L0 d6 m$ L) Q4 r$ F( ^
  107. * n9 n4 _. v+ a  q9 E4 a
  108. Text #56 P; M* s$ T) G% X+ k( Y$ x8 d" o
  109. ID : 7
    / }5 ^9 Z" d: g( X: x" k
  110. Format : UTF-8
    4 K5 {% F1 y( F2 r
  111. Codec ID : S_TEXT/UTF8
    $ X$ U$ I% i" W2 K8 s4 f
  112. Codec ID/Info : UTF-8 Plain Text! h1 X  p/ L7 T1 u5 m
  113. Duration : 51 min 27 s
    6 i) X+ }# j" G7 N$ W
  114. Bit rate : 29 b/s8 n6 Y, K# J' {
  115. Count of elements : 381* w1 `7 L# [# C/ _/ p/ s8 g6 N
  116. Stream size : 11.0 KiB (0%)# M; s, H* x7 c* }" Y* W1 V
  117. Language : Danish* O" m4 x6 n/ F5 ^' y, f/ a, D6 \
  118. Default : No7 D$ F4 ~* D2 e% c# x! T8 N: A& {" [
  119. Forced : No" x# k5 f8 V  k% q
  120. 4 |; f9 q. i4 O
  121. Text #6
    # D' x( c- T1 G( r0 n% d+ s' U
  122. ID : 8
    5 ^1 v. I  x+ `4 \% N
  123. Format : UTF-8
    8 c+ @. s$ D! n8 N1 B
  124. Codec ID : S_TEXT/UTF8
    0 W+ ?/ z6 M% e2 y, A7 K
  125. Codec ID/Info : UTF-8 Plain Text
    # n1 _1 F6 c- {+ u1 e% G
  126. Duration : 51 min 27 s1 {; d# ^/ x% p2 E% q
  127. Bit rate : 29 b/s
      h/ H8 _; t2 L' y* |4 n
  128. Count of elements : 381  A5 p% w. X5 l+ g, I0 `: D
  129. Stream size : 10.9 KiB (0%)
    1 ]* t% G3 v' A  U) y, v3 v
  130. Language : German" {4 [. N6 Q5 g" ]: G7 X& M
  131. Default : No/ Q" ~- w/ u2 ]5 m7 ]' e2 ~
  132. Forced : No
    8 ^# y8 X9 a$ Z: |: F9 z5 [; V
  133. 5 w5 j0 s: j4 _) v2 O- F
  134. Text #7' s  V9 u: Q# b" e
  135. ID : 9! ]" \, ~1 ^# V. N+ @9 e1 r
  136. Format : UTF-80 T5 c2 J1 u- q$ I
  137. Codec ID : S_TEXT/UTF8
    ! A' r# r1 S# X* w( `) k# A% o8 H* s
  138. Codec ID/Info : UTF-8 Plain Text! w  ?$ H4 v0 `, ]
  139. Duration : 51 min 27 s9 Z* G( ~9 h( k  f3 y' k& P  {
  140. Bit rate : 49 b/s! H4 R3 m5 L" W7 {. E
  141. Count of elements : 384* ~; u* L1 x) C* u1 C
  142. Stream size : 18.6 KiB (0%)- r: @& H) {2 E9 a) v8 z; }
  143. Language : Greek6 C7 w9 `: w' c4 L; l7 o* I2 a
  144. Default : No, R5 q# \1 F: O( e$ h
  145. Forced : No% `$ q9 _# u3 ]1 c
  146. * X" P, @1 E3 o6 A" x: G7 ^) m4 m
  147. Text #8, f7 w1 V( m, E) D! D
  148. ID : 105 a) T( {# }5 x5 W% H
  149. Format : UTF-8' m9 w$ f. h7 Q2 ]
  150. Codec ID : S_TEXT/UTF8
    ) Q7 z: v) E" ^. Q# V) O7 C7 t
  151. Codec ID/Info : UTF-8 Plain Text
    : }) r' V, P" F; B: d7 H
  152. Duration : 51 min 27 s
    0 k* u; L4 L( \: b0 P  V4 w, q
  153. Bit rate : 29 b/s
    ) G1 F. C6 \4 j' Z/ i4 H1 J
  154. Count of elements : 380
    6 K7 p6 F, Y. F* A7 p
  155. Stream size : 11.2 KiB (0%)" K& d: P: A; U
  156. Language : Spanish
    " A% b' J; K! d$ G* H* d7 n& U
  157. Default : No
    ' p! ?7 f  N4 s. w2 d) D
  158. Forced : No* s2 q& |8 g! D6 u  f
  159. : q/ I1 U6 `# L" K! {
  160. Text #9
    / e( G0 `# V+ _+ i
  161. ID : 11/ \7 o  Z3 e; \# {
  162. Format : UTF-8
    1 A3 n- `" D% a( l' e
  163. Codec ID : S_TEXT/UTF8$ y. Q1 T3 m6 D" s0 Q8 k/ E( Q: A2 |
  164. Codec ID/Info : UTF-8 Plain Text- X& `' g  H/ [& J' k& I4 w
  165. Duration : 51 min 16 s7 r/ ~/ ^7 i: [1 c" s# Z
  166. Bit rate : 28 b/s& t* S4 x2 _; p* d
  167. Count of elements : 384
    : s8 ]6 N, _) Y) v+ J; ^# t+ {
  168. Stream size : 10.6 KiB (0%)
    * k" A# Q" u3 {& N
  169. Title : European& S* ~" ?" a3 M& d8 Y; ^- Y
  170. Language : Spanish
    : z- d* k% j+ i0 D0 l, g" l
  171. Default : No
    0 Q. E- D- \# U; W# y) m
  172. Forced : No
    4 _4 q3 z+ D6 @6 [7 T; t' C
  173. $ B  B1 i! E3 a2 f8 g7 H) r! x% x
  174. Text #10
    , u# w1 ]: I) ~5 ]) z
  175. ID : 12: M+ F/ L0 D+ V1 B- j  r2 P5 I
  176. Format : UTF-8! B; m- T* N" X7 P% f" s
  177. Codec ID : S_TEXT/UTF8, s9 V7 j2 V& Q$ v
  178. Codec ID/Info : UTF-8 Plain Text
    : q# @: k! g' w$ @6 z
  179. Duration : 51 min 16 s
    0 o4 N, I$ I8 l3 f
  180. Bit rate : 29 b/s% K. B2 R6 e3 A3 _) j2 s7 X
  181. Count of elements : 384
    1 l6 w# C9 R/ s0 v- h$ O& {5 w
  182. Stream size : 11.2 KiB (0%)& @, S8 Q: S3 K! w
  183. Language : Finnish. E9 J- n" Q, ~6 A; Z! M
  184. Default : No
    . o& ]( c$ z- N
  185. Forced : No
    4 l  m( Z- Q+ K1 R

  186. 0 s* n% |% X/ u3 s' e( p4 z9 f' I) R
  187. Text #117 r& A' T9 w  H" C
  188. ID : 13$ v, |9 c) N7 V8 j
  189. Format : UTF-8
    : Q2 X3 [: X1 J1 C' D) S
  190. Codec ID : S_TEXT/UTF8$ Z% n- ]" s' m8 G
  191. Codec ID/Info : UTF-8 Plain Text. _+ o0 Z) c' S
  192. Duration : 51 min 27 s8 Z- a% U$ F1 q! k# o3 w' M, A1 R! Z0 s
  193. Bit rate : 30 b/s
    " g1 x5 l$ Y5 @3 C8 _7 {6 T
  194. Count of elements : 391
    . r; O: p1 h2 y0 b9 }6 E1 B6 s
  195. Stream size : 11.5 KiB (0%)0 \# ?; j) L" ^: H$ y- A
  196. Language : French
    % r6 Z$ Z, Z+ |/ L: w) {
  197. Default : No) W! \' c* e9 s2 l4 h, e) \& x
  198. Forced : No$ K1 q6 e: p5 P5 P  X& y

  199. ( E0 _: N) ~( E* a
  200. Text #12
    : z' l7 ~, C# J/ d" _! D
  201. ID : 14
    0 \* W  q, @$ N: w5 @$ }1 V
  202. Format : UTF-8
    ) l6 U' x6 s9 @8 u
  203. Codec ID : S_TEXT/UTF88 }7 }4 ~8 f3 P+ I8 I! n
  204. Codec ID/Info : UTF-8 Plain Text
    8 `  a8 f& u$ m5 h) h1 N
  205. Duration : 51 min 27 s
    ) R1 D2 t/ L" e
  206. Bit rate : 47 b/s
    1 ^+ f/ l: i0 B  [- F( I3 A: l
  207. Count of elements : 399
      R3 ~/ B2 j$ N0 _" P% k
  208. Stream size : 17.8 KiB (0%)* z# b2 N& S7 [% O8 @' o
  209. Language : Hebrew8 _7 [7 V% v) B
  210. Default : No
    0 g+ \8 \! A' K" u
  211. Forced : No! K+ o/ k6 \$ u6 q' ^2 a
  212. , [7 h6 Z/ n4 F% K
  213. Text #13
    ; d0 l# i& ^- W- g4 j0 G
  214. ID : 155 M2 |0 f9 @) l: e$ c, e" i9 i9 P6 ~
  215. Format : UTF-8
    5 n5 R: z- r0 r9 L2 ]) H
  216. Codec ID : S_TEXT/UTF8* N1 c) {- v( S' u4 ~3 B$ `1 x* o
  217. Codec ID/Info : UTF-8 Plain Text/ d6 U4 F: g2 @1 h, Q7 q1 W9 k# B
  218. Duration : 51 min 28 s
    . A) `5 O- Y( y& c* J; a
  219. Bit rate : 28 b/s" k, j( p- q  T& }8 `* b) K
  220. Count of elements : 392& }5 r# v2 C) |  v# w7 r
  221. Stream size : 10.6 KiB (0%)
    5 j5 W* d* V. E3 c: Y
  222. Language : Hungarian
    ' g, C8 J0 F) R, l
  223. Default : No
    & A" e" v0 H1 d5 [- }
  224. Forced : No
    ) F5 b& |2 P" R" M$ d
  225. . F& b* u- e4 f8 T7 [8 }
  226. Text #14
    / q  t/ C2 n' O1 B5 S- Q
  227. ID : 16
    ' z  `3 T) S3 T0 ^& f2 O" R
  228. Format : UTF-8! A" k5 w0 F" B
  229. Codec ID : S_TEXT/UTF8; D$ y6 e1 F4 z: L" F7 r/ V3 D  n
  230. Codec ID/Info : UTF-8 Plain Text
    6 b1 w1 h! ]5 |# Q2 ~  U
  231. Duration : 51 min 27 s' s" [% ^& A" G
  232. Bit rate : 29 b/s* |8 }# _4 I1 {8 j- |: w
  233. Count of elements : 399
    1 x1 y4 ?; @2 u: l+ j
  234. Stream size : 11.0 KiB (0%)" C2 v# k& A1 t4 d+ @. H0 r
  235. Language : Indonesian  i1 C5 h2 p5 Z' F& |+ a7 P
  236. Default : No( h7 a( D5 ~1 b5 E
  237. Forced : No; ]5 d( X6 J# J. c

  238. 4 E( ?# Y2 d# w5 r
  239. Text #158 ~" h. ?# ?- F: v
  240. ID : 17
    * }! V( s( \5 V3 E
  241. Format : UTF-8
      t+ z$ A3 t9 ^% F: E$ M& j& {- M
  242. Codec ID : S_TEXT/UTF8
    : b& B# [2 W' a& f
  243. Codec ID/Info : UTF-8 Plain Text" |0 \- _% j: [& I( m# p) b" p
  244. Duration : 51 min 27 s
    , t# ^8 n, U' ?8 w
  245. Bit rate : 30 b/s- e! m9 K, y( \: P; X
  246. Count of elements : 397
    : q6 b+ W' G7 l7 a1 L
  247. Stream size : 11.4 KiB (0%)4 k4 t& e) k4 U5 s/ v
  248. Language : Italian
    % P/ C& B& |, E9 ?! R/ @& a
  249. Default : No. M7 i3 K7 ^- C9 N  [( [: i
  250. Forced : No4 K! c, j2 w8 q& V+ ~6 b. ]( s4 _

  251. ( |2 R* O* L4 O! s2 P# E! V' P/ ?- C
  252. Text #16- Z7 v* u% |% p" l8 ~2 h$ k8 o: A: s& w
  253. ID : 18. [0 e! }+ x9 o3 c
  254. Format : UTF-8& h* _# m1 _& Y# E! {3 z
  255. Codec ID : S_TEXT/UTF8+ t7 C4 ?5 Z* T; g5 Q- }! N
  256. Codec ID/Info : UTF-8 Plain Text& t. m$ P/ i& K, E1 O/ W. z) J7 U. k
  257. Duration : 51 min 29 s
    ' o! t& I* a; M6 o6 d
  258. Bit rate : 27 b/s
    9 E7 i' ?& e) j3 A1 q# t
  259. Count of elements : 336
    - s" ]- X8 |# B, Q  j
  260. Stream size : 10.5 KiB (0%)# N7 c* A5 P0 ]2 I/ i0 f% O
  261. Language : Japanese
    ) I5 u6 E9 c  N8 b  p2 Y' J  E5 {
  262. Default : No
    ( r# O2 c% b9 p: J
  263. Forced : No
    ) W/ p+ ]6 o, V- j2 [9 ?7 ]

  264. , `* A; n$ n" I0 T' k- c
  265. Text #17) u  P. V( h. I, K( v
  266. ID : 19; h. T- z2 u/ f$ }" S
  267. Format : UTF-85 q; _2 w3 U: |" W' j, D$ N
  268. Codec ID : S_TEXT/UTF8
    4 \$ L1 l9 C2 O/ H
  269. Codec ID/Info : UTF-8 Plain Text, `" V" t& g" T
  270. Duration : 47 min 44 s% h, m9 z0 w1 q) A4 d0 }" c
  271. Bit rate : 43 b/s
    4 v1 q+ d2 o1 q+ d# E# u$ `  d
  272. Count of elements : 371
    $ |7 z- t/ F, ^2 l+ P
  273. Stream size : 15.2 KiB (0%)/ @: R) a/ f5 w; A: P) {4 C% r% |
  274. Language : Korean
    + C( |3 s+ c# C4 L3 i  x0 H
  275. Default : No- C4 d/ E" |! I3 V( q' o2 [
  276. Forced : No1 e5 T3 h) k% P" C2 H9 J5 M( r
  277. ) G# O0 B& y3 l
  278. Text #18& {4 E! l! N  O' R2 Q3 z1 Y) s
  279. ID : 20; T$ c% `6 ?; `8 I
  280. Format : UTF-87 M# F) n) }! j$ }+ [* A2 @6 N( U
  281. Codec ID : S_TEXT/UTF8
    - d, i* N0 [. A- u$ v
  282. Codec ID/Info : UTF-8 Plain Text7 S: X" t* [2 L( g
  283. Duration : 47 min 56 s* A" l, z7 @. d
  284. Bit rate : 71 b/s
    # ^, u2 m" h! p& F
  285. Count of elements : 657, |/ O* ?1 P- g" f/ ^. t: R
  286. Stream size : 25.1 KiB (0%)
    ' X/ T: ~2 |) W$ m
  287. Title : SDH. b3 t1 I; o& r
  288. Language : Korean
    % b# R2 S% t7 r2 s( h, @0 Z% X
  289. Default : No  D( K7 u9 v9 |% ~% t
  290. Forced : No
    8 M" T7 I( `! e/ W/ E. r* i

  291. % r! e; m  O  C
  292. Text #19
    1 T! z3 V& j! i4 r: b
  293. ID : 21
    ; e0 c+ q+ g9 p" f
  294. Format : UTF-8
    # x3 V( h/ {  S
  295. Codec ID : S_TEXT/UTF8/ G" e/ W  ~; M3 |
  296. Codec ID/Info : UTF-8 Plain Text
    ) d9 Q: z: N8 w& v
  297. Duration : 51 min 27 s
    ) j) L, ?4 o( X8 K4 W. \
  298. Bit rate : 28 b/s
    3 l: L& l! d5 D( n0 p0 c
  299. Count of elements : 385; `% F" u6 m4 |/ ~+ q9 F2 H& y$ m
  300. Stream size : 10.6 KiB (0%)
    5 W5 E% g: x) i& `. Y& I1 c) H
  301. Language : Malay
    # D4 z* D! Q' `3 \7 m
  302. Default : No
    5 w7 i* d% \: f) v5 u4 H! @  y
  303. Forced : No
      j: H8 u. W: ]0 Z; [
  304. ; p/ B' t( E( r5 a$ X
  305. Text #20
    " d' h; U% q0 p
  306. ID : 22
    4 E- @% p! @7 a) \, M  B( G3 Z
  307. Format : UTF-8
    % A& x! G+ F- h" {2 E: i2 f
  308. Codec ID : S_TEXT/UTF8
    $ ?4 E  {5 {  [) Q  t0 C% I
  309. Codec ID/Info : UTF-8 Plain Text2 u: c9 I& G# Y9 P( X( ?
  310. Duration : 51 min 27 s
    " \7 `6 C' S6 m$ X( {# ]
  311. Bit rate : 29 b/s
    * {; \, |  B6 {6 q! X# i
  312. Count of elements : 372/ E  O0 H: y5 ]- ^0 Q
  313. Stream size : 11.0 KiB (0%)2 c5 s+ o+ |! ?; r. b+ g
  314. Language : Norwegian Bokmal
    8 d+ b5 c$ F/ Q
  315. Default : No, \8 p( o) ^$ |& {; G# S: J* i
  316. Forced : No
    ) o3 d4 s- H* r/ [+ v( b% M
  317. 8 Y3 u) Q4 u; I2 l% d2 ~/ |
  318. Text #21( ~, \- a6 C0 J9 i
  319. ID : 23# L2 ?% X+ P: T! _/ R4 Z
  320. Format : UTF-8$ D4 K  l& o* C- O: i
  321. Codec ID : S_TEXT/UTF81 ]( i8 G5 o1 D, |/ b& g
  322. Codec ID/Info : UTF-8 Plain Text  v  S3 Q0 ~( f* V1 |
  323. Duration : 51 min 30 s) o5 E! q2 h# z9 ~  c$ j3 B4 j" h
  324. Bit rate : 28 b/s
    % g; i: w. v6 I+ |" z8 G
  325. Count of elements : 388
    & e0 @" v  B- n2 u* g! x! F# L3 G2 ~
  326. Stream size : 10.9 KiB (0%)
    * C: ^* T! Q2 @0 v: c. D
  327. Language : Dutch
      S# q( r2 r9 F; k3 h4 u7 z" m
  328. Default : No- A6 u6 [) G8 k. v) ]( J& f  p
  329. Forced : No
    ( p$ ?; h, ^5 w
  330. % B; G" J% Y- I' J2 R
  331. Text #22
    ) {$ ?% J2 l" Z9 a6 k9 Q" Z& A
  332. ID : 24
    3 N. d. J& h# ?. t
  333. Format : UTF-8$ Z5 c4 O* J" z) {4 {
  334. Codec ID : S_TEXT/UTF8
    8 A& D* t3 Y  R) ]) Y/ p  z1 p
  335. Codec ID/Info : UTF-8 Plain Text; b' V: L0 `1 d2 m  A; u0 _
  336. Duration : 51 min 27 s* {# k1 Q( n- v. E7 q, V0 J- d
  337. Bit rate : 27 b/s1 j, O7 q# I+ t$ b5 q
  338. Count of elements : 389
    ' s  @% z' s. a4 X2 H7 G' M
  339. Stream size : 10.3 KiB (0%)
    4 z3 V  o% P0 i, f0 M" r, j- o
  340. Language : Polish  M7 H9 r6 ^; d# }, i( s1 D9 s
  341. Default : No
    * l6 J+ q( w/ y  X9 U; z$ C4 c3 u
  342. Forced : No
    8 h1 v* M, J# E

  343. $ y& Z! J6 j" i" O' H" V5 a: A- Q4 ^
  344. Text #23
    . ?9 S) {$ A4 \) m4 L
  345. ID : 25
    8 T+ k1 b5 y- ~! j: ^: U+ |; v
  346. Format : UTF-8
    - j% I9 F8 M1 C( @7 _% ?+ ^
  347. Codec ID : S_TEXT/UTF8
    - }& q4 \& y' ?6 Z$ G& v9 B
  348. Codec ID/Info : UTF-8 Plain Text
    ) @! Q: [' B9 b# e7 f
  349. Duration : 51 min 16 s9 L# j5 I4 T) D5 m6 _$ z
  350. Bit rate : 29 b/s1 j. |' X$ W- Q3 q5 @) W1 \
  351. Count of elements : 3846 C+ f1 m9 h; y9 u' s$ B
  352. Stream size : 11.0 KiB (0%)
    6 f# b: S5 I* ^9 Y6 ~5 |( \
  353. Language : Portuguese
    6 P% @9 f7 r  l# ]2 _
  354. Default : No0 W8 B( J! t6 v1 |( O
  355. Forced : No
    ; D: h% M3 T& a% @

  356. : q: m) V% k  z) q
  357. Text #24, q4 l! [# G5 o- C9 f9 V
  358. ID : 26
    # Z! X  a: |, X7 l
  359. Format : UTF-8
    7 L2 L- U. }) O8 j! \8 K
  360. Codec ID : S_TEXT/UTF8$ J5 q0 f* T6 Y
  361. Codec ID/Info : UTF-8 Plain Text9 L' h8 E, i1 J  {
  362. Duration : 51 min 27 s7 V6 B1 `$ r. z2 B/ X
  363. Bit rate : 28 b/s9 F) d* j5 X6 I7 s4 Z! v) J
  364. Count of elements : 395- ?% g4 D+ W) u( I6 }
  365. Stream size : 10.7 KiB (0%)
    9 l8 W/ B7 |" D# f& ?5 e
  366. Title : Brazilian
    7 v0 D2 \6 u# G: e/ D' J, }  Z
  367. Language : Portuguese% i4 j$ x0 ?) x( Z) ]  ~
  368. Default : No
    & i" Y  u, ~# j5 b
  369. Forced : No
    ) S, _: C4 K  o' l
  370. 0 F. @6 T6 K* [4 w% V! z* M
  371. Text #25' E, i7 {( w# Q- C9 y$ O
  372. ID : 275 ^8 g( p) n5 U! \
  373. Format : UTF-8
    , u) B+ G/ u9 N2 A3 [+ k  G
  374. Codec ID : S_TEXT/UTF8
    7 i2 Y' D# E% F: Z2 R+ _
  375. Codec ID/Info : UTF-8 Plain Text( J1 u6 s- j" U% [0 Q4 S$ e$ J7 V7 T
  376. Duration : 51 min 27 s
    1 j! T1 Q4 h" X& ]: |$ e' e
  377. Bit rate : 33 b/s
    4 [/ G9 ~  q, U. L. A
  378. Count of elements : 388
    1 d5 `) L3 _) J& V' X
  379. Stream size : 12.6 KiB (0%)
    * u' z, r) Q7 B4 A) s( U5 ?6 d
  380. Language : Romanian
    5 r+ t& {6 A) ]2 G
  381. Default : No
    4 J& k" m1 B+ O9 e+ B- @/ s% n
  382. Forced : No
    / Y( f" B( Y/ i0 ?( `# @" a
  383. 4 w8 N: h9 o- W4 Y0 k& J
  384. Text #26
    , E- H" S' }$ b9 b0 T* Y
  385. ID : 28
    ( f6 g$ X% t* q3 ]
  386. Format : UTF-8# d5 W. f: Q% P7 [9 V* x
  387. Codec ID : S_TEXT/UTF8' w; `$ i) S$ \* P: ~/ a
  388. Codec ID/Info : UTF-8 Plain Text
    ( ?$ M3 R$ Z$ ?. L
  389. Duration : 51 min 27 s
    4 c/ y- t1 L2 H# p0 b8 i/ j
  390. Bit rate : 45 b/s
    % k3 C9 p  K# `
  391. Count of elements : 399
    + Q  L8 E! K- j9 z0 r
  392. Stream size : 17.0 KiB (0%)7 i  C" l( M; y- Y8 x9 s- j) p8 L
  393. Language : Russian# \, e+ s6 Y" y
  394. Default : No
    + o; m0 B- a* G/ E, }' E* H0 c! Z
  395. Forced : No
      _. \* `- T& s: j+ [, \  g5 p0 C1 E

  396. " c1 S5 U  C! C' e1 b
  397. Text #27
    6 h* A" }$ ~- _/ v
  398. ID : 29
    4 I7 Z  f' |( g
  399. Format : UTF-8
    ; _3 m, l8 [' Z  v* `
  400. Codec ID : S_TEXT/UTF8
    8 T5 \' x: T* c5 d2 ^, B! H- G
  401. Codec ID/Info : UTF-8 Plain Text
    5 {) N! |# I  W7 T+ K  J- }' e
  402. Duration : 51 min 27 s
    + m9 x. _6 M- E* h1 }. I
  403. Bit rate : 29 b/s
    ( L# J, E5 |) f, y  g9 T
  404. Count of elements : 397; P. e9 F# E  L* `  k! I9 `
  405. Stream size : 11.2 KiB (0%)
    0 o7 G% m6 p; E1 m: m* U  N+ K3 J
  406. Language : Swedish
    6 D& P3 D9 M. l
  407. Default : No7 C! B! H1 O, s* x
  408. Forced : No4 }5 d0 j% p  e5 j& P
  409. 6 [! p2 j6 A. L4 v8 a! @
  410. Text #28
    3 v5 Q- a4 s# I# p- [
  411. ID : 30* P* g9 |+ O9 W7 w" j0 j; i
  412. Format : UTF-8
    ; D4 H, x! r7 S" b$ ?% K
  413. Codec ID : S_TEXT/UTF8
    . r1 Q  n" I: S% `( ^( I: t" I
  414. Codec ID/Info : UTF-8 Plain Text" x9 J( T6 k$ F' w# J
  415. Duration : 51 min 29 s
    * T+ r0 N  \# e9 L
  416. Bit rate : 78 b/s7 A  Z6 L7 D+ W1 |# T* w5 ?. K
  417. Count of elements : 381& A& G( x2 C6 b
  418. Stream size : 29.7 KiB (0%), M* E! J2 P4 S4 a0 {8 l: h2 c
  419. Language : Thai
    " Y0 B" v  G8 q$ O
  420. Default : No
    ; z! n: |; q% ?6 r  H
  421. Forced : No
    ' Z0 ^; e# O" C) A" m7 {3 b

  422. 6 T( K2 r' R5 M; K8 y0 o8 |
  423. Text #299 n: _8 L4 u" H+ J& Z
  424. ID : 31
    $ O$ k4 R& I  ?7 Z
  425. Format : UTF-8" v/ f* u% F0 z0 V
  426. Codec ID : S_TEXT/UTF8$ L! K; E1 l; V  J& L5 H; W
  427. Codec ID/Info : UTF-8 Plain Text
    7 Y2 X" @, n) s. y3 c( N7 p
  428. Duration : 51 min 27 s+ W. U# y, M& E+ I0 F5 X% S# Z
  429. Bit rate : 27 b/s
    7 A5 d, K# t8 z' r
  430. Count of elements : 399" f" y/ A' |& G( |( G
  431. Stream size : 10.5 KiB (0%)4 e2 {8 K4 \. A3 A  V2 z# \
  432. Language : Turkish
    ) a. M' Q; ?) {9 i1 r
  433. Default : No9 l. ]5 `+ J4 V9 F4 g" @* t! O9 }
  434. Forced : No. o; C# U; Z+ X) I5 l) b
  435. 4 }, `$ D/ b+ I5 k& |, G4 L/ N; ~2 C
  436. Text #30
    - c, G0 c# \/ c
  437. ID : 32
    ) l2 T7 e% V/ f* m& A# Y
  438. Format : UTF-8
    2 b* z7 A: R/ L6 U6 q" ~$ ^; V
  439. Codec ID : S_TEXT/UTF8
    ! _" O0 t+ Q1 F, L
  440. Codec ID/Info : UTF-8 Plain Text7 [, A+ j5 o- }$ W  ~, \; ^& N. @& J
  441. Duration : 51 min 27 s2 {" ^9 n+ Q  U
  442. Bit rate : 39 b/s
    : }5 K# @) u& n) ~1 M  m# B) l$ N
  443. Count of elements : 399
    ) c0 e/ {# x0 h% P
  444. Stream size : 14.9 KiB (0%)
    . U( r7 v8 x/ B+ `; _
  445. Language : Vietnamese7 ~9 [( a! t# u6 Q& I) y
  446. Default : No
    2 l5 x2 u5 l" K' P
  447. Forced : No
    $ b) a4 `) M: p2 z+ r0 D" J3 X0 j

  448. / o/ F! D9 X- y
  449. Text #31
    ( {8 w1 e0 b2 c  N  @. P
  450. ID : 33
    # J' y; I. n& L$ [  c( M& `
  451. Format : UTF-85 m* E3 j, Z6 I# R6 {# [7 Y1 ]6 g
  452. Codec ID : S_TEXT/UTF8
    5 W; I; ?2 ]0 p. b# T
  453. Codec ID/Info : UTF-8 Plain Text2 ~* ]4 m( h- O7 f
  454. Duration : 51 min 27 s. Y) V3 J- C& t& t. C; [
  455. Bit rate : 28 b/s
    1 B9 R  v1 N# Y5 ]+ E
  456. Count of elements : 398
    : V+ f1 s* @6 _
  457. Stream size : 10.8 KiB (0%)2 e, u2 S$ F! x- |! h. W
  458. Title : Simplified5 `1 F1 J# m6 ^) F! M
  459. Language : Chinese$ b, ]+ h% w2 o
  460. Default : No
    + @  p: N% B2 E0 Q! M
  461. Forced : No/ q$ Z! l0 g" P3 Y; Z& d

  462. 7 C- I7 X, Q/ r! |0 {( L
  463. Text #32% V" S1 \8 c  W/ b: J7 A, Z( b
  464. ID : 34
    ' U+ s$ o* p; ~7 O
  465. Format : UTF-8% s  E$ |, t$ t! _2 J! `
  466. Codec ID : S_TEXT/UTF8
    ; E" E& E. [2 s, o- @$ J3 D
  467. Codec ID/Info : UTF-8 Plain Text5 P9 z8 }/ \& u
  468. Duration : 51 min 27 s
    " C0 a9 v4 I+ q  C1 }" y/ `
  469. Bit rate : 28 b/s
    4 r+ j7 D$ B) ?$ T5 G- b/ p) B
  470. Count of elements : 398
    1 C( R. ~# N; V
  471. Stream size : 10.8 KiB (0%)
    ' O! ?' |/ I" j5 g4 I; g
  472. Title : Traditional8 _) A! b) f+ u! v% E
  473. Language : Chinese
    7 Y0 w$ ?5 n/ H. P  i5 M- ]3 D* f
  474. Default : No) l* y2 B8 d, X% V' A( b
  475. Forced : No
    - _0 \  j* P# O: e+ y

  476. + Q% T; k5 j8 P- X5 o
  477. Menu6 J& O# v* [$ C3 k
  478. 00:03:19.219 : en:Intro start# |  ^! ]" m. R: t
  479. 00:04:38.257 : en:Intro end
复制代码

" O  t8 i3 I6 o/ s. X# U+ v
2 R; M/ w6 o2 A+ _
, W$ a) F0 Y% ^# a# J
1 Z/ ?6 @' l0 l2 N0 p3 Y% {/ m) \1 J* r" x9 q- M! J
+ }; d& x* b6 Q! b$ d7 l, l3 u5 Q
游客,如果您要查看本帖隐藏内容请回复  VIP可免回复查看隐藏内容 详情请点击
发表于 2020-3-13 17:58:51 | 显示全部楼层
游客无权限浏览该内容
发表于 2020-3-13 18:27:44 | 显示全部楼层
游客无权限浏览该内容
发表于 2020-3-13 19:16:49 | 显示全部楼层
游客无权限浏览该内容
发表于 2020-3-13 23:21:05 | 显示全部楼层
游客无权限浏览该内容
xiaosiaivv 该用户已被删除
发表于 2020-3-13 23:25:54 | 显示全部楼层
提示: 作者被禁止或删除 内容自动屏蔽
发表于 2020-3-14 10:56:05 | 显示全部楼层
游客无权限浏览该内容
发表于 2020-3-14 18:33:20 | 显示全部楼层
游客无权限浏览该内容
发表于 2020-3-14 20:22:27 | 显示全部楼层
游客无权限浏览该内容
您需要登录后才可以回帖 登录 | 立即注册

本版积分规则

封号公示|电子邮件联系本站hd1tj.net#[换成@]outlook.com|免责申明|HD一条街

GMT+8, 2021-11-30 04:51

Powered by Discuz! X3.4

Copyright © 2001-2021, Tencent Cloud.

快速回复 返回顶部 返回列表