HD一条街

 找回密码
 立即注册
搜索
查看: 2010|回复: 16

[1080p] 大闹广昌隆[粤语 英文字幕]Finale.In.Blood.1993.CHINESE.1080p.BluRay.x264.DTS-FGT 8.6G

[复制链接]
发表于 2020-2-14 16:33:46 | 显示全部楼层 |阅读模式

马上注册,结交更多好友,享用更多功能,让你轻松玩转社区。

您需要 登录 才可以下载或查看,没有帐号?立即注册

x
% ]1 @" O4 c8 M/ P
                               
登录/注册后可看大图

" L' B( I$ m4 _' X7 \! v, |$ P  B
◎译  名 大闹广昌隆/Finale in Blood
* l" u* _3 j4 D; X3 j◎片  名 大鬧廣昌隆
* T* g" k+ d( ~/ s$ Q◎年  代 1993# a- [! f6 n/ R: n( o
◎产  地 中国香港) ~7 Z7 S3 d+ }1 ]: n- Q/ I
◎类  别 剧情 / 爱情 / 恐怖
' m( p$ Y$ N' I9 Z◎语  言 粤语
, _  ~$ o+ I7 l4 d1 o: W6 m7 p5 C◎上映日期 1993-11-06(中国香港)( r% U$ }) Q9 h/ P4 L% K( i
◎IMDb评分  5.6/10 from 74 users
& B& u) d; _8 K  x# c% D; s◎IMDb链接  https://www.imdb.com/title/tt0101644/
" t- a3 I* i* e! Z3 y/ O◎豆瓣评分 6.8/10 from 2,334 users
3 D3 t6 [- a/ q. T; ^4 [. ~" R◎豆瓣链接 https://movie.douban.com/subject/1305059/% ?! J- v0 {- C$ A$ ^! Q
◎片  长 94 分钟. J6 P1 m# q( P
◎导  演 陈果 Fruit Chan% R5 g7 G$ P) Q- a* M7 {5 h
◎编  剧 陈庆嘉 Hing-Ka Chan / 张小娴 Siu-Han Cheung
1 ]* \! P# K- _. y) E1 d& F◎主  演 郑丹瑞 Lawrence Cheng
$ [2 z/ v' a/ A  [! J       吴大维 David Ng
6 Z% ^( L; N0 z8 S       陶君薇 Ruth Winona Tao* l8 P) P9 m, O2 `
       青山知可子 Chikako Aoyama6 K" ]4 L6 E2 n( J

0 M8 y$ W) P  c& u* l0 G$ ?◎标  签 陈果 | 香港 | 香港电影 | 爱情 | 吴大维 | 郑丹瑞 | 1993 | 恐怖" d$ K  ]! L1 e" v& k1 P: r: t
3 k- Z/ a6 j+ x. O% v; S# S
◎简  介. R) G& K9 d9 S9 i  ~

) q+ q) h# t0 O# F' @  郑明宝(郑丹瑞 饰)是香港某电台播报猪肉价格的DJ,他的朋友陈七本想托他走私药品,没想到郑明宝把事情搞砸,害得他锒铛入狱。郑明宝无意中得到了一把雨伞,并由此结识了冥间女鬼方茵(陶君薇 饰),为此,郑明宝专门做了一档晚间鬼故事的节目,由方茵现身说法,收听率居高不下,连当红DJ蕾莎(顾美华 饰)也对他另眼相看,暗送秋波。
6 h% |5 F3 b. S& I' O5 u% X  节目中,方茵讲述了自己的一段被负心汉欺骗、惨遭情敌迫害致死的过程。原来,她本是从南洋来香港接管广昌隆饭店的女继承人,偶然见邂逅了警察马光燊(吴大维 饰),并堕入爱河。但是,马光燊其实是个花花公子,几次三番伤害了方茵纯洁的感情。特别是当他的情妇(青山知可子 饰)登堂入室后,更是把伤心欲绝的方茵逼上了绝路……
: W3 O$ t# n# n' V1 @( G
; E+ {- _! ?+ [; T◎获奖情况; ~4 C# ?0 V. P& C; L4 [

# B5 c* R' c, T( o0 }5 `6 _1 a/ @  第13届香港电影金像奖  (1994)+ K3 N+ H. w  q
  最佳摄影(提名) 钟志文 / 敖志君
  1. Video0 |& T! c0 b; D% `" u
  2. ID : 1
      B' {. b7 N( J' @
  3. Format : AVC
    - a1 \& ^1 k- |* s; e8 ^9 Q
  4. Format/Info : Advanced Video Codec. d- Y! e, {+ m. |
  5. Format profile : High@L4.1
    " W4 G. d6 {, t3 `( t9 h
  6. Format settings : CABAC / 4 Ref Frames
    # p- ?* K* U6 _) e- C6 m
  7. Format settings, CABAC : Yes
    + j" B; p. M5 H, q' {: f7 S
  8. Format settings, Reference frames : 4 frames! a5 b$ Q6 q) Q- h- Y3 y; P: A/ x; T
  9. Codec ID : V_MPEG4/ISO/AVC8 J( g4 _( B: k8 f8 }9 K
  10. Duration : 1 h 34 min
    8 }$ t2 s9 K+ w7 A2 W+ S
  11. Bit rate : 11.5 Mb/s, A9 }9 b) |( T0 D+ ^; n  ^
  12. Width : 1 920 pixels
    " |/ Q: S8 D, o4 d
  13. Height : 1 024 pixels
    , R: F! |' @+ C& B; J* Y
  14. Display aspect ratio : 1.85:1
    ' N; _0 _8 H$ o' W1 R; C
  15. Frame rate mode : Constant
    ; o0 E7 e/ q( ^; @6 z" [/ P0 \
  16. Frame rate : 24.000 FPS
    . t  d: u5 T8 I
  17. Color space : YUV
    & o( _: @; n' P- |4 _& B2 w
  18. Chroma subsampling : 4:2:0. j4 w* V; y# \% X0 ?5 T
  19. Bit depth : 8 bits' h7 I5 D5 T0 W0 _
  20. Scan type : Progressive
    & w/ S8 s$ q0 ~: \3 E
  21. Bits/(Pixel*Frame) : 0.2442 L3 w3 E' C" Q4 B
  22. Stream size : 7.61 GiB (88%)
    % h, U6 F2 [5 W2 [" G
  23. Writing library : x264 core 148 r2795M aaa9aa8
    ' t9 m0 a$ W0 ]: Y5 h
  24. Encoding settings : cabac=1 / ref=4 / deblock=1:-2:-2 / analyse=0x3:0x113 / me=umh / subme=9 / psy=1 / psy_rd=1.00:0.15 / mixed_ref=1 / me_range=16 / chroma_me=1 / trellis=2 / 8x8dct=1 / cqm=0 / deadzone=21,11 / fast_pskip=1 / chroma_qp_offset=-3 / threads=24 / lookahead_threads=3 / sliced_threads=0 / nr=0 / decimate=1 / interlaced=0 / bluray_compat=0 / constrained_intra=0 / bframes=3 / b_pyramid=2 / b_adapt=1 / b_bias=0 / direct=3 / weightb=1 / open_gop=0 / weightp=2 / keyint=250 / keyint_min=25 / scenecut=40 / intra_refresh=0 / rc_lookahead=50 / rc=2pass / mbtree=1 / bitrate=11500 / ratetol=1.0 / qcomp=0.60 / qpmin=0 / qpmax=69 / qpstep=4 / cplxblur=20.0 / qblur=0.5 / vbv_maxrate=31250 / vbv_bufsize=31250 / nal_hrd=none / filler=0 / ip_ratio=1.40 / aq=1:1.00
    / `' D2 }* q' q. F) z) U
  25. Language : Chinese
    $ p2 x7 V9 L4 A! L! u
  26. Default : Yes3 P! {# y( d9 \5 ~' a" ^
  27. Forced : No
    , Y: g2 e1 P! M+ f  Z1 \
  28. ) Q/ o( M/ a* Q7 X
  29. Audio
    2 D& Y& f2 r! F5 D+ q
  30. ID : 2. [% H0 e0 l. \% k5 s
  31. Format : DTS) P1 H3 T  Z- @& w5 V/ |5 d
  32. Format/Info : Digital Theater Systems
    # e, x( e# r) W4 [' n
  33. Codec ID : A_DTS
    3 U1 Q  R  O% F" k+ D
  34. Duration : 1 h 34 min) u' p  U! N; E/ J' V% f
  35. Bit rate mode : Constant
    & E5 K5 z  p- M. M! m
  36. Bit rate : 1 509 kb/s9 u7 a) o  q& X0 T$ B4 Q
  37. Channel(s) : 6 channels4 z) Y% P4 g* s& D6 u5 o
  38. Channel layout : C L R Ls Rs LFE
    2 z. {$ P& i+ B  O+ s  J
  39. Sampling rate : 48.0 kHz
    # e: D! h2 v8 T7 g4 i2 M( ^( g
  40. Frame rate : 93.750 FPS (512 SPF)
    6 u& U$ {* W  Y( f
  41. Bit depth : 16 bits1 H' M" z) V. f) y' Q: k
  42. Compression mode : Lossy
    3 |# G! b+ _% ~' ~& x  H
  43. Stream size : 1 023 MiB (12%), ~" @, e0 A* Q0 q
  44. Language : Chinese
    ( L2 B  V7 G4 c) L% m% J1 K  a  `
  45. Default : Yes$ F+ |# @! [/ i- P8 w3 k/ G
  46. Forced : No3 S; Y: ?) v' X% ]( K& O4 Z% S
  47. * E8 x; D# j* c' `, [
  48. Text
    . ]- h' _" D2 u1 s  e' U& A  b( }
  49. ID : 3# x6 @; f/ W: J+ T: O
  50. Format : UTF-81 p! T5 x0 E, c/ I
  51. Codec ID : S_TEXT/UTF8
    / u* O$ [2 ]5 R9 a4 l
  52. Codec ID/Info : UTF-8 Plain Text$ H) O3 D; D% p. O$ r* r; S( u0 K9 d
  53. Duration : 1 h 30 min9 j6 ^9 v, t9 }, Y3 d5 A+ ]0 l
  54. Bit rate : 40 b/s
    ! S/ W2 i. H! w( A3 w+ V' P
  55. Count of elements : 9568 n! \4 J  {  n4 v1 O: u! g
  56. Stream size : 26.8 KiB (0%)
    2 J9 H; N9 }4 x' w( n
  57. Language : English
      z& t! G- x$ \6 W4 W+ F0 C3 S: @9 e
  58. Default : Yes
    - [/ o2 t$ M) p- L0 V& E
  59. Forced : No
复制代码
! _* }# L  |0 x3 b5 t! a& g: @

( M; ~/ N4 C; a. R0 }+ `
; t4 X% W& S2 c( ^( `: f6 d( u0 V  x9 ]% }

. @# x* J. z% s/ L, S8 n
) w6 B) L* H3 }( @# M! J
游客,如果您要查看本帖隐藏内容请回复  VIP可免回复查看隐藏内容 详情请点击
发表于 2020-2-14 16:51:48 | 显示全部楼层
游客无权限浏览该内容
发表于 2020-2-14 18:48:38 | 显示全部楼层
游客无权限浏览该内容
发表于 2020-2-14 21:29:52 | 显示全部楼层
游客无权限浏览该内容
发表于 2020-2-15 00:13:09 | 显示全部楼层
游客无权限浏览该内容
发表于 2020-2-15 00:56:13 | 显示全部楼层
游客无权限浏览该内容
发表于 2020-2-15 07:51:30 | 显示全部楼层
游客无权限浏览该内容
发表于 2020-2-15 10:23:04 | 显示全部楼层
游客无权限浏览该内容
发表于 2020-2-15 10:49:05 | 显示全部楼层
游客无权限浏览该内容
发表于 2020-2-28 08:25:11 | 显示全部楼层
游客无权限浏览该内容
您需要登录后才可以回帖 登录 | 立即注册

本版积分规则

封号公示|电子邮件联系本站hd1tj.net#[换成@]outlook.com|免责申明|HD一条街

GMT+8, 2021-12-9 00:21

Powered by Discuz! X3.4

Copyright © 2001-2021, Tencent Cloud.

快速回复 返回顶部 返回列表