HD一条街

 找回密码
 立即注册
搜索
查看: 3894|回复: 25

[1080p] 少林五祖[国英双语 英文字幕]Five.Masters.of.Death.1974.CHINESE.1080p.BluRay.x264.DD2.0-FGT 9.4G

[复制链接]
发表于 2020-2-12 11:42:35 | 显示全部楼层 |阅读模式

马上注册,结交更多好友,享用更多功能,让你轻松玩转社区。

您需要 登录 才可以下载或查看,没有帐号?立即注册

x
) I8 `) @2 e8 Z
                               
登录/注册后可看大图
8 r& b4 x- W& ~/ @' s* o

4 P5 |1 p1 Y6 _( Z1 }◎译  名 Five Shaolin Masters$ t5 ^+ b" U* t  l9 D
◎片  名 少林五祖# N& L  n: H8 W$ k% I& P
◎年  代 1974, Q4 b- ^9 ~8 u( B' _
◎产  地 中国香港# x9 d- A0 G7 J' W9 b7 N
◎类  别 剧情 / 动作 / 武侠 / 古装
) T; k5 s1 @1 \" O+ w4 H& w◎语  言 汉语普通话
7 o$ d6 {/ M9 T7 t◎上映日期 1974-12-25
5 Z  X/ {8 K. t* e# T1 Y- o; X' M◎IMDb评分  6.7/10 from 908 users
$ O; I% e: c. H/ t  v◎IMDb链接  https://www.imdb.com/title/tt0072991
5 E/ N- S& {% Z- G8 m9 P0 F6 Z0 G' z◎豆瓣评分 6.6/10 from 1522 users
0 j6 P# j9 M7 O% a4 D( ~2 d$ S+ h◎豆瓣链接 https://movie.douban.com/subject/1304503/; e0 O& p5 P) O$ j2 p; I$ f6 h
◎片  长 Hong Kong: 105 分钟
6 F- N+ I5 X' D4 p◎导  演 张彻
5 G0 O7 H6 q+ f◎编  剧 倪匡7 ?4 M+ r7 Z+ g6 D7 \# O' ~( p# ]
◎主  演 傅声
4 o6 O5 c. Z$ N9 {* T7 I2 f$ a# s       姜大卫
0 `" v9 {( v- y- z" |3 T' x4 m       狄龙' f  V  Y' f5 X! W: R* |
       戚冠军- X  s. |. z: L
       王龙威( S1 X* @+ Z# l6 F
       孟飞
+ g/ I5 @) t% B% W- p1 p% U$ e5 `5 W9 G4 d" J

0 _* o: N0 y% ]$ n3 }  f7 w  S◎标  签 邵氏 | 张彻 | 香港 | 姜大卫 | 狄龙 | 武侠 | 动作 | 香港电影
! j5 U4 Q3 M" `; H0 w1 b
& G3 x+ x: Y' z2 \  ?. D7 |; M◎简  介  
% b$ _: n. q, D) x2 b
! P5 L6 y7 E& B( P; H. l$ o  将少林寺视为眼中钉的清廷利用安插在少林寺中的奸细提供的情报,调遣了各路高手火烧少林寺,处心积虑地想一举消灭少林子弟。事出突然,寺中僧人及俗家弟子仓促应战一番后十死其九。
% X6 x7 n7 |& _) ?! D  捡得性命的方大洪(孟飞)逃向广东与李式开(戚冠军)会合,商议如何继续反清复明。而胡德帝(姜大卫)、蔡德忠(狄龙)、马超兴(傅声)等人则北上中原,千方百计查找寺中内奸,决意为死去的少林弟子报仇。——五人一度对少林功夫有所怀疑,后来才醒悟怪不得少林功夫,只怨自己学艺不精,于是潜心修炼终成正果,被后世称为“少林五祖”。$ I3 o* `; P/ z" l
- ]) _" U7 r+ M/ n) f0 [, ]
◎获奖情况  ; m% v5 ?3 ]1 |$ h) W, Z9 F  n& K

, I! r8 _; Y! g5 Q1 ], y+ \  第12届台北金马影展(1975)
$ S3 K* x4 I8 L  R: p; x$ [: ^" a  金马奖 最佳音效 王永华
  1. Video, L1 A3 V) d* X6 m. I/ u: f
  2. ID : 11 }* T  T* `; W- m$ l& N
  3. Format : AVC
    / d+ H' Z& m/ ~/ B0 r9 F+ v- W
  4. Format/Info : Advanced Video Codec
    1 m% @& K; U( f3 S) v
  5. Format profile : High@L4.1  q' p: k' ?% b1 q6 x
  6. Format settings : CABAC / 4 Ref Frames( l. ?4 s) n" {
  7. Format settings, CABAC : Yes3 F* y0 Q3 e% g- g4 M8 T
  8. Format settings, Reference frames : 4 frames/ I) K5 q6 m9 T: X
  9. Codec ID : V_MPEG4/ISO/AVC6 y5 U# O! |) q
  10. Duration : 1 h 49 min" q! G3 x1 o3 D8 A9 V  v0 J
  11. Bit rate : 11.5 Mb/s
    & k; r' ^4 H- V8 s7 J% L
  12. Width : 1 920 pixels
    6 Q" |  e  H( d* w$ j7 A
  13. Height : 812 pixels3 t/ A0 B2 h- N# y
  14. Display aspect ratio : 2.35:1
    2 I1 G7 r" |0 `$ A# `) i" p+ a
  15. Frame rate mode : Constant) S4 X1 b  V" ]& }' \! c/ X
  16. Frame rate : 23.976 (24000/1001) FPS
    ! e3 M2 {+ a! ?) I! k6 m: o
  17. Color space : YUV
    & {  c5 Z; N' e" ^0 ?; i
  18. Chroma subsampling : 4:2:08 s- e# s; z' |0 j9 K
  19. Bit depth : 8 bits2 J3 W" U! K: z; j; s2 J
  20. Scan type : Progressive
    ; }& V2 l  d" P% b
  21. Bits/(Pixel*Frame) : 0.3088 c2 c8 u( d9 t5 m" L+ {: J; q
  22. Stream size : 8.81 GiB (94%)
    ) X& ^0 f9 _9 S* ?* C
  23. Title : Five.Masters.of.Death.1974.CHINESE.1080p.BluRay.x264.DD2.0-FGT
    ( T* G5 r' b4 Z8 E7 z
  24. Writing library : x264 core 148 r2748 97eaef2' U( s4 g1 M1 n. j
  25. Encoding settings : cabac=1 / ref=4 / deblock=1:-2:-2 / analyse=0x3:0x113 / me=umh / subme=9 / psy=1 / psy_rd=1.00:0.15 / mixed_ref=1 / me_range=16 / chroma_me=1 / trellis=2 / 8x8dct=1 / cqm=0 / deadzone=21,11 / fast_pskip=1 / chroma_qp_offset=-3 / threads=24 / lookahead_threads=3 / sliced_threads=0 / nr=0 / decimate=1 / interlaced=0 / bluray_compat=0 / constrained_intra=0 / bframes=3 / b_pyramid=2 / b_adapt=1 / b_bias=0 / direct=3 / weightb=1 / open_gop=0 / weightp=2 / keyint=250 / keyint_min=25 / scenecut=40 / intra_refresh=0 / rc_lookahead=50 / rc=2pass / mbtree=1 / bitrate=11500 / ratetol=1.0 / qcomp=0.60 / qpmin=0 / qpmax=69 / qpstep=4 / cplxblur=20.0 / qblur=0.5 / vbv_maxrate=31250 / vbv_bufsize=31250 / nal_hrd=none / filler=0 / ip_ratio=1.40 / aq=1:1.00& ]9 M( A2 x; R5 z
  26. Language : Chinese7 x6 g) E; u( W" E2 k7 ]
  27. Default : Yes% [2 P' x8 c0 ]. E0 P4 X5 S
  28. Forced : No
    9 U  @, C8 h  Q# Y8 q
  29. ; _2 o/ N' P" @# v
  30. Audio #16 w) j! R/ n2 y% U0 N
  31. ID : 26 ^! R  m# G8 c$ a) H% L
  32. Format : AC-3* @; K$ T; X# E6 E- d9 u' y, a
  33. Format/Info : Audio Coding 30 K5 x9 F% |1 J
  34. Commercial name : Dolby Digital
    3 z1 X) p- _: H3 n( d) u8 `' Y
  35. Codec ID : A_AC3
    2 _# H4 {. r) H5 k, D- O5 S
  36. Duration : 1 h 49 min! d% Z6 y' g( J1 o
  37. Bit rate mode : Constant
    / l0 W* a# l  n* k4 |0 V
  38. Bit rate : 384 kb/s  j9 H( ~& O  i' g7 `0 w
  39. Channel(s) : 2 channels" w& v3 r# ^2 v. ?
  40. Channel layout : L R
      i; T, H& V' O( k
  41. Sampling rate : 48.0 kHz
    " `3 I* W$ t* P" }# a1 S
  42. Frame rate : 31.250 FPS (1536 SPF)  q! w( Z$ X! J; }& o
  43. Bit depth : 16 bits
    , T8 X) f6 n3 g/ v2 V6 [
  44. Compression mode : Lossy6 Q6 V( W8 Z8 T% [9 X' W
  45. Stream size : 301 MiB (3%)
    : _; r0 p, d6 ^! d
  46. Title : Five.Masters.of.Death.1974.CHINESE.1080p.BluRay.x264.DD2.0-FGT8 h1 `! z7 f# M% l  C# K: F
  47. Language : Chinese
    , }% c) I4 Z1 D
  48. Service kind : Complete Main; W" T7 q* N$ {7 m% C. C0 f
  49. Default : Yes0 B, H3 s. s3 N9 _1 I& m: V
  50. Forced : No$ c. }/ d$ f. A  C, ~' k/ N

  51. ( O& [% X  u; G5 h3 [
  52. Audio #2
    1 k8 A" c: ]& t% a+ V7 w: a
  53. ID : 3' _$ r4 m0 i$ S7 _: o7 M
  54. Format : AC-3
    ) U+ U% [$ q3 @# n2 e' @# _+ B% j
  55. Format/Info : Audio Coding 3
    ! [* z4 Y# s* ^( _
  56. Commercial name : Dolby Digital
    * G3 ?- i+ i! M/ [  v: \
  57. Codec ID : A_AC3
    . f+ t8 {/ Q0 f2 c
  58. Duration : 1 h 49 min
    $ Y9 o2 F  u' ]5 ^
  59. Bit rate mode : Constant
      }/ b! A) H4 ]+ f/ m
  60. Bit rate : 384 kb/s
    ; z' F+ P2 }! U
  61. Channel(s) : 2 channels$ Z$ `- U& @0 Y$ w9 l4 D" V
  62. Channel layout : L R
      P0 w6 ?* E, `: ~
  63. Sampling rate : 48.0 kHz
    ( p- |* `1 U5 ]6 t7 F% C) x
  64. Frame rate : 31.250 FPS (1536 SPF)1 V6 `9 T8 a" }0 x
  65. Bit depth : 16 bits9 [# v/ l# u$ K* c" ?
  66. Compression mode : Lossy
    8 ?9 i9 \3 _/ \& @. ~5 L
  67. Stream size : 301 MiB (3%)% F/ K: g) d5 i
  68. Title : Five.Masters.of.Death.1974.CHINESE.1080p.BluRay.x264.DD2.0-FGT
    7 T! T1 L9 `! o& h' f  d9 a
  69. Language : English! z6 U0 o# F. u: X' h$ j
  70. Service kind : Complete Main
    ! D$ l$ _# ]. a! d
  71. Default : No
    3 e1 c& ^$ W9 _' S- w. @0 `2 S
  72. Forced : No
    . S5 t5 R/ R, _' \
  73. - a! I2 x7 p* [& H
  74. Text. B% y$ z# F  y# E
  75. ID : 4
    0 o5 x% J5 l% x; b' [) E
  76. Format : UTF-8- Y1 N, |* G8 {7 C* E  d2 B6 ~: x% F2 L
  77. Codec ID : S_TEXT/UTF8
    & x4 _8 b+ o) @
  78. Codec ID/Info : UTF-8 Plain Text
    5 a5 Q# R  u' d5 K
  79. Duration : 1 h 46 min
    , F8 p, Q) u* @/ w  N
  80. Bit rate : 26 b/s
    7 Y8 v& J8 v$ y4 W1 Q% _6 I
  81. Count of elements : 793
    . L" r7 Y, W( i) k
  82. Stream size : 20.4 KiB (0%)! s! w+ _4 R: A3 k
  83. Language : English
    . S" F* |- l3 z5 n
  84. Default : Yes( c! y+ l- _: \( I3 F& B: D0 _1 H
  85. Forced : No& ]) V# N% K) F9 j
  86. 3 V  G4 |; l9 q
  87. Menu4 Y) a. d% O* F0 ^5 y$ r
  88. 00:00:00.000 : :Chapter 01
    # i2 I/ ~+ G7 a3 C+ S! ~3 S& S
  89. 00:00:00.375 : :Chapter 02. A+ V4 ], Z9 L! m% o% q9 x
  90. 00:08:28.008 : :Chapter 03
    3 L5 E1 u3 t  x' X+ P, e; j9 i& K
  91. 00:24:05.110 : :Chapter 04. q- v( W" u6 D1 X4 G, N; y% a
  92. 00:43:35.530 : :Chapter 051 z+ s: H' L! c0 u5 d% `1 q9 R
  93. 01:04:58.269 : :Chapter 06
    0 n: V+ B$ d$ ?$ {: D% r+ I6 t
  94. 01:29:54.139 : :Chapter 07
复制代码
  v4 _  b9 L  J* I% d+ w

6 ~6 f- i% F+ W: n* W2 Y
% h' M9 a  \& {4 x1 J, ^$ k6 ~9 u. d$ I. A2 u8 _) k9 h

9 C5 z6 B- x5 G- P- H0 N; X9 g, W; q9 D% F4 w( h8 z4 F
游客,如果您要查看本帖隐藏内容请回复  VIP可免回复查看隐藏内容 详情请点击
发表于 2020-2-12 13:55:30 | 显示全部楼层
游客无权限浏览该内容
iMichaelLee 该用户已被删除
发表于 2020-2-12 15:18:56 | 显示全部楼层
提示: 作者被禁止或删除 内容自动屏蔽
发表于 2020-2-12 15:28:16 | 显示全部楼层
游客无权限浏览该内容
发表于 2020-2-12 16:26:58 | 显示全部楼层
游客无权限浏览该内容
发表于 2020-2-13 12:26:10 | 显示全部楼层
游客无权限浏览该内容
dragonfiga 该用户已被删除
发表于 2020-2-14 09:12:40 | 显示全部楼层
提示: 作者被禁止或删除 内容自动屏蔽
发表于 2020-2-15 16:32:45 | 显示全部楼层
游客无权限浏览该内容
发表于 2020-2-26 11:46:42 | 显示全部楼层
游客无权限浏览该内容
发表于 2020-2-28 08:28:03 | 显示全部楼层
游客无权限浏览该内容
您需要登录后才可以回帖 登录 | 立即注册

本版积分规则

封号公示|电子邮件联系本站hd1tj.net#[换成@]outlook.com|免责申明|HD一条街

GMT+8, 2021-12-9 00:27

Powered by Discuz! X3.4

Copyright © 2001-2021, Tencent Cloud.

快速回复 返回顶部 返回列表