HD一条街

 找回密码
 立即注册
搜索
查看: 2375|回复: 16

[1080p] 金臂童 The.Kid.With.The.Golden.Arm.1979.CHINESE.1080p.BluRay.x264.DTS-FGT 7G

[复制链接]
发表于 2020-2-1 20:24:08 | 显示全部楼层 |阅读模式

马上注册,结交更多好友,享用更多功能,让你轻松玩转社区。

您需要 登录 才可以下载或查看,没有帐号?立即注册

x

# C1 |4 o5 p% V& K7 y" Q                               
登录/注册后可看大图
9 Q5 N- P: v8 |0 v6 s1 t

% U9 `/ `2 z$ y  H$ ~3 @$ |7 Y◎译  名 The Kid with the Golden Arm- w0 m( w) ?) {" J5 w
◎片  名 金臂童
3 j9 K0 S+ o" U4 M' _2 e9 p◎年  代 1979  [  T, l+ Y0 O6 C. t2 A1 [
◎产  地 中国香港
8 B8 z* U# v; [, D7 y6 e◎类  别 剧情 / 动作5 ?+ t# e) L& N% R9 M; E6 Z
◎语  言 汉语普通话- w  C  N6 N. e* G. ?
◎上映日期 1979-11-02
% w6 k8 S# w$ r; H◎IMDb评分  7.2/10 from 1168 users
. a& S  U- J$ v( S/ c3 l7 o0 _◎IMDb链接  https://www.imdb.com/title/tt0079372
3 r3 f8 R3 s0 O  D: w◎豆瓣评分 6.6/10 from 415 users+ X3 ^9 Z$ M5 r* D7 A
◎豆瓣链接 https://movie.douban.com/subject/1307296/5 v; D$ w* n6 h; ^" z  g4 [
◎片  长 86 分钟, W& V" ~. `) G
◎导  演 张彻
( s  K% o9 K* T◎编  剧 张彻 / 倪匡
$ [1 ?1 e0 A# U; @  G◎主  演 孙建
5 o+ ]  O! u+ T: J       罗莽
, p5 p! b7 u1 e& V       潘冰嫦
# R1 ?) V; d/ |# L9 \       江生' E' @  B- q2 ]. ~9 |0 Z
       鹿峰
. v+ a) }9 n0 J3 W9 m/ T) q       郭追
- ^' U/ _" |# _, _2 s2 V3 \* P' m5 `8 ?
7 x  B4 B* A  c6 [+ u; o: \
◎标  签 邵氏 | 张彻 | 香港 | 武侠 | 香港电影 | 郭追 | 罗莽 | 江生0 a& l8 b& p7 F& [1 a2 P1 ~1 Y1 ^
8 P; O+ G* M( @7 J5 e
◎简  介  
, K. l& p. ~% q3 ~& I8 t& p) l9 i( l: N# `; G4 `, `* h
  本功夫片由張徹導演,並與倪匡聯手編劇。故事講述虎威鏢局總鏢頭楊虎雲(孫建 飾)受官府之託,押運二十萬兩黃金赴黃河流域賬災,武林豪傑「短斧」方十(江生 飾)、「冷月劍」冷鳳(潘冰嫦 飾)等紛紛前來助陣。當時「七殺谷」中一批武功高強的劇盜,金臂童(羅莽 飾)、銀槍子(鹿峰 飾)等早就佈署截劫詭計,鏢隊幸得「千面神捕」海濤(郭追 飾)沿途暗中出手相助,化險為夷……
  1. Video$ A% n( ]7 j0 P3 v+ j, v2 D
  2. ID : 1/ ^: M3 y* m( y5 q$ u( W9 J
  3. Format : AVC
    ' A5 |8 S" ]' E" O8 H% f- O/ b) B+ s
  4. Format/Info : Advanced Video Codec6 q- f; y  }5 `2 s1 F7 ?
  5. Format profile : High@L4.1: m% B$ ^6 Q3 M0 y
  6. Format settings : CABAC / 4 Ref Frames, r- j  o! W/ b" `% P/ \% h
  7. Format settings, CABAC : Yes
    ' L' o) d( |+ Y1 B8 A
  8. Format settings, Reference frames : 4 frames
    ; T. p+ `* w! A3 c3 Q
  9. Codec ID : V_MPEG4/ISO/AVC
    9 W% J: p  s  K$ D
  10. Duration : 1 h 25 min0 b% `' ^- k- s; K. N# e. b" q
  11. Bit rate : 11.5 Mb/s" o6 q3 @2 D! ~( D4 W
  12. Width : 1 920 pixels
    : S0 I) y4 ]& w" T8 O
  13. Height : 812 pixels( Z4 U9 p: k1 I6 r4 {! u5 v: B
  14. Display aspect ratio : 2.35:1; x' Y6 z# z0 f% K9 m2 p) x7 M
  15. Frame rate mode : Constant
    : t5 n3 ~" [8 O( {
  16. Frame rate : 23.976 (24000/1001) FPS1 K1 ], m' L# n9 ]  r
  17. Color space : YUV
    / F5 K$ M0 ?" @/ z. _
  18. Chroma subsampling : 4:2:0
    $ Q" M+ E% w& Z; M5 a5 N& Q! X* p$ L
  19. Bit depth : 8 bits6 Y' p% l6 ^' ]5 G& m
  20. Scan type : Progressive4 a6 T5 _2 E" }5 g/ D# i: N3 Q8 I
  21. Bits/(Pixel*Frame) : 0.3087 i& o3 `1 l0 L( Z" Y2 |" V
  22. Stream size : 6.82 GiB (97%)
    ! R8 B( b, p% G" Y
  23. Title : The.Kid.With.The.Golden.Arm.1979.CHINESE.1080p.BluRay.x264.DTS-FGT
    # ]: V* N6 z( @
  24. Writing library : x264 core 148 r2748 97eaef28 H" s0 ^* c4 K6 M. P4 H9 j
  25. Encoding settings : cabac=1 / ref=4 / deblock=1:-2:-2 / analyse=0x3:0x113 / me=umh / subme=9 / psy=1 / psy_rd=1.00:0.15 / mixed_ref=1 / me_range=16 / chroma_me=1 / trellis=2 / 8x8dct=1 / cqm=0 / deadzone=21,11 / fast_pskip=1 / chroma_qp_offset=-3 / threads=24 / lookahead_threads=3 / sliced_threads=0 / nr=0 / decimate=1 / interlaced=0 / bluray_compat=0 / constrained_intra=0 / bframes=3 / b_pyramid=2 / b_adapt=1 / b_bias=0 / direct=3 / weightb=1 / open_gop=0 / weightp=2 / keyint=250 / keyint_min=25 / scenecut=40 / intra_refresh=0 / rc_lookahead=50 / rc=2pass / mbtree=1 / bitrate=11500 / ratetol=1.0 / qcomp=0.60 / qpmin=0 / qpmax=69 / qpstep=4 / cplxblur=20.0 / qblur=0.5 / vbv_maxrate=31250 / vbv_bufsize=31250 / nal_hrd=none / filler=0 / ip_ratio=1.40 / aq=1:1.007 ~* j. g" n; F
  26. Language : Chinese
    - P/ Y* R6 \/ q* o( `
  27. Default : Yes
    6 S1 U. W( ?4 o+ ~
  28. Forced : No
    5 d6 X; t$ `8 E# ~& ]) K0 ^; E
  29. # F8 C. a3 J: f4 l. F) X. d
  30. Audio+ \: g0 c" Y: i( j
  31. ID : 2# I8 g* R- J: x, \( q+ m
  32. Format : DTS
    2 {0 Y3 T0 f; _9 L4 Q
  33. Format/Info : Digital Theater Systems, I9 I) K7 U* R' _' N
  34. Codec ID : A_DTS
    : R5 Q* M) B5 w, L; i& l/ n
  35. Duration : 1 h 24 min( H% _- d* P9 ~( E- i0 J! R' x4 f
  36. Bit rate mode : Constant
    4 H5 ^  Z7 _; {+ f5 ]
  37. Bit rate : 384 kb/s
    4 X% p) A  U9 P1 q% k8 |
  38. Channel(s) : 2 channels
    1 i0 Q2 y& I+ }1 l
  39. Channel layout : L R
    8 r2 h  x# e* i9 F$ R) a
  40. Sampling rate : 48.0 kHz+ Y. x/ a8 N3 m& ]! r4 i4 K
  41. Frame rate : 93.750 FPS (512 SPF)
    & y) m6 Z& \. o8 ]5 s
  42. Bit depth : 16 bits
    6 L2 z3 ~& j+ R  Z7 {
  43. Compression mode : Lossy
    8 t* V. M) n# o
  44. Stream size : 233 MiB (3%)
    5 u) t# ^6 B6 r! G! a) b
  45. Title : The.Kid.With.The.Golden.Arm.1979.CHINESE.1080p.BluRay.x264.DTS-FGT2 P# W  t1 G2 R
  46. Language : Chinese" J! X# h3 ^# @; R8 y
  47. Default : Yes0 |9 }8 t' n& x0 U7 }& t
  48. Forced : No  s+ x6 i1 h% C5 t

  49. $ @* I) @: T4 V& T' b
  50. Text
    & p- a$ G7 Z7 t# V" {
  51. ID : 3
    , Z- l# K  V, ^; Z) M# @# {
  52. Format : UTF-8
    5 o+ x! `0 J/ H8 \  w' x
  53. Codec ID : S_TEXT/UTF8
    ; ~5 s2 K- q9 j1 F
  54. Codec ID/Info : UTF-8 Plain Text
    + N4 o! O9 w8 y6 F  S( h
  55. Duration : 1 h 24 min
    7 o- @7 k, z1 n- P
  56. Bit rate : 34 b/s4 D% a0 U4 n. p' m$ g/ Z1 E
  57. Count of elements : 747
    % N3 v8 I: @5 c  d* j7 w; f
  58. Stream size : 21.6 KiB (0%)7 d3 y4 v2 L4 {2 \  {2 x# U1 o
  59. Language : English5 v# C' n  r6 x" i, i; {6 Q! @
  60. Default : Yes* J. X( r, Y  y- \. B' Z2 i# R8 U
  61. Forced : No$ L& k8 R4 k# c. X

  62. 8 Y/ \0 i0 g: `6 X( q& j
  63. Menu! W* f" |" _5 T/ h+ L: a
  64. 00:00:00.000 : en:Chapter 01( T& [+ `" ]& M
  65. 00:07:20.899 : en:Chapter 02
    & C, ^9 I4 d0 `0 M( E, O
  66. 00:10:00.558 : en:Chapter 031 G: E; U8 n" u
  67. 00:18:23.477 : en:Chapter 04! i" M. d; [2 d, c" e9 b
  68. 00:24:20.084 : en:Chapter 05+ r2 ?2 J: h2 i  M$ E
  69. 00:32:57.767 : en:Chapter 064 z, C* ]: j  Y5 O0 s! |0 W: V
  70. 00:41:40.164 : en:Chapter 07
    $ |* C" q. K# c) T
  71. 00:48:48.884 : en:Chapter 08& [* q/ s$ }* W) N% [) E' W; q: W2 T
  72. 00:56:17.875 : en:Chapter 09
    * e! B3 D3 b* u1 t' \) {
  73. 01:02:04.095 : en:Chapter 10" R0 w" }- t# E7 V$ N* p
  74. 01:08:27.103 : en:Chapter 11% V. {) E, l% b2 x) O
  75. 01:15:37.283 : en:Chapter 12
复制代码

. }, K2 D$ A% b. z/ V. m
3 _' ^0 J6 L( R
. q& ?) w6 T7 f' X, v0 e+ O; C! b4 |, U3 c6 c# e. d' t/ ?2 A

6 j3 ?8 n- r5 m4 t" m) q- U) W5 q& D
游客,如果您要查看本帖隐藏内容请回复  VIP可免回复查看隐藏内容 详情请点击
发表于 2020-2-2 00:12:43 | 显示全部楼层
游客无权限浏览该内容
发表于 2020-2-2 01:50:57 | 显示全部楼层
游客无权限浏览该内容
发表于 2020-2-2 08:22:49 | 显示全部楼层
游客无权限浏览该内容
iMichaelLee 该用户已被删除
发表于 2020-2-2 10:00:56 | 显示全部楼层
提示: 作者被禁止或删除 内容自动屏蔽
dragonfiga 该用户已被删除
发表于 2020-2-2 13:46:38 | 显示全部楼层
提示: 作者被禁止或删除 内容自动屏蔽
发表于 2020-2-3 11:15:08 | 显示全部楼层
游客无权限浏览该内容
发表于 2020-2-7 11:00:48 | 显示全部楼层
游客无权限浏览该内容
发表于 2020-2-10 20:29:03 | 显示全部楼层
游客无权限浏览该内容
发表于 2020-2-14 16:53:17 | 显示全部楼层
游客无权限浏览该内容
您需要登录后才可以回帖 登录 | 立即注册

本版积分规则

封号公示|电子邮件联系本站hd1tj.net#[换成@]outlook.com|免责申明|HD一条街

GMT+8, 2021-12-3 21:58

Powered by Discuz! X3.4

Copyright © 2001-2021, Tencent Cloud.

快速回复 返回顶部 返回列表