HD一条街

 找回密码
 立即注册
搜索
查看: 416|回复: 8

[欧美] 真人秀:时尚的未来 第一季[自带中文字幕]Next.In.Fashion.S01.1080p.NF.WEBRip.DDP5.1.x264-NTb 22G

[复制链接]
发表于 2020-1-31 19:24:11 | 显示全部楼层 |阅读模式

马上注册,结交更多好友,享用更多功能,让你轻松玩转社区。

您需要 登录 才可以下载或查看,没有帐号?立即注册

x

- I; R7 v5 {* b* x4 c6 X  K                               
登录/注册后可看大图

6 H  d& P; z- Q' w; e: `% D6 K6 J" b* ^+ F) A
◎译  名 时尚的未来
2 W0 a- N+ J2 C# z' u$ X◎片  名 Next in Fashion
8 E: b% A2 B# i2 g. `◎年  代 2020) K" @6 s: A5 A+ [% [+ F
◎产  地 美国* |- A9 e0 _% `' q
◎类  别 真人秀
' E) P2 [; `* {+ M* q' W◎语  言 英语! t- ?9 e; j1 y" Q
◎上映日期 2020-01-29(美国)
+ k  X9 g, q1 u: _6 S" \◎IMDb链接  https://www.imdb.com/title/tt103947708 W. f' x' j2 A# t; ]& l
◎豆瓣评分 0/10 from 0 users5 H: X5 O; n  ?6 r
◎豆瓣链接 https://movie.douban.com/subject/33451986/& ?2 @1 ]9 h/ g0 h: d* o
◎集  数 10; [/ o- P% p4 d
◎主  演 谭·法郎士 Tan France  ^+ V/ w  |( k) [
       艾里珊·钟 Alexa Chung
) H  i9 b. o7 B+ x
0 ]/ ^0 o% ~, t5 A
" Z* d4 w4 s2 o9 B5 @) X0 S◎标  签 真人秀 | 美国 | tan | 粉雄救兵 | Netflix | Alexachung* [: E( C: n- [1 @+ G

9 a6 H0 L) M& F/ U1 Y1 Y  r/ A◎简  介  % O( c% w) A4 e! |/ l$ R

. v! k% b: `/ h( r: Y" [  e1 [  《粉雄救兵》五人组之一的谭·法郎士将与艾里珊·钟共同主持Netflix时尚竞赛类节目《时尚的未来》(Next in Fashion,暂译)。Netflix已预订该节目首季,共10集。造型师兼时装编剧伊丽莎白·斯图尔特、Instagram时尚合作伙伴主管伊娃·陈等担任嘉宾。18位时装设计师将为一流的名人装扮。他们将争夺25万美元的奖金,并有机会与零售商Net-A-Porter合作推出系列服装。
  1. Video
    % R% [' @! v  o
  2. ID : 1
    , ]3 S0 K4 v# N4 ?
  3. Format : AVC0 ~$ ~" R6 V; n  C. S+ u
  4. Format/Info : Advanced Video Codec: q- U, ?3 [' Y
  5. Format profile : Main@L4% B. H7 _; G8 D' ~/ l- f) E8 v
  6. Format settings : CABAC / 3 Ref Frames" Q  i. G: l; p4 g( R2 M
  7. Format settings, CABAC : Yes
      }0 J& B( L; ]
  8. Format settings, Reference frames : 3 frames
    - l7 B9 L5 R% s; V- e
  9. Codec ID : V_MPEG4/ISO/AVC
    - s( v3 ^1 h4 Z- ]
  10. Duration : 49 min 39 s/ ^4 c' ?1 K5 F5 D: J. r6 c; w  `* J
  11. Bit rate mode : Variable2 q2 l% Q( w* k4 K& F
  12. Bit rate : 7 500 kb/s
    7 u5 T& Z- L! u
  13. Maximum bit rate : 11.2 Mb/s
    " Q1 B! c& J0 \0 |4 M# S" \! o5 ~  q
  14. Width : 1 920 pixels% q4 k% Q- @% C; l! u9 ]
  15. Height : 1 080 pixels
    6 f" r; s1 _2 B  u4 `' O
  16. Display aspect ratio : 16:9
    - ]: g) }5 P' a* z  b: E
  17. Frame rate mode : Constant! V. p; y% T. D" Z
  18. Frame rate : 23.976 (24000/1001) FPS
    2 A9 j5 d$ Z' `/ ]; g- X" H
  19. Color space : YUV; L# W6 ~; X4 t4 M$ n; C
  20. Chroma subsampling : 4:2:0; n- P' M, r: v( e9 k
  21. Bit depth : 8 bits; d  k$ T: _% n& F8 i
  22. Scan type : Progressive# X, T- c! h* N' C' i0 C8 L- u8 ]
  23. Bits/(Pixel*Frame) : 0.151" _6 z2 |- Y3 y6 P8 C3 h
  24. Stream size : 2.55 GiB (92%)
    - E7 f4 b" P, I% {: F, H
  25. Writing library : x264 core 148 r2715 7e75228
    9 y; @% O" H- u1 P* [+ f. `* A6 f
  26. Encoding settings : cabac=1 / ref=3 / deblock=1:0:0 / analyse=0x1:0x111 / me=umh / subme=10 / psy=1 / psy_rd=1.00:0.00 / mixed_ref=1 / me_range=24 / chroma_me=1 / trellis=2 / 8x8dct=0 / cqm=0 / deadzone=21,11 / fast_pskip=1 / chroma_qp_offset=-2 / threads=6 / lookahead_threads=1 / sliced_threads=0 / nr=0 / decimate=1 / interlaced=0 / bluray_compat=0 / stitchable=1 / constrained_intra=0 / bframes=2 / b_pyramid=0 / b_adapt=2 / b_bias=0 / direct=3 / weightb=1 / open_gop=0 / weightp=2 / keyint=250 / keyint_min=23 / scenecut=0 / intra_refresh=0 / rc_lookahead=48 / rc=2pass / mbtree=1 / bitrate=7500 / ratetol=1.0 / qcomp=0.50 / qpmin=6 / qpmax=51 / qpstep=4 / cplxblur=20.0 / qblur=0.5 / vbv_maxrate=11250 / vbv_bufsize=15000 / nal_hrd=vbr / filler=0 / ip_ratio=1.40 / aq=1:1.00* a7 S9 h" p# ]
  27. Default : Yes
    # g7 h  D6 L) P7 [7 D1 {
  28. Forced : No
    2 X* q* d  h) T: Y  ?+ z8 G) L6 r, m

  29. 3 T2 P' j" s; E( t; X8 k% W2 ^( G
  30. Audio* U7 X- B. t' _( |2 F; v' ~
  31. ID : 23 C* O: X) r6 o; K- b6 ~
  32. Format : E-AC-3
    6 s% U+ q' h0 g8 \
  33. Format/Info : Enhanced AC-3- J; T9 ^: n: x
  34. Commercial name : Dolby Digital Plus
    3 P3 C& M! c, J, l; @! J
  35. Codec ID : A_EAC35 a8 H# @* S' @' m8 i( Q; K
  36. Duration : 49 min 39 s
    ' V1 b9 q' C& |6 o8 f
  37. Bit rate mode : Constant. z4 \- y2 y: {
  38. Bit rate : 640 kb/s/ h& d  v7 c, N0 g9 e4 Q+ s
  39. Channel(s) : 6 channels
    * F1 X# N/ j5 r0 l5 j" ]
  40. Channel layout : L R C LFE Ls Rs
    . J3 j! d( R& I% j3 d+ f& S+ r' M
  41. Sampling rate : 48.0 kHz/ W6 k3 n9 D( {9 X0 ^& A, `
  42. Frame rate : 31.250 FPS (1536 SPF)
    2 I' `4 v- {6 H9 |% z2 ?
  43. Compression mode : Lossy
    . i+ |6 H* x% U
  44. Stream size : 227 MiB (8%)
    ) ^- X8 m0 X$ {9 A, u) K* x; D
  45. Title : English( n* t5 W' Q1 L1 D
  46. Language : English
    6 @! x. ?: v: Z# o" \0 {: t9 f
  47. Service kind : Complete Main
    - J5 k, V: n2 I& N4 b" c, q$ k' c2 r; N
  48. Default : Yes
    * u# d( [5 t" j6 Y7 d1 \
  49. Forced : No4 G' G$ `1 l: i; l* m# B

  50. 4 [/ @, q5 d( \/ z3 O
  51. Text #1
    0 Z: i( o5 ~1 H$ N5 s
  52. ID : 3
    + Q" \5 J+ Y# q
  53. Format : UTF-8
    & ^' {0 B7 Q! z6 y6 s4 _3 p  L
  54. Codec ID : S_TEXT/UTF8
    & o# F* e2 |  J  |% ]/ {
  55. Codec ID/Info : UTF-8 Plain Text5 l; c' d; ~7 P
  56. Duration : 41 min 15 s
    ( K, g- D+ V$ ~6 q- `" a" S& U8 O+ Y
  57. Bit rate : 1 b/s
    % w) x1 ]# I& m6 |& d2 K/ {
  58. Count of elements : 120 J& H. {- S7 Q$ y& \
  59. Stream size : 354 Bytes (0%)% U3 @$ `4 T5 m; s
  60. Title : Forced
    ; ~/ e3 J# O. p7 r; q
  61. Language : English4 I/ j, c2 y/ `3 @: ]
  62. Default : Yes
    " o7 z; @: [5 V1 t! ]) l% u" g( {
  63. Forced : Yes
    & p" {$ L1 k8 M+ F' M  n7 F+ I
  64.   Y* x9 J' ?& U% J  S( U' }
  65. Text #2
    8 w2 H$ r, ^$ L( A# T9 T
  66. ID : 4' _0 E; |: ]7 d& Z- v5 N" @2 f
  67. Format : UTF-8- I" A6 g5 L2 D2 M8 f1 E
  68. Codec ID : S_TEXT/UTF86 {, j, E3 o, l) S( D
  69. Codec ID/Info : UTF-8 Plain Text
    4 K3 Y. s* L+ h3 X
  70. Duration : 48 min 7 s2 i0 B' u4 |+ B# `1 F
  71. Bit rate : 110 b/s
    # K8 I- r' P$ z8 I, F
  72. Count of elements : 904
    8 r) b3 x$ X3 Q( B; k+ j: P
  73. Stream size : 38.9 KiB (0%). U( G" Q6 @0 f8 s% \6 D2 M! T$ k
  74. Language : English7 W* G+ r: R6 @, l) z0 h
  75. Default : No
    . T7 x) l3 M+ Y) O. H! q
  76. Forced : No
    1 T. c7 ~& }8 B4 N1 p" j
  77. & D! D  d1 u. _  A( j
  78. Text #39 ]8 p7 \9 z9 T; d) D1 J
  79. ID : 5; G) ^: ^1 D+ Y1 n
  80. Format : UTF-8
    . @5 d* M2 s- Y( i; ?# }# Q
  81. Codec ID : S_TEXT/UTF8
    + M# l$ H1 X: G8 @1 k9 D) _5 A  @
  82. Codec ID/Info : UTF-8 Plain Text: a( |5 @: u$ f" N: g
  83. Duration : 48 min 14 s
    ( y! @  h+ P7 f5 e: ~# K
  84. Bit rate : 115 b/s3 l1 F+ A! ~+ b; o; O: s8 m% E
  85. Count of elements : 943! o3 p9 ~$ `8 _6 N1 K  O8 t
  86. Stream size : 40.9 KiB (0%)
    & ^5 L- L- d8 Q1 l3 n
  87. Title : SDH
    0 P4 {9 }# p! r0 a& v" b. E: D
  88. Language : English
    + J+ n3 h+ g5 |. P3 _0 b  m
  89. Default : No
    1 ]& L! a8 S, K
  90. Forced : No' W) t( `" O, f7 h+ [$ \8 [

  91. ) S, _5 F4 m# t4 `
  92. Text #4% M7 `" V" J. ?0 \' _# Y
  93. ID : 65 O7 \" }7 P3 F" l$ N9 M
  94. Format : UTF-89 }. t1 ^$ O+ Q- Q
  95. Codec ID : S_TEXT/UTF8; i* s3 H# ^4 F$ o% h: \$ V
  96. Codec ID/Info : UTF-8 Plain Text! s) i/ U* f! b8 u& F( c
  97. Duration : 48 min 54 s7 e# D3 d: K$ t9 i* z1 g6 |6 N
  98. Bit rate : 172 b/s
    # R+ N6 I- a9 z. u8 o9 F" W
  99. Count of elements : 916- c$ W9 P0 e( ^5 O
  100. Stream size : 61.8 KiB (0%)  b; I5 w- W# ^+ }
  101. Language : Arabic
    5 O; ]) K1 F# T) C/ d1 R: o1 G
  102. Default : No' d) I: ~8 {% V; w3 y* R; g
  103. Forced : No/ c9 C8 u: Y2 M' J3 G
  104. $ s) z/ x: [( j% f
  105. Text #50 [3 E9 D1 `, y+ E, o
  106. ID : 7* D5 q6 L) k3 T% h. ~6 J
  107. Format : UTF-8
    5 V$ b( P4 M; ]) A5 c1 Z
  108. Codec ID : S_TEXT/UTF84 O1 U6 Z' {4 ]2 J. d) Y% d3 \& J
  109. Codec ID/Info : UTF-8 Plain Text+ v/ k  U! [+ d5 P
  110. Duration : 48 min 54 s" h/ e- ?! X! g  R! v( R$ H
  111. Bit rate : 88 b/s; I2 @8 Y# L8 @4 u% s
  112. Count of elements : 876
    * k* W8 o) e7 D1 X* N- ]9 Z
  113. Stream size : 31.6 KiB (0%)& z2 N- A+ A3 d6 q$ b5 A1 e7 \+ f
  114. Language : Czech  p7 h! _: _2 C8 r1 n
  115. Default : No
    5 w. ~6 y+ K3 u* e; u5 A
  116. Forced : No
    $ J: I) p4 K; H* e8 P; B8 |

  117. + ?( b5 t6 ?8 z9 ]) G6 q' O
  118. Text #6# g! a7 C" d# q  h
  119. ID : 89 Q3 Y$ m* ]$ }! N0 r6 i
  120. Format : UTF-8
    7 u& M- X: b7 _- a
  121. Codec ID : S_TEXT/UTF8
    . a/ c8 s; t9 R2 _, p# b2 Z
  122. Codec ID/Info : UTF-8 Plain Text5 ]2 _6 G1 ^, i
  123. Duration : 48 min 54 s
      @, n6 u- S% ~: ~4 `% l% }
  124. Bit rate : 95 b/s  n" Z0 {* a* U0 o
  125. Count of elements : 8899 s0 |, ^6 Z4 z
  126. Stream size : 34.1 KiB (0%)  g& C7 G7 }6 C" _2 w8 O
  127. Language : Danish( X( Y" [# |& O, H* \; z  V  D
  128. Default : No3 q( E" R& l7 T8 v8 L9 s# u
  129. Forced : No
    3 V0 n% o7 h2 @) W2 m: V7 P
  130. 9 u  L5 Z! v0 l) N; f
  131. Text #7% K! m+ f5 |6 ?% g8 c: A
  132. ID : 9
    3 H, o& x+ r, e/ ~8 ~0 }# @2 E9 O) d
  133. Format : UTF-8  q: y6 S0 k+ W/ ~$ i
  134. Codec ID : S_TEXT/UTF8& R6 Z- L6 \+ w
  135. Codec ID/Info : UTF-8 Plain Text
    , [( |% J! Z, C* o
  136. Duration : 48 min 54 s
      `; j3 T& i1 [/ q% X3 \- q
  137. Bit rate : 96 b/s$ x: Q# ]' Q8 z- {) C
  138. Count of elements : 888! ?- M2 v4 ?4 x+ p' U# B
  139. Stream size : 34.6 KiB (0%)- x* W; M0 T9 E2 z" l& v4 i
  140. Language : German
    - J: U* |$ @% I
  141. Default : No; g* P7 x# P. N" y) g
  142. Forced : No
    , s" V0 A$ `" o
  143. , V8 N! D1 B1 f' L8 ?
  144. Text #81 m- s/ d$ N) g% ^8 T7 C+ b1 d# T
  145. ID : 10
    9 X/ q* e/ L( i( ^5 ~" X
  146. Format : UTF-8
    / f1 |; _& q! D
  147. Codec ID : S_TEXT/UTF8
    6 g: m, m. a- {  C$ X; @  Z5 h) K
  148. Codec ID/Info : UTF-8 Plain Text
    " F& `5 Y% q8 Z8 A
  149. Duration : 48 min 54 s% k0 E% p2 H! S" P6 f
  150. Bit rate : 157 b/s1 o6 c* |) b0 {4 D8 |4 p( q& S
  151. Count of elements : 8755 Q/ G2 E* s$ P) k6 N
  152. Stream size : 56.5 KiB (0%)4 h" J  @" e. g6 T5 u
  153. Language : Greek7 z# k5 u0 O( N0 _- D0 r
  154. Default : No
    7 [$ m: z6 m/ U1 y3 b: T5 E
  155. Forced : No
    / V. V# \$ L! H7 [

  156. 0 A# i% |5 @& l- j6 R
  157. Text #9& Q" H  d* H3 l4 @' A/ @( D
  158. ID : 11
    0 J2 S6 |% z# G; ?
  159. Format : UTF-8) a+ V3 i" C6 l
  160. Codec ID : S_TEXT/UTF8# q# n6 _" x6 P
  161. Codec ID/Info : UTF-8 Plain Text" e! x) T: B2 f
  162. Duration : 48 min 54 s2 a+ V& e! H6 A
  163. Bit rate : 91 b/s2 _. f  k8 ]# g3 S
  164. Count of elements : 840$ i# Q0 r& G: g" Y
  165. Stream size : 32.7 KiB (0%), ^  @, ?$ R$ q. i7 p$ P8 u
  166. Language : Spanish
    - R. I' @: C0 N9 c9 X: @5 |
  167. Default : No9 f, C5 U- t+ e  m/ t1 @5 X
  168. Forced : No
    3 s: R' h; i! C. d  z

  169. . b# R! {- ]4 _5 D
  170. Text #10. A3 ^8 j, C# S. ^
  171. ID : 12
    6 b7 \7 E/ B6 A' _4 h* L- K
  172. Format : UTF-8
    ! t! w  ^7 S3 U6 J7 ^5 m0 n& q) G$ Z
  173. Codec ID : S_TEXT/UTF82 \& D8 }' x7 e. o
  174. Codec ID/Info : UTF-8 Plain Text
    & D; |5 F6 s( D, E  g3 i& z
  175. Duration : 48 min 54 s6 n( i: l9 L* X- \# J) Q  R7 t0 f* R
  176. Bit rate : 94 b/s; ]) X. m* a; y2 B
  177. Count of elements : 918
    : u# \$ ~' \% h" m) S
  178. Stream size : 34.0 KiB (0%)
    6 Q. o7 Z5 \. ]& |, O% k6 m
  179. Title : European
    - r7 ], Z9 S) \! @  O* H% W( T
  180. Language : Spanish/ Z7 p/ o0 R: \9 V
  181. Default : No1 q3 {8 g9 Z; z0 f9 `
  182. Forced : No
    - W8 T" W7 ]2 O0 w6 f: P" }' @
  183. & B- ~  m6 ~4 [. b7 ?
  184. Text #11+ J+ u0 j6 `9 t7 M5 T
  185. ID : 13) Z: E! F3 B5 b' @8 D) f
  186. Format : UTF-8
    7 Y% o9 {4 K9 T" t6 }9 }7 g
  187. Codec ID : S_TEXT/UTF8
    6 l5 [, y. X6 ^' o: [+ u3 q9 c( s& T) `7 t
  188. Codec ID/Info : UTF-8 Plain Text
    ) k; G/ O, w: H) J. a3 X$ h% D
  189. Duration : 48 min 54 s5 @& Z- e+ ?/ ^* ]8 r( X# q- Z: r$ V
  190. Bit rate : 106 b/s
    ; g" M4 a8 T# @, n
  191. Count of elements : 899
    1 s% h& ^  D$ S8 B2 [& @) V2 z9 z  V6 r
  192. Stream size : 38.0 KiB (0%)
    ! G' P0 w  R3 f3 n5 J
  193. Language : Finnish9 Y# \# J2 F) @) c- \
  194. Default : No+ O; w$ W  J" Y% L) m
  195. Forced : No
    + k, o1 A; n5 U% f/ a( e

  196. " |: o& s" w7 b4 @5 u& P" Q  p) N& P
  197. Text #12
    - `+ M( ~& ]! h* p, g' M) I0 d* Y
  198. ID : 14/ F3 l4 V1 w2 ~- {0 M
  199. Format : UTF-8
    2 \; e  |8 Y5 z0 a
  200. Codec ID : S_TEXT/UTF85 Y6 l+ R- F8 j6 n
  201. Codec ID/Info : UTF-8 Plain Text
    3 k. F7 ~6 t& @, P. u
  202. Duration : 48 min 54 s
    - p5 q* K/ G2 }, F: N
  203. Bit rate : 100 b/s
    % M1 Q, }" g- H1 \2 b' {" \* B
  204. Count of elements : 905
    , {9 ^% f9 ?, c# R) H9 w9 n  r
  205. Stream size : 36.2 KiB (0%)/ K2 x6 d6 L$ ?: ?" z4 ^/ E
  206. Language : French9 Q: `1 X: p5 X) I, g& l3 R
  207. Default : No
    * A; G  n: y1 [3 P8 r
  208. Forced : No* {5 o" d9 H3 B* n, z
  209. $ g1 ^3 t6 w' A' Q$ g) v
  210. Text #13
    : s: H, o) D- Z- v+ Y! E( B
  211. ID : 15
    , O1 T3 Y! J0 R# Z. P# {
  212. Format : UTF-83 u8 \' b# W9 |
  213. Codec ID : S_TEXT/UTF8! m0 }3 `! C+ j
  214. Codec ID/Info : UTF-8 Plain Text
    8 t9 x* W" S2 |
  215. Duration : 48 min 54 s
    / b: _; T6 d' `/ u0 ~# N
  216. Bit rate : 153 b/s
    # b. i. o7 x' k  @
  217. Count of elements : 912
    / t  v, p3 E: G6 f
  218. Stream size : 55.0 KiB (0%)
    9 E0 `" Y# f* {$ x- L9 c5 l
  219. Language : Hebrew
    # h2 E! w5 N- |  X: t
  220. Default : No
    1 w3 Z/ z! g: N* E, H, P
  221. Forced : No# q4 D3 Q3 E+ s9 ~' U' {

  222. 4 x( y% L* k/ r. C
  223. Text #14
    - F3 K' s/ R+ L0 y; i% q
  224. ID : 16) |% a8 `$ M2 z- [0 _, i
  225. Format : UTF-8
    0 q9 X% M: _* Q* n: D
  226. Codec ID : S_TEXT/UTF8/ l' x9 O  }' Z3 {  X( `8 b
  227. Codec ID/Info : UTF-8 Plain Text
    & g. h) X4 ^* r& z- w5 s( \5 o
  228. Duration : 48 min 55 s
    # H) \, c" |5 H
  229. Bit rate : 93 b/s0 s/ u& ?# E* q; A. k3 @
  230. Count of elements : 914
    " C% |3 `% O- [; E8 D( c, c/ [& W
  231. Stream size : 33.4 KiB (0%)3 k. H3 }, p+ t9 i9 N2 r
  232. Language : Hungarian
    ( r, K) u; y' X/ Y. P$ t
  233. Default : No( t' B! y# k6 l# L4 @& A) E; O
  234. Forced : No
    + k9 `/ R/ f/ O4 Q0 i4 _
  235. " r# `9 h9 v; f1 n8 P2 u: g
  236. Text #15
    3 P! H9 N0 ?+ v7 E. y0 V1 g
  237. ID : 17
    8 u2 B4 _9 G+ l) j
  238. Format : UTF-8
    1 c8 ~' P% I) Z, q/ O. A0 \
  239. Codec ID : S_TEXT/UTF8+ }2 H6 {( H# A/ Z& Q# u/ e
  240. Codec ID/Info : UTF-8 Plain Text
    3 g' x# w5 X! J/ q+ e& I9 {3 M
  241. Duration : 48 min 54 s/ ?) F" e- c9 d  q" ?* s( u$ {
  242. Bit rate : 98 b/s
    & O$ s) X" w% \, \+ B4 t" f. P$ d
  243. Count of elements : 916
    ) c' V8 I9 i) p( \! d
  244. Stream size : 35.2 KiB (0%)
    ; ]3 x( d6 X! d$ B: F4 t% z
  245. Language : Indonesian
    8 }% d* r1 _% a7 e1 u+ o& t# p
  246. Default : No# H' l6 L( s; M" h: c2 d4 {; u
  247. Forced : No
    2 C  V& L0 p. O& Z4 r+ v, s
  248. ) u. _/ b7 B3 V
  249. Text #16* Z  R$ G' M4 E7 Y5 F
  250. ID : 18
    + Y2 N9 q% N) B9 \* O
  251. Format : UTF-8
    " H% n% B: s0 l5 s0 o! ?8 ?! a5 l7 @
  252. Codec ID : S_TEXT/UTF8/ r7 I- G5 y3 J3 @
  253. Codec ID/Info : UTF-8 Plain Text% J+ B: W7 F7 e2 e4 R
  254. Duration : 48 min 54 s
    + i; l$ U9 B4 u: n7 ]; q: ?4 i# w
  255. Bit rate : 95 b/s
    " v7 f& z  v& Y
  256. Count of elements : 841  |9 A; B. u( R7 |% _: H
  257. Stream size : 34.1 KiB (0%)  `( h' }9 x( r4 `& K$ p
  258. Language : Italian
    7 r% |* H3 s/ @! f4 ^% o& F
  259. Default : No
    ) ?% f; |3 q" O9 [' y
  260. Forced : No
    , }; b1 g6 t9 l4 K7 |3 D% f$ k
  261. - P& J4 X: r5 s+ Z4 j
  262. Text #17- [& {! G# Q+ e3 m
  263. ID : 19
    ! h- H9 i. h# o% T/ M0 t" l
  264. Format : UTF-8# E' F! X7 s' ]" A0 o, u
  265. Codec ID : S_TEXT/UTF85 j3 S# q/ w" ]  N/ U/ I% T1 ^
  266. Codec ID/Info : UTF-8 Plain Text) i8 w, A+ [9 @5 m. y+ g
  267. Duration : 48 min 54 s4 A8 ^; P# Y2 D8 S' _+ O% Y
  268. Bit rate : 98 b/s# R3 Y  C+ \/ a# d3 @
  269. Count of elements : 1056
    , c3 N: r+ R8 Z* u. W  J8 g
  270. Stream size : 35.3 KiB (0%)# x: t& s" w9 F4 z: x
  271. Language : Japanese
    6 G4 O* B- v1 b8 k9 D
  272. Default : No
    : p" D8 ?0 a2 d- m4 _- i
  273. Forced : No
    7 q0 P" b2 B$ d

  274. 6 I% a1 o% o6 T+ N3 w( x( e2 J
  275. Text #18" n& \" Q# K% H  Q! v
  276. ID : 20
    " l$ _  C- Y& }7 D; {
  277. Format : UTF-8' w% G" e* r3 P* F$ A3 O: n! N( i
  278. Codec ID : S_TEXT/UTF8
    : v3 w- w. F! ^
  279. Codec ID/Info : UTF-8 Plain Text$ {1 K- I, Y. z) [2 f) [- g
  280. Duration : 48 min 54 s
    * t, j. z/ M7 r# c; E
  281. Bit rate : 131 b/s
    7 k& Q, l+ Z( O$ |3 E  y4 r
  282. Count of elements : 934
    2 I  N, C3 n1 k; e& f3 @
  283. Stream size : 47.2 KiB (0%)
    ( d' l+ Q; X' u6 {7 e: m  o( v# D
  284. Language : Korean
    ) ~4 U. j+ b5 O- ^* H* Z
  285. Default : No
    : k+ ]" }1 i- W
  286. Forced : No
      e) \  T. e- @# D

  287. 9 z2 D" p+ O' j  x* a2 l
  288. Text #19
    2 y: t; ^* H4 Q8 K( ~6 O8 ~* h% c
  289. ID : 21
    8 [# M* ]6 E3 W' D; u5 b0 X
  290. Format : UTF-8
    + h- F5 `0 a8 H) w6 x. S
  291. Codec ID : S_TEXT/UTF82 ]# P( A- P5 [
  292. Codec ID/Info : UTF-8 Plain Text
    * O; k$ B+ a6 p  W  m
  293. Duration : 48 min 15 s
    4 i7 j' \8 ]  F8 a& O
  294. Bit rate : 92 b/s) `1 r9 d4 r& f' @/ T- R
  295. Count of elements : 766
    - D0 l7 r, w) e* J. Q2 m
  296. Stream size : 32.8 KiB (0%)3 a+ F( i% k$ t6 z. h* O% G% e7 q' h6 F
  297. Language : Norwegian Bokmal
    ( I, _$ F8 e4 R& ^1 U! g  F& h
  298. Default : No: \! T! t( @4 u. V
  299. Forced : No
      K* i5 F  M! l6 h$ |! w8 @
  300. 3 J6 r- w9 l9 I" f/ D- V
  301. Text #207 W% n& x+ p! K& b/ m6 Y; j6 [$ d; M8 H
  302. ID : 22) O( A! G% z1 p7 j) ^
  303. Format : UTF-8( p) x% F2 {; L& I7 _5 X
  304. Codec ID : S_TEXT/UTF8
    + a- L8 Z- K5 M0 t
  305. Codec ID/Info : UTF-8 Plain Text  v- ?; `; Q! V  |6 U: ?
  306. Duration : 48 min 54 s$ Q, [: m7 `6 e+ x* u0 @
  307. Bit rate : 81 b/s5 Z0 e: \7 Z" C  y) K
  308. Count of elements : 827
    ( d' P9 j3 e+ \+ u
  309. Stream size : 29.1 KiB (0%)9 S# k" }5 J; y; L5 l8 e1 m
  310. Language : Dutch8 ~: k1 y1 Z1 U" l" k+ S! S) R. J
  311. Default : No
    8 F# ~6 J; G) h1 I
  312. Forced : No; ?) K( Y( H9 m) f( r) S$ X
  313. $ p7 m0 W& ~8 a) w" t
  314. Text #21
    ' o1 F& r8 i8 W% d0 X
  315. ID : 235 }) ?' R& E" s# ]0 ~
  316. Format : UTF-8* V4 s7 ?6 a- k% }: Q% x
  317. Codec ID : S_TEXT/UTF8) @1 {1 ]3 n4 h6 g5 r6 k
  318. Codec ID/Info : UTF-8 Plain Text
    5 M; z& f8 H- _; Y1 x
  319. Duration : 48 min 54 s
    # O! C6 P" Q" P5 Z
  320. Bit rate : 85 b/s  T% v3 Y# _2 s+ L( q. \/ h8 r
  321. Count of elements : 912
    9 I4 C. Q% [# d  M0 C
  322. Stream size : 30.8 KiB (0%)
    / ~/ g! B1 y3 F+ ^  ]
  323. Language : Polish
    2 {4 D5 ^8 @1 L6 Y9 G
  324. Default : No5 v# ^$ E9 e: q( n- a6 m+ L! J" I
  325. Forced : No
    1 z+ v8 t& Q* n2 u6 [
  326. 4 z. c/ |! ^' b. q, O7 A6 X, [: l+ e
  327. Text #22
    : t" i6 u8 ?& R6 h. K- k8 N4 D. A
  328. ID : 247 S' O2 L9 N; V' J6 S4 m" U
  329. Format : UTF-8
    * L2 M$ r- z5 _) N
  330. Codec ID : S_TEXT/UTF81 \* l# S' ^0 b+ T) N/ s
  331. Codec ID/Info : UTF-8 Plain Text9 P1 v, x2 n4 c  C
  332. Duration : 48 min 54 s
    * v& O9 G% z) j, f$ C
  333. Bit rate : 102 b/s: O- P- N) c' y3 X" T
  334. Count of elements : 876
    6 N  `' m# y8 _2 w
  335. Stream size : 36.6 KiB (0%)+ Z3 F7 D1 r, d2 x
  336. Language : Portuguese
    4 x( w' g& ^! R
  337. Default : No8 B7 b3 H% @# L- k
  338. Forced : No
    1 s! \2 g0 I+ A! M; y& N
  339. * p0 y4 l$ \- S
  340. Text #23- G2 i  `/ u; R- T9 M
  341. ID : 25
    ' x9 @. |2 I! X
  342. Format : UTF-8
    ! s2 z9 c# F8 j0 l
  343. Codec ID : S_TEXT/UTF8
    ) E' i' \. \0 Y3 h8 [  S& q: S
  344. Codec ID/Info : UTF-8 Plain Text# K2 K% ?6 r3 {. W) d# m
  345. Duration : 48 min 11 s
    2 c; T# |+ L; M" I8 [
  346. Bit rate : 97 b/s! b( @# U5 a2 p! A; `5 `
  347. Count of elements : 8745 E5 F; c% c: q1 @
  348. Stream size : 34.4 KiB (0%)
    4 O* n7 U$ }; M' D9 U+ |$ w
  349. Title : Brazilian% [+ q$ G) ?+ {% L9 u& s# |/ I
  350. Language : Portuguese6 W5 M0 l0 k. W$ p1 o, q& y
  351. Default : No" ~/ w1 B7 {) M* |9 {
  352. Forced : No- C% d: i3 l0 f8 G9 c( ^" m3 H
  353. 2 e5 q5 g  D0 [9 l( J$ T. f
  354. Text #247 f! F7 C! [, X0 P1 [
  355. ID : 26
    * H& V# Q9 m) O+ e: e' l
  356. Format : UTF-8
    $ t: Z8 e( _, M( Q
  357. Codec ID : S_TEXT/UTF8  G/ g/ K+ c, z
  358. Codec ID/Info : UTF-8 Plain Text6 g" M, v3 V; b
  359. Duration : 48 min 54 s$ [8 I2 E/ N0 J! A1 ?* N
  360. Bit rate : 110 b/s
    8 t2 q% p0 }. ]3 V
  361. Count of elements : 916
    7 n0 H7 U5 z- `9 y$ N( q
  362. Stream size : 39.5 KiB (0%)6 Q8 }# F: G9 E3 N7 h! l, ^
  363. Language : Romanian
    3 y. x4 \9 d9 ~7 Y, F2 o
  364. Default : No
    4 W1 Y5 ^6 @- V2 _# W1 G5 e% c
  365. Forced : No/ P& u) Y' A0 I" B4 K5 H' K% C2 n
  366. # }/ ?- h  m2 u- Q
  367. Text #25
      [; `* f& i) g6 }) W- v
  368. ID : 27
    5 I% {' Z% H: z$ S& N" Y
  369. Format : UTF-81 G1 m1 ~# ]9 T+ ~+ |. |/ \
  370. Codec ID : S_TEXT/UTF8
    " d7 |- R6 t% L" Q$ y$ C
  371. Codec ID/Info : UTF-8 Plain Text0 Q' l4 y9 u: j" ]' w' m$ {3 f
  372. Duration : 48 min 54 s
    8 w. }( R: ]$ j2 A) F' \7 ]
  373. Bit rate : 144 b/s/ Z' @( T. Q3 P. {' Q
  374. Count of elements : 912
    2 K5 J& p5 b/ O
  375. Stream size : 51.8 KiB (0%)9 C* F# A/ Y" X4 X8 A/ x+ J
  376. Language : Russian
    7 I9 n1 t0 J% V
  377. Default : No
    ) D. f: w5 s( h1 l
  378. Forced : No. N; ~+ H+ j" M1 U: g
  379. 7 t9 p. R5 {/ [. K. h8 x
  380. Text #26. f1 j, M# x$ N9 a. c3 T5 a
  381. ID : 283 V  @: S0 b  U" h$ m
  382. Format : UTF-8
    4 U0 }7 s8 k& H" ]1 @. y8 {4 H! x
  383. Codec ID : S_TEXT/UTF8- h0 i, y$ j, J0 W- I  |- l! q
  384. Codec ID/Info : UTF-8 Plain Text
    8 ?6 b2 Q4 V0 b. ^
  385. Duration : 48 min 54 s5 o0 E$ \# S7 U1 [* T
  386. Bit rate : 95 b/s
    . M$ P* M! F: Y9 A0 U3 f$ `
  387. Count of elements : 897" R- s6 Y  t4 [& j/ m7 @& m
  388. Stream size : 34.3 KiB (0%)
    2 |. X) H( C. E  I2 k' p
  389. Language : Swedish
    # L9 R( N5 P# P8 i" ^
  390. Default : No
    , a8 L$ @. k* i( s! N7 L
  391. Forced : No
    % e' [* W6 x; h0 V' R. A! S8 I/ f

  392. ) o# Y7 o, @# @1 _0 P
  393. Text #27) H3 G; l% k0 s
  394. ID : 29
    9 D% F- _! `; @& U$ k" B( T, D
  395. Format : UTF-8: w3 }4 F1 Q9 [: c) z
  396. Codec ID : S_TEXT/UTF8- O0 R+ [! s4 C2 I* A2 L; a: E
  397. Codec ID/Info : UTF-8 Plain Text
    ) L, D: |" V4 Y6 Z
  398. Duration : 48 min 54 s5 z8 @: h( {. x
  399. Bit rate : 255 b/s" J: s- P5 i. X+ J) k
  400. Count of elements : 9166 R& F5 v) y% F# M8 B
  401. Stream size : 91.6 KiB (0%)* x( q. _9 `+ p% E% w9 R. ~
  402. Language : Thai
    * ~- r1 M) {4 X' K2 C6 I
  403. Default : No
    * a5 J7 l, _8 O6 d( n
  404. Forced : No
    , i! u6 l! |( ^2 P% Y4 b
  405. / s" H; A* g: x2 _
  406. Text #28
    + n2 u, e% O7 n/ x$ c/ c
  407. ID : 307 `& w# h, c3 b+ i+ O# C
  408. Format : UTF-8
    8 i) x( N+ v# a( T
  409. Codec ID : S_TEXT/UTF8
    , `, W. c/ z6 j0 i& }
  410. Codec ID/Info : UTF-8 Plain Text
    * l* e  A( J: N" _: A
  411. Duration : 48 min 54 s
    2 C9 r8 w% G- S
  412. Bit rate : 97 b/s
    / s4 Y4 m+ q7 H  X8 a
  413. Count of elements : 900
    5 Q* q0 a7 Q3 i$ V$ g) u9 }  |
  414. Stream size : 34.9 KiB (0%)# q# z# {: W/ q) z' y# g
  415. Language : Turkish3 M% d4 k+ `' m  y5 J) T
  416. Default : No7 P. l8 c- e6 e# ]" O! _0 \
  417. Forced : No3 n4 W# p( W1 v2 p+ [  z

  418. ( e) ?  P! s$ S" e# J" L" k
  419. Text #29
    " ?; [3 ^' ^% h" s1 ~
  420. ID : 31
    ( J, b7 w9 z6 g& w* G2 u
  421. Format : UTF-8- G& J) W: F, h* h9 c- i5 D+ ^% V
  422. Codec ID : S_TEXT/UTF89 p6 ?, g& }0 Q7 d8 J
  423. Codec ID/Info : UTF-8 Plain Text
    ! n1 K' u# b% c* l+ ^% C2 q# b
  424. Duration : 48 min 54 s
    % ?0 m* R  B. _$ q1 \( ^
  425. Bit rate : 138 b/s( q: m2 h* K* |- G
  426. Count of elements : 898& B2 f$ R. U. k+ h  y6 H9 P
  427. Stream size : 49.6 KiB (0%)
    : F7 @( s' s, \( {3 U
  428. Language : Vietnamese
    " J3 ?3 W$ p4 l" p
  429. Default : No8 i+ U7 i& u6 `
  430. Forced : No8 d, p1 l7 n& t1 V: G1 I

  431. 8 \, N, b4 ?( Y1 i0 z
  432. Text #30; p: {2 H' _& Z1 k, m
  433. ID : 32
    $ P! K( r" S' M2 d, \# \
  434. Format : UTF-83 x  x4 t% ~# \
  435. Codec ID : S_TEXT/UTF8- W, T/ O+ i" @! ?/ h* U  n
  436. Codec ID/Info : UTF-8 Plain Text% }0 J. c! R1 j" k5 b2 o
  437. Duration : 48 min 54 s
    : b. j, @! C$ h( v8 ^) F$ L
  438. Bit rate : 105 b/s
    0 |; @  M/ P4 T
  439. Count of elements : 916
    * v# d7 i/ P3 S/ s4 Y" X; ?
  440. Stream size : 37.9 KiB (0%)
    " W" J/ W- b7 i# j% {5 |, E
  441. Title : Simplified  D" E: J3 \( Z
  442. Language : Chinese3 w2 G- _+ s' e1 T- t
  443. Default : No
    8 B5 b  L5 S  w& e5 X1 C" E
  444. Forced : No0 d; u% D% X  r
  445.   B4 a7 n- G- i( _' m  p7 N
  446. Text #31
    - M6 ^1 l- I. r5 d+ L
  447. ID : 33  _% N2 S2 S+ ]" \0 {* P2 K; {; [
  448. Format : UTF-8
    & N& T9 y0 Q* L  E; S
  449. Codec ID : S_TEXT/UTF8
    & \# |4 h" k. c) M# E/ B/ W  L
  450. Codec ID/Info : UTF-8 Plain Text5 p( ?- i$ o/ n8 s1 r1 d+ Q
  451. Duration : 48 min 54 s9 h+ X- U" R! E. d5 @) @
  452. Bit rate : 95 b/s
    6 c  K" Y( j8 m) q; j+ B- T! k# \
  453. Count of elements : 921# e. K5 W7 U4 V# \
  454. Stream size : 34.2 KiB (0%)
    3 Y) `. o5 Q7 L) W0 [) d4 I2 v
  455. Title : Traditional
    # m! |1 n# f5 l4 [# q6 n6 @5 l9 j
  456. Language : Chinese& \4 a7 x& |- M3 H' m! t$ J
  457. Default : No4 R# N. n0 u6 i2 ^: s& z
  458. Forced : No
复制代码
: x  b5 ?8 L) i9 U. |0 r) ~

7 J  I# I2 t: E6 Q! Z
- x) w8 t2 f! \3 j# R
* Y* G$ n- m' d6 N( a: @2 |4 j- q" Q
4 R5 X# s! ~  J$ J" S. v; H, h
$ s* D  h+ x) z: q  i! \$ x
游客,如果您要查看本帖隐藏内容请回复  VIP可免回复查看隐藏内容 详情请点击
发表于 2020-1-31 21:07:43 | 显示全部楼层
游客无权限浏览该内容
发表于 2020-2-1 13:02:05 | 显示全部楼层
游客无权限浏览该内容
发表于 2020-2-4 00:12:51 | 显示全部楼层
游客无权限浏览该内容
发表于 2020-2-7 12:23:45 | 显示全部楼层
游客无权限浏览该内容
发表于 2020-7-6 00:21:41 | 显示全部楼层
游客无权限浏览该内容
lynx 该用户已被删除
发表于 2020-7-19 09:57:50 | 显示全部楼层
提示: 作者被禁止或删除 内容自动屏蔽
您需要登录后才可以回帖 登录 | 立即注册

本版积分规则

封号公示|电子邮件联系本站hd1tj.net#[换成@]outlook.com|免责申明|HD一条街

GMT+8, 2021-12-6 22:37

Powered by Discuz! X3.4

Copyright © 2001-2021, Tencent Cloud.

快速回复 返回顶部 返回列表