HD一条街

 找回密码
 立即注册
搜索
查看: 375|回复: 9

[港台] 真人秀:圆环 第一季[自带中文字幕]The.Circle.US.S01.1080p.NF.WEBRip.DDP5.1.x264-NTb 31.6G

[复制链接]
发表于 2020-1-23 18:22:41 | 显示全部楼层 |阅读模式

马上注册,结交更多好友,享用更多功能,让你轻松玩转社区。

您需要 登录 才可以下载或查看,没有帐号?立即注册

x

8 w8 `, h' A$ o                               
登录/注册后可看大图
$ N/ Z3 n6 B4 ~1 U9 ~1 a

9 }0 T/ S$ F/ ~( c2 n. B. j7 X7 L◎译  名 圆环0 N$ V, W, ~; q. L# t3 r
◎片  名 The Circle
. p- |4 ~9 M9 ?◎年  代 20182 i& d3 Q4 A% ]! z2 c6 V4 S
◎产  地 英国7 O; Y* h9 {0 e
◎类  别 真人秀
" [" {$ k4 @$ B5 p. _5 s, U◎语  言 英语
$ ?2 H! W8 e( x◎上映日期 2018-09-18(英国)6 G3 F5 F* h& r
◎IMDb评分  6.9/10 from 438 users7 j% g+ u" j* v5 M, C6 Z4 E# r4 U1 a
◎IMDb链接  https://www.imdb.com/title/tt8430234) p, O6 }1 S+ M6 H
◎豆瓣评分 0/10 from 0 users' j3 q( n! W; g. P* h, g0 _
◎豆瓣链接 https://movie.douban.com/subject/30336554/; B! r/ _6 V/ D( q8 K
◎集  数 7
) R  R& Y* S6 I) l9 p◎片  长 60分钟1 H+ J8 }7 |+ r+ q. R8 R
◎主  演 Sophie Willan
6 y4 y' K; |" ?7 S# b       Freddie Bentley# i( Q7 b/ F" `' Y' t$ ]# W4 R
       Alex Hobern" \6 X3 y% N& T; Y, o1 ]
       Daniel Mosaku; r9 ~1 o2 g! e
       Sian Owen  Q/ f4 {% A+ h8 L; ]% V
8 K6 I) k4 U$ d# n4 O. k

0 J4 ^, m0 V: c◎标  签 反乌托邦 | 英国综艺 | 真人秀 | 实验 | channel4 | 综艺
4 t& d7 D3 w( q. G* t$ _
' P5 Z4 W0 z" C◎简  介  5 ?+ C$ j. W( M# T/ u
8 j9 V% ~: Q8 s3 g& G* V5 C
  People from all walks of life compete in a popularity contest to win a cash prize.
  1. Video. d3 ~- v6 |! h( m) Q
  2. ID : 13 q( m& _- r( c4 R
  3. Format : AVC
    - m" a. N; n* f+ I& V! \; I' a. u- B
  4. Format/Info : Advanced Video Codec9 _4 u3 c6 U" ^" m! r7 o( Z
  5. Format profile : High@L44 x7 @) j% @6 B4 o
  6. Format settings : CABAC / 4 Ref Frames
    * o" i, X; I, z6 p4 ^0 m
  7. Format settings, CABAC : Yes
    5 H. p7 |" V6 q3 A# F( L7 ]
  8. Format settings, Reference frames : 4 frames9 U% f. E2 f6 X* X
  9. Codec ID : V_MPEG4/ISO/AVC
    ! V& L0 n8 k/ z+ A! O- p) e$ c
  10. Duration : 1 h 3 min' S. [# y* h. H* u* N) X( b
  11. Bit rate mode : Variable
    4 H0 t( I2 `2 ~
  12. Bit rate : 6 953 kb/s
    + |/ W7 D; K6 x" r5 ~
  13. Maximum bit rate : 20.0 Mb/s
      g) [5 U+ l3 n1 u3 {6 d
  14. Width : 1 920 pixels  P! f# \/ B3 \; M
  15. Height : 1 080 pixels
    5 m* h6 D6 S/ k1 f9 l! `' Z
  16. Display aspect ratio : 16:9
    / _! w$ r& J3 W4 Z6 `3 z% p+ I! r
  17. Frame rate mode : Constant
    ' K) @/ G; Y) a4 {, `" @, @( J
  18. Frame rate : 25.000 FPS1 }0 q) N' w; \0 i. }
  19. Color space : YUV
    7 |/ L! r. P8 t- L# s: B
  20. Chroma subsampling : 4:2:0
    + \( y( U1 z. F) K* {% L( x
  21. Bit depth : 8 bits, V. U, L& a/ W3 {- [
  22. Scan type : Progressive1 m1 N, l5 x3 E7 ?3 g
  23. Bits/(Pixel*Frame) : 0.134
    4 y$ e: C, R( s' Y, L8 [: V
  24. Stream size : 3.10 GiB (91%)
    / L# n( T' o7 u0 c
  25. Writing library : x264 core 148 r2715 7e75228
      ]6 ?, Z& l( {7 u# `
  26. Encoding settings : cabac=1 / ref=4 / deblock=1:0:0 / analyse=0x3:0x111 / me=umh / subme=10 / psy=1 / psy_rd=1.00:0.00 / mixed_ref=1 / me_range=120 / chroma_me=1 / trellis=2 / 8x8dct=1 / cqm=0 / deadzone=21,11 / fast_pskip=1 / chroma_qp_offset=-2 / threads=6 / lookahead_threads=1 / sliced_threads=0 / nr=0 / decimate=1 / interlaced=0 / bluray_compat=0 / stitchable=1 / constrained_intra=0 / bframes=16 / b_pyramid=2 / b_adapt=2 / b_bias=0 / direct=3 / weightb=1 / open_gop=0 / weightp=2 / keyint=250 / keyint_min=126 / scenecut=0 / intra_refresh=0 / rc_lookahead=250 / rc=crf / mbtree=1 / crf=24.0 / qcomp=0.50 / qpmin=6 / qpmax=51 / qpstep=4 / vbv_maxrate=20000 / vbv_bufsize=25000 / crf_max=0.0 / nal_hrd=vbr / filler=0 / ip_ratio=1.40 / aq=1:0.80
    4 A* o$ M. [6 W2 [: J9 Y" I' U( Z: {
  27. Default : Yes$ o& A) H  x& \. k# `) @0 _
  28. Forced : No
    ; p- {, y" I2 T9 ^1 E4 j
  29. 5 b/ Y) f0 Y9 N! O$ K& m; X
  30. Audio
    ( X% F6 t% w& O& T2 ?/ q6 R( o
  31. ID : 2
    0 P8 T8 j9 l* d4 @: K, Q, }
  32. Format : E-AC-3
    - R  J: m; c. d5 S6 B
  33. Format/Info : Enhanced AC-3
    6 y1 P/ F1 Q6 h. U" ~: K
  34. Commercial name : Dolby Digital Plus  V" L. B% i7 z/ K7 G1 C4 v
  35. Codec ID : A_EAC3% c: D- `* x# G: T" S) |
  36. Duration : 1 h 3 min1 u0 z' a9 s% O% w1 R# n+ g4 d
  37. Bit rate mode : Constant& k& A: V& q$ Q$ G5 P" C
  38. Bit rate : 640 kb/s. j3 H6 q3 k2 f# k( A
  39. Channel(s) : 6 channels+ W9 x3 ^7 B- u3 j3 e; @+ c
  40. Channel layout : L R C LFE Ls Rs
    2 ]6 K1 t6 r- o3 M
  41. Sampling rate : 48.0 kHz" `. h* d$ w3 m5 M, S- I/ s: Q" L
  42. Frame rate : 31.250 FPS (1536 SPF)0 e# W! Z" F# I  v$ h
  43. Compression mode : Lossy
    + k3 a* x. a4 z
  44. Stream size : 292 MiB (8%)
    9 F, P) B# @5 m3 k4 u% Q4 l
  45. Title : English; O6 {9 I, }% \6 j' l" k* k
  46. Language : English
    9 O. S8 ^# V* X6 W: O9 d
  47. Service kind : Complete Main) L* p* c/ s% \
  48. Default : Yes6 x4 y' B- E/ ?. d
  49. Forced : No
    + W" t& @7 c8 c: i+ L" C/ J4 k
  50. / W- Q& j$ M) N$ k
  51. Text #1
    ' L4 J/ P$ ^' Q( H) o1 c+ H$ I7 X
  52. ID : 3' F4 M8 x$ C$ f, {4 x5 K: x! v" a
  53. Format : UTF-8! F5 y2 v& c0 Z6 u8 O
  54. Codec ID : S_TEXT/UTF8
    ) X- x; ^! f1 R; t3 R! f
  55. Codec ID/Info : UTF-8 Plain Text$ t, D& }& w0 U7 d
  56. Duration : 1 h 2 min1 O& Z: Q, r$ e3 O2 [
  57. Bit rate : 106 b/s5 v- C1 P' o/ u. f
  58. Count of elements : 1299
    ; p1 \% x4 X% w8 q, `- o5 Z- M# |. R
  59. Stream size : 49.0 KiB (0%)( C7 {. P5 F( \5 p; u9 r, \  ]
  60. Title : SDH
    # G7 {% @4 ~# y% @  Z6 K( Q
  61. Language : English
    5 c# v  V  e% z* ^1 W& N& i1 i
  62. Default : No+ A" ~1 z& y: V  J7 J% s
  63. Forced : No
    , t; K4 Y1 r5 r: V8 m/ r% T5 s

  64. # t  `% L: m5 h$ ^+ X
  65. Text #2
    4 \0 O0 F" k2 \' c: W
  66. ID : 4- ~! i9 \2 \, b5 ^: U0 N: N, Z
  67. Format : UTF-88 Q; T5 a* w1 e, M7 a
  68. Codec ID : S_TEXT/UTF8
    8 l; T' R9 }( ~5 e
  69. Codec ID/Info : UTF-8 Plain Text% g" M6 y5 @' k0 W
  70. Duration : 1 h 3 min$ c  ^, E+ K6 C8 v5 j# C8 M
  71. Bit rate : 153 b/s
    3 E) L0 P5 d4 T# K
  72. Count of elements : 12290 K! e" `0 i+ e' {
  73. Stream size : 71.1 KiB (0%)
    $ Q* J! ^- ^; @2 `1 A7 h4 v0 Z  `
  74. Language : Arabic9 z0 t) j( F4 I: |- j# [
  75. Default : No; s# F9 e( Q1 p, K
  76. Forced : No" D, {! V7 z# j% R  m7 z+ w

  77. & T" i6 X) f. G7 y* K8 M4 o
  78. Text #3. l2 Q4 z% ~5 A5 ?4 r( ^; v
  79. ID : 53 ^! f% z  L/ M8 n7 H8 L
  80. Format : UTF-8
    8 Q3 V5 G7 C% O4 ^
  81. Codec ID : S_TEXT/UTF8
    9 G! ^: l$ y  i, F5 F5 N$ k$ j/ }
  82. Codec ID/Info : UTF-8 Plain Text% w( O& E, _4 B2 E* \
  83. Duration : 1 h 3 min
    8 B- |0 ~) c- E. w+ N
  84. Bit rate : 87 b/s7 l1 w2 Z6 h+ D
  85. Count of elements : 1215% T2 R0 Q* H/ Y8 i: W
  86. Stream size : 40.6 KiB (0%)
    + u4 p! S  s% @: F# Y+ Z2 H  B( Y
  87. Language : Czech2 }  ^4 k+ p% l4 y! b! n  @
  88. Default : No( P. ^4 o3 T/ {% j1 n2 b
  89. Forced : No
    : q7 J6 ^3 U5 L
  90. ( t) ^3 W9 `1 @6 c' U, f
  91. Text #46 j! h3 x: f# [8 j( }2 g, J) l
  92. ID : 6# y7 q0 `- ?' X, s3 k! p/ _
  93. Format : UTF-8
    & E5 ^. W; y7 Z/ D0 y  u
  94. Codec ID : S_TEXT/UTF8
    ) H% D" s, `8 G* V
  95. Codec ID/Info : UTF-8 Plain Text
    - `* c' g7 d6 u6 \9 d& W
  96. Duration : 1 h 3 min
    : x/ S% S. H1 A
  97. Bit rate : 87 b/s
    6 b1 w: s9 H; N+ T) K0 H0 w
  98. Count of elements : 1162
    + g9 S0 d( p: i4 k
  99. Stream size : 40.3 KiB (0%)
    4 z7 g2 j1 L4 }7 j, T2 b
  100. Language : Danish( n  O( m9 L7 ]' K% W- p
  101. Default : No
    1 Y* |! Q# G7 }% s4 O) I# b) ^
  102. Forced : No
    0 g: ~0 T5 D9 C0 l

  103. . i  y# z4 J1 {7 ^
  104. Text #5/ P2 x6 z% ^2 }; T4 o8 f
  105. ID : 79 d/ V4 B- Q2 K1 W. v
  106. Format : UTF-8
    ) `( d7 Z+ F6 c. O4 O
  107. Codec ID : S_TEXT/UTF8
    : p! O+ a# R: [% r1 S1 n# i
  108. Codec ID/Info : UTF-8 Plain Text3 n( M7 `# i& a/ s4 [- |. o, ^
  109. Duration : 1 h 3 min
    * j" _4 S' }* E. z7 O
  110. Bit rate : 87 b/s0 X: s- ?/ O* O5 A3 X2 L( e3 H5 T
  111. Count of elements : 1194
    : e4 Q! m3 F4 C  ~; L3 C
  112. Stream size : 40.5 KiB (0%)
    * \1 X& Y3 k* @4 c
  113. Language : German( v$ F, ~/ u' ~' Y& `0 D
  114. Default : No5 m' p  Y, P1 T$ W5 ^' a
  115. Forced : No% m6 C6 i  n2 k. [
  116. 3 ]% t( r1 }% Y+ C
  117. Text #6: i7 Z/ i5 R% [6 [* D  z: M
  118. ID : 87 z* l0 w$ [" u  u; }4 W
  119. Format : UTF-8
    " L, s& N, p! Z: L
  120. Codec ID : S_TEXT/UTF8+ f* Y3 J' G! [8 u4 o* M
  121. Codec ID/Info : UTF-8 Plain Text6 U- p% L  X; n) Y' u
  122. Duration : 1 h 3 min
    ; k; a2 }/ e$ w- Q
  123. Bit rate : 153 b/s
    7 u5 G3 V7 x5 v" b' @
  124. Count of elements : 1226
    . C( j% A4 Z. P8 M; f) {
  125. Stream size : 70.9 KiB (0%)
    & H( k: l; h, z+ d( p" j7 @
  126. Language : Greek
    ( A0 U8 J; p: _2 g: `
  127. Default : No, U& b+ |5 R. G# C; _* z0 G
  128. Forced : No
    ' C8 _4 t# k: y' W  ~, i8 u

  129. - b7 \/ @6 s' O. S, y0 ]
  130. Text #77 [; [. c+ g* g1 i  {  L2 P
  131. ID : 9
    # S$ q, N  [) r& o. m# C  [+ f' D3 r
  132. Format : UTF-8
    1 O) [) U% r$ f
  133. Codec ID : S_TEXT/UTF8
    ; ~3 l6 d- ?2 g* g1 m9 p" V- r) q! t
  134. Codec ID/Info : UTF-8 Plain Text7 _  g3 a; n' q7 q+ A5 B9 |4 o3 e5 Y
  135. Duration : 1 h 3 min4 F' }# q; Y( Y) h1 B0 i% Z# B
  136. Bit rate : 89 b/s
    - g9 D" g2 |: V% m2 P, d
  137. Count of elements : 1191
    ! |/ u0 d* }/ Y2 s
  138. Stream size : 41.3 KiB (0%)
    + V6 _( N5 w! ]1 T( V# B
  139. Language : Spanish
    5 u7 Y& E2 U0 N
  140. Default : No
    3 a; z7 e  r: W
  141. Forced : No1 S9 k. ]. ?" t* N9 ~

  142. * P4 D% D6 E5 w0 M
  143. Text #84 X* c! w' A2 B+ K
  144. ID : 10
    ; x, L5 }4 n8 U# {2 j3 r7 e
  145. Format : UTF-8
    + j% ]  d; C7 b- E- X5 E' Q; G8 V
  146. Codec ID : S_TEXT/UTF8. h" C2 K% k7 Y3 a; @/ z7 Y
  147. Codec ID/Info : UTF-8 Plain Text2 b" e# V* {/ Y4 q3 h: X  ?
  148. Duration : 1 h 3 min3 T# ]( T6 H% M9 h9 g
  149. Bit rate : 83 b/s7 e! {) r! C9 G4 j2 R
  150. Count of elements : 1197
    2 V" c2 R0 G' d6 q/ B
  151. Stream size : 38.7 KiB (0%)
    7 i, {% ~1 n5 E
  152. Title : European! m$ d1 |; a5 l
  153. Language : Spanish
    + \+ H% s' Z9 `9 x. y
  154. Default : No
    ! f; o! ^$ {/ L  _! B: U  m
  155. Forced : No
    . J: n. }' m' x  j6 ?

  156. 1 j9 r2 [# F7 @2 h
  157. Text #9$ w/ r2 H1 I( C6 _3 X! S; O
  158. ID : 11
    / b3 V2 ~- ]0 S/ ?
  159. Format : UTF-8: w5 ?. R2 l' V
  160. Codec ID : S_TEXT/UTF8
    * Q/ a5 y  m# h% e; L
  161. Codec ID/Info : UTF-8 Plain Text
    7 E+ }) o. m. f7 L5 D) E) h
  162. Duration : 1 h 3 min' Y5 U, v+ v* \# m# f/ p' S; g
  163. Bit rate : 82 b/s
    5 {; G0 p# _  p' k
  164. Count of elements : 1073- U% t3 T8 r' X7 o2 m' M  ^
  165. Stream size : 38.3 KiB (0%)
    # D1 ^+ A6 ~' H; U' V% \7 T: M: b
  166. Language : Finnish
    ; S- Y( G( Y3 `2 ]9 m
  167. Default : No
    9 c/ [& P. P' r5 h8 q" Q: I
  168. Forced : No9 _1 W4 x- j, z
  169. - `2 o9 v# I" g7 O9 G
  170. Text #10
    ) I! u' }6 S- V. _4 \7 ~) G
  171. ID : 12/ S) C' q, b- J5 B
  172. Format : UTF-8
    * w# ]' ^7 M* T/ Z+ L. q7 i
  173. Codec ID : S_TEXT/UTF8' Y5 [- |; p  v! \: o  ~
  174. Codec ID/Info : UTF-8 Plain Text3 @$ B0 m. L: J$ T7 O; N
  175. Duration : 1 h 3 min9 ~4 |7 l4 W' B  N. a  V
  176. Bit rate : 85 b/s! q5 M% f  \+ t/ i1 ?/ B& g8 e4 K
  177. Count of elements : 1210  M% }- Y: c5 M. e+ Y: v8 |; }# G/ n
  178. Stream size : 39.7 KiB (0%)
    . F. z2 h% K6 m, ?
  179. Language : French
    ( }; a' G9 T# {0 F& ^
  180. Default : No0 _; `6 m' n# o5 i
  181. Forced : No
    4 _  W9 ^4 b# @" B( y
  182. / R$ X# C% o  ]- j' A- M) ~' `
  183. Text #111 f" R. f0 D$ N$ G6 {0 T8 |6 s' W1 g
  184. ID : 136 K4 ?! ?7 `/ B. q# A9 Y% ^/ s' l
  185. Format : UTF-8
    6 Z& f# B: N4 W8 x) ~' g
  186. Codec ID : S_TEXT/UTF8
    0 q# v! Q: C& s
  187. Codec ID/Info : UTF-8 Plain Text" A1 l, J/ @1 ?8 [2 [# O8 o* o3 H& P
  188. Duration : 1 h 3 min
    & I& ^' ]3 o6 B. z9 d+ M  ^
  189. Bit rate : 154 b/s+ ^" l# L8 w+ n
  190. Count of elements : 1211
    & e( r% e3 N0 O6 q
  191. Stream size : 71.7 KiB (0%)
    8 s% P# i- P: O" S
  192. Language : Hebrew
    6 e3 x2 [6 ~+ i5 d4 w! D. Q
  193. Default : No2 }$ H7 z$ w8 ~2 i. _/ e- i
  194. Forced : No) H6 B& f0 _, ~8 b. }$ j

  195. & i4 |) Z* g; `9 Q( \
  196. Text #12
    / k+ u) d/ K6 |* v" z
  197. ID : 14
    4 A3 O; T1 ^! n# h7 d
  198. Format : UTF-8) _3 K3 P: B4 w7 V0 X
  199. Codec ID : S_TEXT/UTF8
    6 V9 z& w0 ~4 o  M/ n4 Q
  200. Codec ID/Info : UTF-8 Plain Text
    6 @7 r1 ]! k& }% r* U
  201. Duration : 1 h 3 min: j* P: f# U; A5 y) Z$ u$ |
  202. Bit rate : 95 b/s
    9 z- D0 J6 Y$ _: f
  203. Count of elements : 1204
      d% N0 E0 J4 K) E9 K5 j3 X7 z
  204. Stream size : 44.1 KiB (0%)5 R, ?$ ]5 ^' O# A+ Z8 r! h. ]
  205. Language : Hungarian; W- d! G- \, ?2 B/ m
  206. Default : No
    - J* _* R' u2 w# O" d
  207. Forced : No/ r$ i3 f( t1 T- u, D( \! x
  208. 5 B7 C- y5 x- R! @7 ]! x
  209. Text #13; l$ z- N2 D  \- _; r1 E0 G+ B, V2 P  H
  210. ID : 152 a5 |8 m: N5 a( W* \* |7 e
  211. Format : UTF-85 d; A0 s" o* p! T& v4 x* F
  212. Codec ID : S_TEXT/UTF82 y+ r; D! F+ ~' J9 d7 k
  213. Codec ID/Info : UTF-8 Plain Text
    $ L. O$ E1 ^2 m! [6 ?8 K
  214. Duration : 1 h 3 min% V3 i" F8 G, ]3 j1 k& |
  215. Bit rate : 92 b/s
    6 B9 Q$ d$ p  h( I" G; S4 {% D; b1 {
  216. Count of elements : 1216& X- Q8 M0 h7 b9 W. t* a' i- p
  217. Stream size : 42.8 KiB (0%)
    7 _5 D0 Y# J' o" L  F
  218. Language : Indonesian! c0 B5 o2 U: h6 J% k+ {& J# _
  219. Default : No& }0 R6 j# L  ^' F% Q/ c
  220. Forced : No
    9 x* M2 d/ P% b

  221.   H7 e( i" {6 u) _2 k2 J4 F8 B
  222. Text #143 H8 D% l) b3 p  }; x4 n
  223. ID : 16) r5 c  I  O6 }( [" y/ A) X
  224. Format : UTF-8
    . K. R/ X8 b, Q9 X
  225. Codec ID : S_TEXT/UTF8
    % A, a4 {8 b( H/ \7 c3 }7 s* p( k
  226. Codec ID/Info : UTF-8 Plain Text
    " L  }( r) S8 V
  227. Duration : 1 h 3 min
    $ L3 J$ h7 Z1 K4 J/ h- K
  228. Bit rate : 82 b/s
    ( }* l' |- o) a3 E' ~
  229. Count of elements : 1151
    / Z7 B7 p6 z, S6 W; W
  230. Stream size : 38.1 KiB (0%)' J$ p* r! D0 P, L% X3 u! v
  231. Language : Italian1 |9 C2 F" H- O! F
  232. Default : No
    & t5 }; m; m, [3 @
  233. Forced : No' w7 ]7 t$ H& K2 Z5 p' w* ]) c& P

  234. ) B2 R; [4 ]1 Z+ }) {. ]$ c, f* n/ \
  235. Text #15
    ) y0 G% v5 I; x6 C9 T
  236. ID : 17
    + O6 B2 {2 r2 o5 R
  237. Format : UTF-8, [1 P7 B" j9 W& y
  238. Codec ID : S_TEXT/UTF84 x/ W4 R+ w' v! F: \
  239. Codec ID/Info : UTF-8 Plain Text
    5 w& B/ ~5 A+ n7 j! G! z0 j
  240. Duration : 1 h 3 min1 _) ~, I0 C/ T. u& l: V& |7 z$ r+ j
  241. Bit rate : 86 b/s
    ( A7 `% E; I7 y7 H+ R
  242. Count of elements : 1113
    ; B' F- v( ^* ~6 V7 R+ H2 u. T
  243. Stream size : 39.9 KiB (0%), G" L) X4 q8 a* v* h% A) _
  244. Language : Japanese
    0 _# r# }- J3 h
  245. Default : No
    1 k9 f0 x' f! @4 f
  246. Forced : No4 y4 F4 L1 R9 ]8 H1 B

  247. * C- {4 f$ m; o& d( e* A( {1 |
  248. Text #16
    1 P- l. G( i% t* N8 x1 a  x+ c
  249. ID : 18) \5 C9 _: Y3 x. q# I) M
  250. Format : UTF-8
    2 U8 D) b4 W$ W
  251. Codec ID : S_TEXT/UTF8
    , K. C! a, S& Z+ b
  252. Codec ID/Info : UTF-8 Plain Text( D# m7 X/ e- o
  253. Duration : 1 h 3 min
    ) i6 L3 F: N" }& j- g: l  k
  254. Bit rate : 106 b/s- S, w- w5 W8 k! d; t+ ]# W
  255. Count of elements : 1224
    8 Z8 i6 w9 {, E4 u6 d# v% e
  256. Stream size : 49.1 KiB (0%)
    4 d* K6 s# K; J) s  ]
  257. Language : Korean0 L! D- J7 V* l, A+ G4 z- K3 ^/ V
  258. Default : No8 D: s& K; B( B
  259. Forced : No
    % X: T# x* _7 [. J0 S
  260. # Z0 C4 g, Q2 z
  261. Text #17
    ) k. q0 b$ \& }$ {: e# E/ Y
  262. ID : 19( [. r9 `3 m3 V5 y
  263. Format : UTF-8* O5 M5 C- P" X8 q8 h: f- y
  264. Codec ID : S_TEXT/UTF8( q; c" x, j+ }2 @. {
  265. Codec ID/Info : UTF-8 Plain Text2 ^0 x! ^! N: X; d# ^# b6 y4 V: {
  266. Duration : 1 h 3 min9 z$ m: `# ^2 D6 w4 X$ V. Z
  267. Bit rate : 81 b/s/ I3 F2 d; z0 D& v! E, w* g. R: |
  268. Count of elements : 1133
    : Q9 v: H9 Z; P
  269. Stream size : 37.9 KiB (0%)
    , J) V; G& X$ q" X5 T/ K* ]
  270. Language : Norwegian Bokmal7 J# H. r9 s: X6 ?8 ?% Y' V1 m+ X
  271. Default : No
    5 P3 R  P9 A# r, s+ c% a
  272. Forced : No: P- m+ d$ \, a$ R2 _

  273. - R% X7 g8 o6 a) q
  274. Text #184 q! V9 g/ O# M* g% J* J6 v
  275. ID : 20; T1 i7 U/ P5 O3 a# }) n- ~
  276. Format : UTF-8
    ' k5 X0 A$ l' Y$ H. T. d: _* R
  277. Codec ID : S_TEXT/UTF8
    9 k: w3 D3 V$ O' n1 G% r7 c( @: T8 G
  278. Codec ID/Info : UTF-8 Plain Text- C- q3 ?$ F% ?' G; B
  279. Duration : 1 h 3 min0 j, ]& y5 x3 L
  280. Bit rate : 76 b/s
    , d4 b" T# I8 ?6 v' M6 C. D
  281. Count of elements : 1100
    1 h# u7 W8 s' U/ T0 |) w
  282. Stream size : 35.4 KiB (0%)1 H7 Z9 V8 r: e4 s  q) F
  283. Language : Dutch
    3 n+ D5 y) r& S4 v
  284. Default : No  a+ t$ Q6 A' v
  285. Forced : No/ _& {  h8 E: r0 _0 S/ d8 |

  286.   h1 e. s9 m. z: M$ d. K8 w. S* e* ^: N
  287. Text #19
      \% X6 t/ s7 _
  288. ID : 21
    7 k3 S& q7 G1 _2 K
  289. Format : UTF-8
    ; \( m9 p+ S  k5 F) q8 d
  290. Codec ID : S_TEXT/UTF8
    . }% F% l5 Z" `2 ]: L+ ?
  291. Codec ID/Info : UTF-8 Plain Text+ q+ u; Z. X" I  @1 Y; ?4 e
  292. Duration : 1 h 3 min
    8 b* n% k. N' {
  293. Bit rate : 80 b/s
    3 [& G3 a. d/ Z
  294. Count of elements : 12017 c2 u+ v/ ~' K1 t% \4 I- f* V! e
  295. Stream size : 37.2 KiB (0%)
    2 _" t- G6 t" \5 P& \/ U# z3 u( `
  296. Language : Polish
    ) {/ |/ ~& g3 p7 y
  297. Default : No# X" G7 O0 T# D9 X5 d
  298. Forced : No% H" s& M; V' u) G, V
  299. / M" U1 N# `" @1 a
  300. Text #20+ f- ^0 W6 v5 ?7 h/ _' T
  301. ID : 22
    ) j* Y/ V. M2 \8 C' G$ `# Y, a
  302. Format : UTF-8# T9 _9 e" S& r  d' m" K9 f* [
  303. Codec ID : S_TEXT/UTF8
    ! f  t& M6 }1 J0 I
  304. Codec ID/Info : UTF-8 Plain Text
    ' B* g0 b* i0 M' J" F8 p
  305. Duration : 1 h 3 min/ j1 p5 D& ]+ W; s7 y+ c
  306. Bit rate : 94 b/s( k. \  D0 X0 T6 E
  307. Count of elements : 12195 S" _& P3 S) ?/ {5 ?+ E5 N, ~) v% D
  308. Stream size : 43.7 KiB (0%)
    1 V* z  w7 a# \( a
  309. Language : Portuguese) _2 z8 r3 |. ?- [- p( m
  310. Default : No% I. H# U9 ]' X1 Z9 H
  311. Forced : No
    3 D4 j: `% a% T/ {, i$ x

  312. # N$ \( J+ f3 S9 s% L
  313. Text #21
    . j! I0 u) H5 e2 B' f
  314. ID : 23
    ' _, H4 k5 w. h2 l, r5 ?: V
  315. Format : UTF-8% ]5 ?- l% ]5 T
  316. Codec ID : S_TEXT/UTF89 k' M/ I3 b$ J; H, g, Y
  317. Codec ID/Info : UTF-8 Plain Text
    0 k! k9 z8 t) q( ~$ f7 D  w8 V
  318. Duration : 1 h 3 min6 P6 X1 ?% x: _1 B$ q* x% r
  319. Bit rate : 93 b/s
    # D3 l9 i, g- K1 |& x
  320. Count of elements : 1150/ R. f# l& B. G7 v3 ~
  321. Stream size : 43.4 KiB (0%)
    1 a# A- x$ V9 w
  322. Title : Brazilian
    # D3 ^& ^" _# T
  323. Language : Portuguese3 J/ P! s7 t: N: R5 L
  324. Default : No# @6 p5 U4 g% q# W" O8 n- I
  325. Forced : No
    6 O4 O$ ?+ ?4 b
  326.   o2 Z* _$ \4 M8 x: ^8 S2 i8 p9 z  f
  327. Text #22& u6 J. G/ G1 V7 K; d
  328. ID : 24  w+ r0 c0 P( w1 a
  329. Format : UTF-8. d6 X' g$ c+ x( Q2 U+ L
  330. Codec ID : S_TEXT/UTF80 N. q/ V  t- p! O" X& L
  331. Codec ID/Info : UTF-8 Plain Text
    / ?! b+ L7 C3 R& G( ^2 i
  332. Duration : 1 h 3 min
    . k* z: n3 y3 i! ~
  333. Bit rate : 100 b/s
    - h$ p# Z+ v/ \9 j# ]+ y+ ~" X3 U
  334. Count of elements : 1210& H7 ]4 b* S9 Y* N* }/ S" h
  335. Stream size : 46.5 KiB (0%)
    & ^; z+ q% y3 {
  336. Language : Romanian
    " E) o/ ?+ J, L( X: v
  337. Default : No
    2 {6 F  f! o4 ~: P, t$ D3 c
  338. Forced : No
    2 Y6 O4 j) S# [# |" o

  339. 9 k! X0 C3 J( ^4 K0 S( ]. ^. v8 c
  340. Text #23* w7 I# g+ c. T: f4 L
  341. ID : 25
    5 i- E. j% N/ R' |, G, A/ K( N1 Y6 Z5 W
  342. Format : UTF-8
    & E; a; J! Y- v2 W9 s* x) R
  343. Codec ID : S_TEXT/UTF8
    # k4 a- t7 M2 r5 n" W7 B4 X! ?, Q/ m6 e
  344. Codec ID/Info : UTF-8 Plain Text
    2 l. B8 ]9 Y3 ]; \) Z7 y8 P+ @
  345. Duration : 1 h 3 min
    # \* H, [: O; c  z
  346. Bit rate : 144 b/s' J% m" |! i' n! e- L7 w( u9 A
  347. Count of elements : 1205/ b; r1 n8 w( O
  348. Stream size : 67.0 KiB (0%)
    $ i  j$ f3 ^3 K, ~
  349. Language : Russian3 r! u* E9 b, h+ B
  350. Default : No
    - ?9 u' ~- P/ F2 o; j4 h7 V
  351. Forced : No
    * D' d( |* V% `; w
  352. 7 V. P3 x$ d6 j% T1 m9 {3 Y& ~
  353. Text #247 p% G7 q. m4 C6 I, u. V5 }
  354. ID : 269 g4 m# G. u6 j: L1 |3 }6 x( ?
  355. Format : UTF-8
      [& C( {  J: u% ]: K" x
  356. Codec ID : S_TEXT/UTF8
    : v) A$ Q0 d" z. a( J* t& n
  357. Codec ID/Info : UTF-8 Plain Text
    ; r% j  D0 p7 m" E$ U
  358. Duration : 1 h 3 min
    " z; E+ ~" [. X* A9 x8 ~
  359. Bit rate : 80 b/s1 f* m- J6 x& w8 N4 w: X- O
  360. Count of elements : 1212) o! M8 e) _7 G1 _3 j
  361. Stream size : 37.0 KiB (0%)4 a8 ]9 _! \. I6 v
  362. Language : Swedish& L- T" L' ]# H6 ?
  363. Default : No: Z7 w# h( K) v+ J. S. K: p, t
  364. Forced : No
    * V8 \: C6 a/ Y5 C" o* s3 w# N
  365. ' e- K( j, ]% p5 v! ^
  366. Text #25" v% a( i4 f5 ^8 }* q7 w5 o6 q3 b1 a$ X
  367. ID : 271 n2 L' h( k  B9 G
  368. Format : UTF-8+ U4 D' U( Z( \3 o! G; ?
  369. Codec ID : S_TEXT/UTF8
    & m& w. d# k2 A" Z3 v# w
  370. Codec ID/Info : UTF-8 Plain Text" ]" |9 A, ^% W- W0 r0 e7 P
  371. Duration : 1 h 3 min3 [" k0 M8 i6 r6 @# _
  372. Bit rate : 240 b/s/ A' v0 v1 S# Q7 L9 \
  373. Count of elements : 1238
    , T$ I- u( b! L7 j' B; m
  374. Stream size : 111 KiB (0%)* i; a& u) l+ _& d: _' h# Z7 o. M
  375. Language : Thai
    8 q. x9 q4 P. i/ i, H# v4 y
  376. Default : No; U1 X4 f, a; _1 T
  377. Forced : No
    5 u) H! `9 z3 `- f& l2 n

  378. . w6 T; n, g  T* I" t7 R; N
  379. Text #26  @1 X! T  U, R) p% v& G4 c& \! A. r
  380. ID : 28
    + R% l0 Y" X2 ~
  381. Format : UTF-8; g' }. ?# v1 H# Q) X
  382. Codec ID : S_TEXT/UTF8
    5 ]: ~# S8 O( y: N" q2 w" d) X
  383. Codec ID/Info : UTF-8 Plain Text6 ?/ w* q! ?1 b1 S8 ?  C
  384. Duration : 1 h 3 min. m: X" T4 [8 F3 K  U' c" K
  385. Bit rate : 84 b/s. K. [# V2 `/ x
  386. Count of elements : 1141- j/ [7 x( a) {4 b# t. [
  387. Stream size : 38.8 KiB (0%)9 j) I* ]5 [* q: [4 f
  388. Language : Turkish
    0 h  y! v6 B. G! W$ i/ r0 N, ^
  389. Default : No- }' V. K, Y# r7 Z. n% A2 z
  390. Forced : No
    / \- R* X. g$ }0 p$ P' m

  391. " o+ H+ b# H: A* Q
  392. Text #27
    ; I) ?# o9 S2 v/ B
  393. ID : 29' K* G2 I; f- m( o
  394. Format : UTF-8
    9 y, G( S/ }  c% w* }- p  g( o
  395. Codec ID : S_TEXT/UTF8; r7 b; R  J! e- \  i+ O% K
  396. Codec ID/Info : UTF-8 Plain Text5 V. H  O' a* K( d  C7 v. F# j  Q2 @
  397. Duration : 1 h 3 min+ l' Z; a* a+ L& ~0 P+ w
  398. Bit rate : 125 b/s
    , x7 f  c0 |3 V, v6 o) R2 l% O
  399. Count of elements : 1215( A8 K+ O7 k* Q. R
  400. Stream size : 58.2 KiB (0%)1 Z% N6 l( o# M3 ]
  401. Language : Vietnamese
    7 T  d5 Y* g0 v
  402. Default : No$ ~5 P1 a0 C8 t
  403. Forced : No# }$ ^, ~# \% c% j, t: _
  404. * C! H% Z; \$ R& p# L: |* W
  405. Text #28
    + Z' e/ V  S: M7 L; D
  406. ID : 301 ]7 S2 G( D) [- p  l6 _
  407. Format : UTF-8
    5 p! q" N: s8 ?' p. y4 V7 L! n  t4 e4 `# l
  408. Codec ID : S_TEXT/UTF88 t3 P9 ], _; \2 B
  409. Codec ID/Info : UTF-8 Plain Text
    8 R% W7 q3 _% m/ m
  410. Duration : 1 h 3 min
    7 l! X: G) X+ R+ k: B, W
  411. Bit rate : 98 b/s, G4 a- W* Y. I% H0 h
  412. Count of elements : 1232
    / N& G1 `) r- t$ J: J* ?3 L/ J
  413. Stream size : 45.5 KiB (0%)5 ~  m8 g; g8 F2 {
  414. Title : Simplified: J# B4 m8 {& R' z# H! \( G
  415. Language : Chinese
    0 B. t' d" P) T1 G
  416. Default : No  t- I" a( V% L1 T+ u1 a0 s
  417. Forced : No
    ; s8 G9 S/ ^  n9 @6 O8 \
  418. 3 O. m  V! X7 F3 E, I+ L
  419. Text #290 \9 X' i/ S( s) c" Q3 ?
  420. ID : 31: z9 i5 p- X6 y
  421. Format : UTF-8
    : n/ J9 C0 f0 I5 Z5 k  h0 u' I/ T
  422. Codec ID : S_TEXT/UTF8
    ! P% A5 Y5 |; _# a. X# M8 x7 u
  423. Codec ID/Info : UTF-8 Plain Text
    # b& u, ~; O4 K. B
  424. Duration : 1 h 2 min- m% Z! f7 N1 x) _* ~% H) I
  425. Bit rate : 93 b/s
    & Z- D4 |6 U, q) p  i8 b1 K
  426. Count of elements : 12629 |+ W. j. z9 B% @' l4 z; P
  427. Stream size : 42.8 KiB (0%)# v: d' V# H) }* `
  428. Title : Traditional
    ' P3 P4 y/ d. p9 D$ G
  429. Language : Chinese
    * s+ g! w* G- {* C) M; f
  430. Default : No
    0 N/ S; b- e1 {1 L' @: N7 D
  431. Forced : No
复制代码

6 m8 u5 u7 L% `* d( U- T
: K' A& c% U; S( d# y+ I
' z" M( [/ n! s( x" c: |) Z  K+ V  p. A) w7 I5 G' \5 M
0 |. |# U/ c$ w. h6 N

& f0 b4 \% T( }1 I
游客,如果您要查看本帖隐藏内容请回复  VIP可免回复查看隐藏内容 详情请点击
发表于 2020-1-23 21:32:41 | 显示全部楼层
游客无权限浏览该内容
发表于 2020-1-25 10:33:05 | 显示全部楼层
游客无权限浏览该内容
dragonfiga 该用户已被删除
发表于 2020-2-1 13:01:35 | 显示全部楼层
提示: 作者被禁止或删除 内容自动屏蔽
发表于 2020-2-19 12:41:25 | 显示全部楼层
游客无权限浏览该内容
发表于 2020-4-15 08:52:19 | 显示全部楼层
游客无权限浏览该内容
发表于 2020-5-17 18:47:19 | 显示全部楼层
游客无权限浏览该内容
发表于 2020-8-29 01:19:46 | 显示全部楼层
游客无权限浏览该内容
发表于 2020-8-29 07:15:02 | 显示全部楼层
游客无权限浏览该内容
发表于 2020-11-23 17:36:16 | 显示全部楼层
游客无权限浏览该内容
您需要登录后才可以回帖 登录 | 立即注册

本版积分规则

封号公示|电子邮件联系本站hd1tj.net#[换成@]outlook.com|免责申明|HD一条街

GMT+8, 2021-12-3 21:47

Powered by Discuz! X3.4

Copyright © 2001-2021, Tencent Cloud.

快速回复 返回顶部 返回列表