HD一条街

 找回密码
 立即注册
搜索
查看: 4032|回复: 27

[1080p] 金玉满堂[粤语 英文字幕]The.Chinese.Feast.1995.CHINESE.1080p.BluRay.x264.DTS-CHD 8.6G

[复制链接]
发表于 2019-12-18 16:12:20 | 显示全部楼层 |阅读模式

马上注册,结交更多好友,享用更多功能,让你轻松玩转社区。

您需要 登录 才可以下载或查看,没有帐号?立即注册

x
/ A8 U4 p, G4 B3 s4 q
                               
登录/注册后可看大图

. Z' g0 j8 L- [, v" ]% X& Z
% x' }9 S) l# ]) N0 H◎译  名 金玉满堂/满汉全席/The Chinese Feast
  U+ W# e( q5 ?( e' r  l( L◎片  名 金玉滿堂
: }9 Y! {% _4 c2 S4 U6 N& e◎年  代 19950 m1 \! \4 ~1 u8 p! W! E; @' m6 V
◎产  地 中国香港
4 x# x3 u1 n' N8 l' G◎类  别 喜剧/爱情$ ]. ?  E- V9 p3 s+ A) P
◎语  言 粤语0 O% h" S* }2 m$ x8 ?3 F
◎上映日期 1995-01-28(中国香港)  B& ?. y8 P, o3 y
◎IMDb链接  https://www.imdb.com/title/tt0113475/
; h, ?9 H& S. ]( P* S) W◎豆瓣评分 8.0/10 from 61039 users
8 @3 z+ p1 [, N0 Y/ a3 b◎豆瓣链接 https://douban.com/subject/1295374/) Y9 u8 l4 d+ c9 u# q* S6 Q+ @
◎片  长 106分钟3 o+ Q( H! C7 u' J2 v( E
◎导  演 徐克 Hark Tsui, B  D  g3 ~+ I, L; L' q
◎编  剧 吴文辉 Man Fai Ng / 郑忠泰 Philip Cheng / 徐克 Hark Tsui / 阮继志 Kai-Chi Yun
& c5 D1 Q- U, |. J9 @0 }. e$ @- c◎主  演 张国荣 Leslie Cheung/ f' T( ?% v5 c# S8 y
       袁咏仪 Anita Yuen
6 _( g# o  ^5 l8 m) z  {       钟镇涛 Kenny Bee
8 @9 H6 r- ~( }       赵文卓 Man Cheuk Chiu/ x/ D, x" h$ U/ p, E
       罗家英 Kar-Ying Law
  l5 x( b6 R- X/ W. i6 ^) G       熊欣欣 Xinxin Xiong
: j. B7 b2 a* n, s; {' C       樊亦敏 Yik-Man Fan7 R) _9 H7 u. g9 Q4 D
       倪淑君 Suk Kwan Ni % o1 i: ^* z9 @/ t# S/ r& t# q
       黄百鸣 Raymond Wong
3 U, S3 B4 o" V/ y) Y       谢君豪 Kwan-Ho Tse
" B# `$ f& V9 f; M       卢雄 Paul Lo6 B6 M( E* q8 `
       唐佳 Chia Tang
5 F3 p- i& {3 J7 U       司徒慧焯 Roy Szeto6 k0 c" ~0 |( a  l1 p. n1 Y# L
       李道谕 Do-Yu Lee
7 E( t# n5 G+ ]  p6 M       何家驹 Ka-Kui Ho
, e5 u9 b6 j/ }: `4 ^       鲍德熹 Peter Pau; K! M' \" z6 i' p3 Y  C- o
       黄一飞 Yut Fei Wong6 ~2 d8 V. U. C6 P  q
       黎彼得 Peter Lai: w9 L* n, y6 C: Z
       邵传勇 Timothy Zao
# T8 _+ I( h/ l+ y       刘洵 Shun Lau
; q5 z" c9 ]; @' r/ F& L5 N% B+ t' Y       张同祖 Tung Cho Cheung
9 D! p# J- o9 i$ w: ]4 j, ~       黄金棠 Kam-Tong Wong) f2 c& {* ?. ~6 Q8 B9 Y' {

' _; ]9 U/ N) i* \5 {% ~# O◎标  签 香港 | 喜剧 | 徐克 | 美食 | 1995 | 搞笑 | 经典 | 爱情5 C0 ]& B% M/ S4 G/ W- K  x

8 G/ p' s0 M3 y, u& g◎简  介3 M9 x: {, H# ]1 {; R3 N( ?
& O/ l2 R+ L5 a+ y: o
  
9 m" \& s" ], x% I5 q( S  赵港生(张国荣饰)因厌烦黑社会生活,欲金盆洗手后去加拿大追寻偶像山口百惠,而他选择的移民途径竟是——参加加拿大酒店的厨师考试,丝毫不懂厨艺的他最终因作弊暴露而惨败。
) U8 I- d1 n. `' l( c: V  
' i0 n" j7 C$ k. @4 C3 M  某日,赵港生在酒楼遇见了厨艺大师龙昆宝(赵文卓饰),龙昆宝指点他去找自己的旧识满汉楼的欧老板(罗家英饰)学习,不想欧老板竟对他百般刁难,最终将其扫地出门。其间,港生和欧老板的女儿嘉惠(袁咏仪饰)倒是在不经意间擦出了花火。
3 O1 Y# ?. D9 ~2 H+ x1 W: Z  v  
: _& A: m5 a% X# \3 X0 {  欧老板师承中国著名大宴满汉全席之赵派,某日,牛派的继承人黄荣找上门来挑战,后来又使诡计挖走了他手下的所有师傅。这时,唯有港生挺身而出,和嘉惠一起寻找会做满汉全席的高人,那就是五年前莫名隐退厨艺界的廖杰(钟镇涛饰)。
0 P) f! K" b) B. t
  1. Video8 b# p( r& e4 W# H* b/ [/ J
  2. ID : 1
    1 O  @# B: i+ z: f; I5 b+ k
  3. Format : AVC
    7 l7 r" S) x! x2 \1 B% @/ h3 r+ e
  4. Format/Info : Advanced Video Codec% [( ?0 W1 c2 |# G: f$ Z6 v- W
  5. Format profile : High@L4.1
      H& l, `  D% I' w9 i* F
  6. Format settings : CABAC / 4 Ref Frames% ^! \/ n  E; J, C, M7 W  E4 [' N
  7. Format settings, CABAC : Yes* s% T1 t+ ?" ]
  8. Format settings, Reference frames : 4 frames
    ) Y8 P* [$ r' _: \  r5 K
  9. Codec ID : V_MPEG4/ISO/AVC" u' t; k* M( i5 \
  10. Duration : 1 h 46 min
    + n$ M0 W  C  ^' e
  11. Bit rate : 10.1 Mb/s) y/ Z4 U9 T5 r2 T& |0 ]! ?
  12. Width : 1 920 pixels
    . K( z/ {# b4 a. K8 Z* z
  13. Height : 804 pixels; {5 F* E: h! d+ R3 g
  14. Display aspect ratio : 2.40:19 t/ `: h6 l2 g. o) g  F
  15. Frame rate mode : Constant
    ( D" w3 |! b; ~6 j/ Z
  16. Frame rate : 24.000 FPS
    " ?5 j$ o* @! g
  17. Color space : YUV: c7 U) k9 \+ s1 y
  18. Chroma subsampling : 4:2:0
    # L7 A" L5 I& B7 @2 d, O% S, Q! `
  19. Bit depth : 8 bits
    , o$ J& U( A" R( F& n
  20. Scan type : Progressive
    " e, e8 O" |+ @5 R- I) B" E" Y! H# M
  21. Bits/(Pixel*Frame) : 0.272$ w, l- B/ [0 [$ l3 s9 ~
  22. Stream size : 7.50 GiB (87%)
    ' A' k8 w0 e$ }$ p& b
  23. Writing library : x264 core 157 r2867+150 7e91e0e t_mod_Custom_2 [8-bit@all X86_64]
    * g* z( }6 s1 q3 [4 w  }' x
  24. Encoding settings : cabac=1 / ref=4 / deblock=1:-3:-3 / analyse=0x3:0x133 / me=umh / subme=11 / psy=1 / fade_compensate=0.00 / psy_rd=0.90:0.10 / mixed_ref=1 / me_range=64 / chroma_me=1 / trellis=2 / 8x8dct=1 / cqm=0 / deadzone=21,11 / fast_pskip=0 / chroma_qp_offset=-4 / threads=25 / lookahead_threads=4 / sliced_threads=0 / nr=0 / decimate=1 / interlaced=0 / bluray_compat=0 / constrained_intra=0 / fgo=0 / bframes=8 / b_pyramid=2 / b_adapt=2 / b_bias=0 / direct=3 / weightb=1 / open_gop=0 / weightp=2 / keyint=250 / keyint_min=24 / scenecut=40 / intra_refresh=0 / rc_lookahead=60 / rc=crf / mbtree=0 / crf=18.0000 / qcomp=0.70 / qpmin=0:0:0 / qpmax=69:69:69 / qpstep=4 / vbv_maxrate=35000 / vbv_bufsize=35000 / crf_max=0.0 / nal_hrd=none / filler=0 / ip_ratio=1.40 / pb_ratio=1.30 / aq=3:1.00 / aq-sensitivity=10.00 / aq-factor=1.00:1.00:1.00 / aq2=0 / aq3=0
    6 f! U- W# p8 S; Q6 Q2 z. v
  25. Language : Chinese4 {0 p1 Y# z6 T+ h' I
  26. Default : Yes* G, f) L5 u. A+ K0 a3 q2 H
  27. Forced : No0 x7 q- ~9 f. A0 c! S( ]
  28.   ^. S& Z; n+ R4 B# W
  29. Audio% H/ t4 O7 o2 J" G: _0 v5 B2 O2 G
  30. ID : 2
    2 V9 c0 _/ f8 V/ ]: s" W! @
  31. Format : DTS: p2 S4 }! q! S& V( z+ q
  32. Format/Info : Digital Theater Systems
    6 z. V0 }- A: A! {8 Y( p( y- a" E: N
  33. Codec ID : A_DTS5 f  F  j0 ?9 g, c5 e1 ^( f
  34. Duration : 1 h 46 min9 m" M( x3 R9 Z" a9 ~- I
  35. Bit rate mode : Constant
    7 W1 ~5 \, F" ~3 v- o
  36. Bit rate : 1 509 kb/s
    0 |1 a2 Z* G3 ^* \+ s; ^
  37. Channel(s) : 6 channels
    3 w" f' S  F! `& E- L6 Z; u1 ~
  38. Channel layout : C L R Ls Rs LFE
    . d' r" g2 v9 ~# Q
  39. Sampling rate : 48.0 kHz) g) k6 d; d- z! s6 T
  40. Frame rate : 93.750 FPS (512 SPF)4 `7 @3 X% f, ]4 P
  41. Bit depth : 16 bits
    $ v6 d+ m; |+ N3 k) e  P3 |
  42. Compression mode : Lossy4 R) _# n( Z  w3 Y4 t, A
  43. Stream size : 1.12 GiB (13%)
    : G2 ^, y$ k& K1 f
  44. Language : Chinese7 e+ ?* K- |2 b  U8 I# w' ~
  45. Default : Yes2 z+ K- p$ N* E) ^5 Z
  46. Forced : No
      A% [, Z& A  X! O5 K2 F7 a; p

  47. * M' @6 b! Q' P  b; S% ~
  48. Text
    0 u1 V. X6 G- t4 D+ o" u
  49. ID : 3) }" m6 C) J0 I. ^! q. p$ n
  50. Format : UTF-8
    4 F0 }) O$ y6 w1 ?: k+ q
  51. Codec ID : S_TEXT/UTF8' ~% b% ]9 a* A# h" O" _- H" A
  52. Codec ID/Info : UTF-8 Plain Text
    8 z9 U+ `9 |8 G* F8 b9 u  ]  M
  53. Duration : 1 h 14 min
    & N) a! S5 ?# |  M7 @
  54. Bit rate : 57 b/s' z5 M" q& m- q
  55. Count of elements : 11911 G8 W) s5 N5 d2 `! ^9 i( }! G0 Y
  56. Stream size : 31.1 KiB (0%)
    " H) c; \7 i( z1 [! w/ G( o
  57. Language : English
    / b* \/ G" C- d, {! J
  58. Default : Yes
    8 F3 g' S9 r1 e5 }. n
  59. Forced : No7 X  x  g9 r( R# ?4 b
  60. ! B$ X9 B, }, J2 R
  61. Menu
    4 u  n: ^+ K1 i. N& U9 u* l5 y' O
  62. 00:00:00.000 : en:绗?01 绔?- @, p/ M6 w# Q. Y% \
  63. 00:08:07.333 : en:绗?02 绔?* ]+ z0 J/ g+ I. k' M& B1 j
  64. 00:19:23.208 : en:绗?03 绔?$ V1 }) [+ X& w! j& Z
  65. 00:27:26.583 : en:绗?04 绔?
    3 f7 G0 Y* y, K+ o
  66. 00:36:44.250 : en:绗?05 绔?
    " m4 E& m0 ]+ d3 }: m% n
  67. 00:47:37.000 : en:绗?06 绔?
    0 N0 G* i$ z( j+ Z
  68. 00:54:17.000 : en:绗?07 绔?* Y# I6 n0 n! b6 v8 w" ]
  69. 01:03:17.750 : en:绗?08 绔?# M: T  Y$ @. ?- g% g* j  J" ^
  70. 01:12:47.875 : en:绗?09 绔?
    5 L2 h, x& Y" o* |% \% [
  71. 01:19:42.000 : en:绗?10 绔?
    & ]7 Z9 j( e% E$ O! B* X
  72. 01:29:40.125 : en:绗?11 绔?
    - U0 \  B& M# y; u& [0 A: d
  73. 01:41:28.792 : en:绗?12 绔?
复制代码

  X$ P' F  c/ @, h1 r5 x+ q
: a; E1 I6 p/ v9 g0 ^0 O
, o8 B" e7 V1 G/ I7 g2 |
3 O& w, a4 z! q! B. Y8 o
( Y  @  ~* e) e3 m' ~6 X' S3 ?2 X+ n
游客,如果您要查看本帖隐藏内容请回复  VIP可免回复查看隐藏内容 详情请点击
发表于 2019-12-18 16:58:21 | 显示全部楼层
游客无权限浏览该内容
发表于 2019-12-18 17:36:18 | 显示全部楼层
游客无权限浏览该内容
发表于 2019-12-18 18:24:49 | 显示全部楼层
游客无权限浏览该内容
发表于 2019-12-18 19:06:44 | 显示全部楼层
游客无权限浏览该内容
发表于 2019-12-18 19:30:45 | 显示全部楼层
游客无权限浏览该内容
发表于 2019-12-18 21:15:38 | 显示全部楼层
游客无权限浏览该内容
发表于 2019-12-18 21:19:47 | 显示全部楼层
游客无权限浏览该内容
发表于 2019-12-19 00:05:33 | 显示全部楼层
游客无权限浏览该内容
发表于 2019-12-19 01:05:44 | 显示全部楼层
游客无权限浏览该内容
您需要登录后才可以回帖 登录 | 立即注册

本版积分规则

封号公示|电子邮件联系本站hd1tj.net#[换成@]outlook.com|免责申明|HD一条街

GMT+8, 2022-5-20 18:15

Powered by Discuz! X3.4

Copyright © 2001-2021, Tencent Cloud.

快速回复 返回顶部 返回列表