HD一条街

 找回密码
 立即注册
搜索
查看: 3466|回复: 12

[720P] [2016][无台标][港剧:城寨英雄 全28集][720P-AMZN版/46G][粤语 英文软字幕][MKV][陈展鹏/胡定欣]

[复制链接]
发表于 2019-12-17 18:20:28 | 显示全部楼层 |阅读模式

马上注册,结交更多好友,享用更多功能,让你轻松玩转社区。

您需要 登录 才可以下载或查看,没有帐号?立即注册

x
) m5 x5 e8 R6 `7 e  W
                               
登录/注册后可看大图

! e) V" T; ?; T; t) o! G
+ T" E" Q$ [# T9 d& R6 Q◎译  名 A Fist Within Four Walls% D5 L. @$ {- K# S) s: L
◎片  名 城寨英雄6 w, q( z9 J# H! W0 b
◎年  代 2016
! L  H+ C( F% x. X! w. F: `6 V◎产  地 中国香港* A; N" k9 ]1 ]+ l1 O$ y) I
◎类  别 剧情 / 动作8 \$ a) Z: `: f
◎语  言 粤语) |, V6 o  @0 R
◎上映日期 2016-08-01(中国香港)7 r) Y; }* W* h
◎IMDb评分  7.5/10 from 19 users( P2 d, ], W9 X% H
◎IMDb链接  https://www.imdb.com/title/tt76167520 e! {2 \" l; E$ i1 @6 b& V9 _
◎豆瓣评分 8.1/10 from 8196 users+ L# q( I8 x: L: `6 g
◎豆瓣链接 https://movie.douban.com/subject/26381346/" a) `5 E9 a4 X- J
◎集  数 28. p- K& S7 a: _+ n8 B2 n; ]* }
◎片  长 43分钟- q$ \8 h& f4 D$ u
◎导  演 文伟鸿 Weihong Wen+ [! X* z. u( g& M2 R  u7 W
◎编  剧 叶天成 Tin-Shing Yip / 黎倩仪 Steffie Lai/ {; a% z* ~  T1 Z) z+ a
◎主  演 陈展鹏 Ruco Chan$ j5 }3 T( m8 Z
       胡定欣  Nancy Wu Ting-yan7 T3 y; e8 s- E
       袁伟豪 Wai-Ho Yung
  }( u' a# V$ R6 L       吴家乐 Carlo Ng Ka-Lok
4 U" a3 _3 g4 O. K       伍允龙 Philip Ng
! ~0 D# j8 B: h( G9 w       元秋 Qiu Yuen# E1 P2 N2 \2 Q% S
       刘佩玥 Moon Lau Pui Yuet
/ O7 j% V/ H% \: m$ }  @% e       唐诗咏 Natalie Tong  W2 ]- c6 I2 V1 t
       林子善 Lam Tse Sin9 Q1 e2 D: R5 ~- M& M. V
       王君馨 Grace Wong
8 s6 }6 y8 o  G5 |% s( q7 ?7 |       张国强 Kwok Keung Cheung  ?. s, X" t+ Q" t/ ]( \0 N# M
       林伟 Vincent Lam
! b. J7 k7 c: w       张颖康 Wing-Hong Cheung  _( q' C9 \0 N( u/ d! H
       何启南 Kai-Nam Ho
/ {9 G3 P0 o7 W1 J3 v) p6 w: ^       欧瑞伟 Jimmy Au Siu Wai7 R$ \+ A3 s; k( ?# n6 u$ T- _
       文伟鸿 Weihong Wen
$ l& d# X0 d9 J2 g$ @5 ]       林颖彤 Bella Lam) {" u, M5 a, O8 ]5 [! Z
       邵卓尧 Cheuk-Yiu Siu6 F/ D% }5 D6 v# l0 C# n
       谭凯琪 Zoie Tam
2 |/ B$ @, S% d1 N/ [/ D! G       曾健明 Kin-Ming Tsang
0 O+ B/ t$ ^% N. C
8 s5 t/ m' [5 B5 K0 G* b
/ \' Z" f( ^# Y1 j6 M" ]" D7 Z◎标  签 TVB | 港剧 | 香港 | 动作 | 功夫 | 热血 | 电视剧 | 20162 C% x+ R) c3 U. T0 X( l6 _% H. _

/ W' W$ }$ v; ~6 M6 t$ a6 K2 d◎简  介  7 `) G, T5 \' c. @, F! G/ x

9 u- p# L' B9 t, L  故事发生在五十年代末的九龙城寨,左勾拳(陈展鹏 饰)和段迎风(袁伟豪 饰)的父亲均为名震千里的八极拳宗师,哪知道一场阴谋使得段迎风失去了父亲,而左勾拳的父亲则沦为了杀人凶手含冤自尽,左勾拳亦因此和妹妹失散,离开了九龙城寨,前往澳门谋生。
6 y; ?+ A% i4 B. ]7 {! a  一晃眼十五年过去,已经长大成人的左勾拳回到了九龙城寨这片伤心地,只为了寻找妹妹的下落,哪知道此处早已经物是人非,冯春美(吴家乐 饰)、柯万长(张国强 饰)和福寿金(林伟 饰)三大黑恶势力头目三足鼎立一手遮天,令九龙城寨的居民们终日生活在恐惧之中。正直的左勾拳向三人发起了挑战,他的勇气亦感染了段迎风,两人再度联手,组成了九龙城寨街坊福利会,惩恶扬善,行侠仗义。
  1. Video
    # Y' w# e. d: [8 K5 x$ @
  2. ID : 17 I+ `7 b4 R) y  c5 }' Y! C
  3. Format : AVC5 A1 U9 D: l/ |+ a
  4. Format/Info : Advanced Video Codec2 `4 ]. O: u5 v! E% z0 i0 R9 C
  5. Format profile : High@L3.1
    0 ?$ [! S5 ]( t0 [1 O* ?
  6. Format settings : CABAC / 4 Ref Frames1 @; y$ \3 u: H5 d  w* t
  7. Format settings, CABAC : Yes
    ' M) y% i2 [, f
  8. Format settings, Reference frames : 4 frames
    6 ^4 r' d" ]- w& p9 V
  9. Codec ID : V_MPEG4/ISO/AVC
    ; j4 j, K' K$ Y. [
  10. Duration : 43 min 16 s$ m$ y" t) b$ a  z, P7 ^
  11. Bit rate mode : Constant
    7 q* B# `# ^) f3 |8 W
  12. Bit rate : 6 000 kb/s
    - R, s( Z* p& Y8 E: Z+ B
  13. Width : 1 280 pixels
    4 ^" i8 S1 {+ s4 x- W& P; T+ j8 ~
  14. Height : 720 pixels: X7 g' U! C7 W. X( ~" n
  15. Display aspect ratio : 16:9: ^4 ~4 I, I0 w/ x! T- q7 q9 ]
  16. Frame rate mode : Constant! _! I1 I& e  o9 C1 |
  17. Frame rate : 25.000 FPS
    " F& |( [, U: Y- C5 }6 O: H+ r
  18. Color space : YUV
    / v/ ]0 Q$ f4 u9 K  ]6 e, M1 H
  19. Chroma subsampling : 4:2:0; i9 X1 r" n# t0 C1 D! u
  20. Bit depth : 8 bits, ]8 T: f( r4 H" D$ C
  21. Scan type : Progressive1 u4 |5 F7 n! b. {
  22. Bits/(Pixel*Frame) : 0.260
    ' h4 r5 E+ i# E3 o
  23. Stream size : 1.73 GiB (96%)5 O9 m3 G4 B2 w- k
  24. Language : Chinese5 T- R0 i7 D: P
  25. Default : Yes7 m4 T6 X$ z0 x7 U
  26. Forced : No. R+ `* ?& u" P6 }. B/ u% ~* ^
  27. Color range : Limited9 N; H: |3 Z, q
  28. Color primaries : BT.7091 m7 O% ~$ k4 z( t) F# N) B2 _
  29. Transfer characteristics : BT.709% d+ w( b6 v( f  V% C
  30. Matrix coefficients : BT.709
    2 r+ V* @' r$ u% `5 i6 K3 b

  31. 8 l8 a* `7 g& I- f& M; Q) T
  32. Audio
    7 p# U5 P8 a8 A- C& S: L7 g
  33. ID : 2
    2 ^# m- U  k# A+ I
  34. Format : E-AC-3
      Y1 i1 S! \% b, l# y. {- c
  35. Format/Info : Enhanced AC-31 e" Z. q$ R* t  v+ B- ~- t
  36. Commercial name : Dolby Digital Plus
    5 P( V/ G* Y. `: z- Z' u2 R) w
  37. Codec ID : A_EAC3
    # W4 n5 h8 u9 `+ T& U3 q
  38. Duration : 43 min 16 s
    - v0 D9 b% M; l- j- o0 p2 A
  39. Bit rate mode : Constant
    * T/ C& n' Z/ u& y
  40. Bit rate : 224 kb/s
    4 L* ]& D- V" ?) _5 ]! f# `+ @! w
  41. Channel(s) : 2 channels+ o% o$ }- f4 k/ [4 u
  42. Channel layout : L R
    2 N1 p! p; E9 u5 J' M) V8 S  r; k( P
  43. Sampling rate : 48.0 kHz1 |; H7 G6 \  A8 Z. a/ X& l) H
  44. Frame rate : 31.250 FPS (1536 SPF)
    ! B" K3 n& U0 Z$ T  p
  45. Compression mode : Lossy6 K1 X& @( I3 q7 X) |4 x
  46. Stream size : 69.3 MiB (4%)
    9 N  ]  W  p7 R+ m/ K
  47. Title : Chinese
    ! U5 X! O/ l# y5 w
  48. Language : Chinese
    : o8 {; _' B6 p: m/ ~/ ^# K8 S
  49. Service kind : Complete Main% G  I- G& g- ~" r5 }( {8 p" e
  50. Default : Yes( N2 E: J% j/ q$ R  a2 p& Q8 y
  51. Forced : No9 W  G. ^: e9 U4 ]  v: |

  52. % q; |3 z* T6 U: R6 z
  53. Text
    0 R  {1 `, H0 L% p! N4 _" S9 U& N
  54. ID : 3: M( |, K' b' K. ~# p. o) ]$ l
  55. Format : UTF-8! }1 P0 }7 y2 P
  56. Codec ID : S_TEXT/UTF8
    , k& Q# q% y# P+ u
  57. Codec ID/Info : UTF-8 Plain Text! H9 }5 |+ e9 k4 x+ `6 w
  58. Duration : 41 min 57 s. j& B1 O$ R) `  m' a0 Q
  59. Bit rate : 75 b/s0 j: z  z; s) X
  60. Count of elements : 751) [! H: K  q' e; X
  61. Stream size : 23.1 KiB (0%)
    " _3 s, A# N1 J: X$ A
  62. Title : English (SDH)1 A- M* B: ]$ ^: D
  63. Language : English4 o2 e: s; _1 b5 r
  64. Default : Yes
    # s7 ?2 B- O/ g& H' ^
  65. Forced : No
复制代码
7 ]. }- h1 u9 J7 A, }
7 W5 }# O* |# V

+ }* |  X3 @9 O8 K; O- t6 `! E# m/ Q5 p' l; n7 f4 o" @0 S
. ]- `5 C9 F5 {9 A7 O
" c2 ]3 |+ J0 P) x
游客,如果您要查看本帖隐藏内容请回复  VIP可免回复查看隐藏内容 详情请点击
发表于 2019-12-18 00:21:30 | 显示全部楼层
游客无权限浏览该内容
发表于 2019-12-18 00:29:41 | 显示全部楼层
游客无权限浏览该内容
oguridepp 该用户已被删除
发表于 2019-12-20 11:29:15 | 显示全部楼层
提示: 作者被禁止或删除 内容自动屏蔽
发表于 2019-12-24 10:52:21 | 显示全部楼层
游客无权限浏览该内容
alan9910 该用户已被删除
发表于 2019-12-31 08:50:06 | 显示全部楼层
提示: 作者被禁止或删除 内容自动屏蔽
发表于 2020-1-1 00:08:07 | 显示全部楼层
游客无权限浏览该内容
发表于 2020-1-1 15:08:28 | 显示全部楼层
游客无权限浏览该内容
发表于 2020-1-14 12:01:36 | 显示全部楼层
游客无权限浏览该内容
您需要登录后才可以回帖 登录 | 立即注册

本版积分规则

封号公示|电子邮件联系本站hd1tj.net#[换成@]outlook.com|免责申明|HD一条街

GMT+8, 2022-5-25 20:47

Powered by Discuz! X3.4

Copyright © 2001-2021, Tencent Cloud.

快速回复 返回顶部 返回列表