HD一条街

 找回密码
 立即注册
搜索
查看: 782|回复: 10

[1080p] 上海皇帝之雄霸天下[粤语 英文字幕]Lord.of.East.China.Sea.II.1993.CHINESE.1080p.BluRay.x264.DD2.0-HDH 8.75G

[复制链接]
发表于 2019-11-16 22:56:05 | 显示全部楼层 |阅读模式

马上注册,结交更多好友,享用更多功能,让你轻松玩转社区。

您需要 登录 才可以下载或查看,没有帐号?立即注册

x

# C- X7 i0 ?$ g- m! a6 L                               
登录/注册后可看大图
/ A& f, J9 J: E) s3 S: U

% A. ]; E; Y/ J. e" k8 T◎译  名 Lord of East China Sea II
6 T$ v$ P* A2 A: A/ g! w; u◎片  名 上海皇帝之雄霸天下& \) r3 ~- u% C
◎年  代 19936 M4 v$ B7 O3 W; b: m+ U( r, a: G
◎产  地 中国香港
) _8 y# `# j* T+ ?. i◎类  别 剧情 / 悬疑 / 犯罪
4 Z. c3 K! a+ y2 v◎语  言 粤语
( @  g' T) I# n6 C* g◎上映日期 1993-05-132 x% a. h5 H' k' g: j" H
◎IMDb评分  7.1/10 from 81 users; q" L9 n; ^6 ^6 V$ X/ _$ z$ E
◎IMDb链接  https://www.imdb.com/title/tt0108105, c- `/ p# G3 J2 n8 Q
◎豆瓣评分 7.8/10 from 7183 users2 R- A- [) T5 ~7 t3 \
◎豆瓣链接 https://movie.douban.com/subject/1303170/
: Y( Q( g' X2 U! _6 \2 J$ @& Y◎片  长 104 分钟
- E' y2 F3 q( C! ]◎导  演 潘文杰 Man Kit Poon
& L: w5 C% i5 P) M◎编  剧 麦当雄 Johnny Mak / 萧若元 Stephen Siu' e( T+ Z/ z9 Q) A/ c
◎主  演 吕良伟 Ray Lui
* p+ Q5 M. y: i       郑则仕 Kent Cheng
/ s4 P: U! m, ~0 R8 B       徐锦江 Elvis Tsui, g! Q! a5 z" }7 G
       刘嘉玲 Carina Lau
. `8 |/ v0 R% _  B       叶童 Cecilia Yip4 Y! \9 D* ~4 V  y+ ^9 u
3 t( k+ T: L& F/ ~
& X. X: z0 G$ y# {9 _  z
◎标  签 黑帮 | 香港 | 传记 | 香港电影 | 吕良伟 | 麦当雄 | 历史 | 1993
# Q! |3 D: u; _/ c* d* d" ^( k$ K2 X
◎简  介  5 R3 p  T1 ~. P9 ~

8 w3 Q) Q0 b# F4 q  这部《雄霸天下》的故事紧接《岁月风云》展开。陆云生(吕良伟 饰)场面做大,他为人重情义不计开销导致入不敷出,遂计划涉足银行业,岂料上海各银行家集体抗拒。陆请动古羽(苗侨伟 饰)协助,终令银行家们低头服输……1937年,政府推行“新生活”运动,陆云生放弃鸦片生意带头戒毒,结果险些丧命,不久卢沟桥事变爆发,陆云生为支持抗战捐赠战机,却仍没有挽回上海沦陷的结局,是役更导致他众多门生身亡。陆云生为躲避日本人暂居香港,期间黄金荣(郑则仕 饰)留沪装傻;袁肃军(徐锦江 饰)投靠日军成为汉奸,陆云生只得派出阿山(汤镇业 饰)刺袁。0 M" h# g* K, D( @# L& I: W9 V8 O
  抗战终于胜利,陆云生有望成为上海市长,让他颇感欣慰,但冷酷的现实是他已失去利用价值,一代枭雄在不属于他的时代渐入穷途……
  1. Video9 {* |' F! Q& @+ e+ m1 E6 R6 M! s
  2. ID : 1
    2 U9 C; ^5 |& J
  3. Format : AVC7 l  C! z2 |( k8 {
  4. Format/Info : Advanced Video Codec
    7 [5 B! Q* f0 ^$ b5 i( @# m
  5. Format profile : High@L4.1
    ) P% X9 w0 U6 b' w* K- h( F/ v1 z
  6. Format settings : CABAC / 5 Ref Frames1 L/ k; i$ C3 B% p5 D; \9 G, h
  7. Format settings, CABAC : Yes4 i  d4 D9 [4 g; F2 `% {5 [' ^
  8. Format settings, Reference frames : 5 frames
    8 g+ w1 ^% \- C
  9. Codec ID : V_MPEG4/ISO/AVC
      |# o8 o5 j9 e9 C. u' L
  10. Duration : 1 h 43 min
    ( u! l- b; p0 Z
  11. Bit rate : 11.7 Mb/s
    3 D# ?1 J+ M3 l* N& l; K+ ?, ?
  12. Width : 1 920 pixels
    $ k3 |2 o9 q  K# W- a3 v6 N  E; J# l
  13. Height : 820 pixels2 O& Q+ K" j5 k
  14. Display aspect ratio : 2.35:1
    # r* @; b$ a6 Q4 _* B4 V
  15. Frame rate mode : Constant
    $ b8 f6 n  P( }8 ]
  16. Frame rate : 24.000 FPS& \9 A/ G! A" o- p: q+ {
  17. Color space : YUV
    ) u7 I6 [5 F$ a9 N, H& N8 X( B! F! I4 D
  18. Chroma subsampling : 4:2:0
    / d2 b7 c7 D" s! f/ A3 e
  19. Bit depth : 8 bits
    % y: O# [' [5 L% T5 V
  20. Scan type : Progressive1 d" K' W; f8 R' Q! `. u# x
  21. Bits/(Pixel*Frame) : 0.310
    ( j' @& m0 F$ j4 t# r
  22. Stream size : 8.47 GiB (97%)
    2 L1 V/ F1 l0 P. b9 Q# K
  23. Writing library : x264 core 142 r2431+42 c69a006 tMod [8-bit@4:2:0 X86_64]# F# j$ q7 D  W6 t
  24. Encoding settings : cabac=1 / ref=5 / deblock=1:-3:-3 / analyse=0x3:0x113 / me=umh / subme=10 / psy=1 / fade_compensate=0.00 / psy_rd=1.00:0.05 / mixed_ref=1 / me_range=48 / chroma_me=1 / trellis=2 / 8x8dct=1 / cqm=0 / deadzone=21,11 / fast_pskip=0 / chroma_qp_offset=-2 / threads=48 / lookahead_threads=6 / sliced_threads=0 / nr=0 / decimate=1 / interlaced=0 / bluray_compat=0 / constrained_intra=0 / fgo=0 / bframes=8 / b_pyramid=2 / b_adapt=2 / b_bias=0 / direct=3 / weightb=1 / open_gop=0 / weightp=2 / keyint=250 / keyint_min=24 / scenecut=40 / intra_refresh=0 / rc_lookahead=40 / rc=crf / mbtree=0 / crf=20.8000 / qcomp=0.60 / qpmin=0:0:0 / qpmax=69:69:69 / qpstep=4 / vbv_maxrate=40000 / vbv_bufsize=30000 / crf_max=0.0 / nal_hrd=none / filler=0 / ip_ratio=1.40 / pb_ratio=1.30 / aq=3:0.80 / aq-sensitivity=10.00 / aq-factor=1.00:1.00:1.00 / aq2=0 / aq3=01 M2 c2 G) m3 y( }
  25. Default : Yes
    ( T% \* h+ ~( D' A1 X( }6 _- E
  26. Forced : No
    ' N! ]4 p* V; O1 U/ o8 r$ q
  27. Color range : Limited
    8 x& ?( F& R( ^2 b6 y
  28. Matrix coefficients : BT.709
    - x5 t" R0 w  O" Q

  29. % H( B) |: D6 g2 c* Y6 I
  30. Audio# C: I7 \9 R% l2 s8 ^/ z
  31. ID : 2
    - T) E6 @: p9 u  K) m5 j
  32. Format : AC-3
    $ [7 Z; w2 g3 Q2 n0 S5 p
  33. Format/Info : Audio Coding 3
    7 b6 l* G1 r3 F) c8 O- h
  34. Commercial name : Dolby Digital
    * L, B! z- S! I1 q$ u. z: v" \
  35. Codec ID : A_AC3! [; U5 S4 c6 o5 P0 O, n) A
  36. Duration : 1 h 43 min8 T; i2 P1 A7 C
  37. Bit rate mode : Constant
    2 X' j% H1 `9 n: p) S
  38. Bit rate : 384 kb/s
    ) n9 {" i" Q) d6 W7 C1 z' K
  39. Channel(s) : 2 channels. P: {  j/ C! e# X
  40. Channel layout : L R) p) H0 e6 a: T3 x& ~
  41. Sampling rate : 48.0 kHz3 z7 _7 r! d  p% d) J: G/ f
  42. Frame rate : 31.250 FPS (1536 SPF), k+ ~" p# m6 m  x0 v
  43. Bit depth : 16 bits
    + t/ O1 }3 ^# |2 Q6 I0 C
  44. Compression mode : Lossy
    9 G' j/ |% ^8 ?" ?4 i$ b
  45. Stream size : 285 MiB (3%)
    $ B- E2 U( y& o9 k- `
  46. Language : Chinese, a, J, a! a6 u! ?7 I5 i5 C
  47. Service kind : Complete Main* K, [$ E$ i% }$ X3 i
  48. Default : Yes
    % o- ^+ U9 h( c( X& u: `$ h
  49. Forced : No
    5 R7 W% O0 F/ j9 ]8 d8 z  O
  50. , P4 L; S, y; z1 o( R: y9 \
  51. Text- W# c" Q9 M4 Q
  52. ID : 3
    ; c: J  U( P6 t& |6 }
  53. Format : UTF-8& p: I* Y; {; m& h% ^6 a
  54. Codec ID : S_TEXT/UTF84 s4 Z. B* k' Z% H& {  ?
  55. Codec ID/Info : UTF-8 Plain Text# d3 Z1 w8 @4 [5 b1 ?2 n
  56. Duration : 1 h 41 min
    8 H2 c1 b/ h2 |! s
  57. Bit rate : 48 b/s
    $ _! u, a) {: ]% }
  58. Count of elements : 13060 @, h1 o$ ]) z$ E; u/ f
  59. Stream size : 35.7 KiB (0%)& u; A9 ^: F  D* S
  60. Language : English& P9 i: E, _  i
  61. Default : Yes9 x9 q% w0 |* ?; u
  62. Forced : No+ J* S& w1 N0 E6 s6 \* ?
  63. 4 e2 X- Q2 @2 p
  64. Menu" N2 W( P* j" p: K5 @2 d
  65. 00:00:00.000 : en:00:00:00.0006 n$ p+ L+ E3 }; A. y% e
  66. 00:09:57.583 : en:00:09:57.583
      L+ M5 v$ ]0 f
  67. 00:18:10.583 : en:00:18:10.583
      h$ q0 V5 F9 R+ B+ d) e
  68. 00:25:51.750 : en:00:25:51.750# a% N( d; f$ l. s
  69. 00:32:40.333 : en:00:32:40.333
    $ p" I  V& x) h9 \
  70. 00:42:43.750 : en:00:42:43.750
    + V0 @7 |7 w& l1 ?
  71. 00:52:10.625 : en:00:52:10.625, m' }) k7 F* F! ^. d2 G0 q! p
  72. 01:01:59.792 : en:01:01:59.792  q/ N1 P" \; P/ N6 l4 @
  73. 01:11:32.792 : en:01:11:32.7922 ~, _1 i. J& S
  74. 01:18:29.000 : en:01:18:29.0001 j( c. J7 x' [: L
  75. 01:27:01.083 : en:01:27:01.083* J/ ~/ D# o5 x: j% O9 T" n9 ~  d
  76. 01:35:15.208 : en:01:35:15.208
复制代码
  K$ S6 C& @: ]$ s0 n8 t6 y/ f

0 i/ J/ D- M2 c9 _+ f5 [- l  @
% O. @- B9 ?9 F- n. i4 Q2 M% z' q1 q

4 y# Y+ G+ z" R' v& B# D) t2 n+ l2 g/ @/ Q/ c, p- N
游客,如果您要查看本帖隐藏内容请回复  VIP可免回复查看隐藏内容 详情请点击
发表于 2019-11-16 22:58:05 | 显示全部楼层
游客无权限浏览该内容
发表于 2019-11-17 01:03:14 | 显示全部楼层
游客无权限浏览该内容
发表于 2019-11-17 10:38:01 | 显示全部楼层
游客无权限浏览该内容
发表于 2019-11-17 16:41:14 | 显示全部楼层
游客无权限浏览该内容
发表于 2020-2-7 11:02:13 | 显示全部楼层
游客无权限浏览该内容
发表于 2020-3-7 15:39:23 | 显示全部楼层
游客无权限浏览该内容
发表于 2020-7-20 00:14:19 | 显示全部楼层
游客无权限浏览该内容
发表于 2021-12-30 21:09:26 | 显示全部楼层
游客无权限浏览该内容
您需要登录后才可以回帖 登录 | 立即注册

本版积分规则

封号公示|电子邮件联系本站hd1tj.net#[换成@]outlook.com|免责申明|HD一条街

GMT+8, 2022-5-18 10:37

Powered by Discuz! X3.4

Copyright © 2001-2021, Tencent Cloud.

快速回复 返回顶部 返回列表