HD一条街

 找回密码
 立即注册
搜索
查看: 3479|回复: 22

[1080p] 烈火战车2:极速传说[粤语 英文字幕]The.Legend.of.Speed.1999.CHINESE.1080p.BluRay.x264.DTS-FGT 9.9G

[复制链接]
发表于 2019-11-5 23:58:23 | 显示全部楼层 |阅读模式

马上注册,结交更多好友,享用更多功能,让你轻松玩转社区。

您需要 登录 才可以下载或查看,没有帐号?立即注册

x

7 B3 R7 e7 }" L% _$ W$ F6 U( P                               
登录/注册后可看大图

  n/ y& }- g/ {5 s* n0 Z3 Z8 a6 [* M( n1 j) T0 `/ t4 Q8 h
◎译  名 烈火战车2:极速传说/The Legend of Speed
5 J1 J* Q8 ?# _0 ?$ @( n◎片  名 烈火戰車2極速傳說
3 D* j4 p: L. F9 S◎年  代 1999
; p9 [) M, f8 W+ W6 A* R◎产  地 中国香港
! M1 T- j6 q  u2 _◎类  别 动作 / 惊悚
3 T  a# X+ r; n5 _5 o  |1 x◎语  言 粤语, R$ p. s/ w7 F# n4 J
◎上映日期 1999-12-18# {9 y% C5 ?$ T" F: z4 {
◎IMDb评分  6.1/10 from 461 users
7 O2 j0 D4 O" m$ j0 X4 k/ N! j. S◎IMDb链接  https://www.imdb.com/title/tt0234105/
! M4 }* C  @4 Z◎豆瓣评分 6.5/10 from 5,592 users
6 }$ a# Q5 |5 T) E7 {* \◎豆瓣链接 https://movie.douban.com/subject/1300317/
& a0 m& R% r8 W0 e+ G! J' C◎片  长 Japan: 109 分钟
" }/ F5 j9 v) C7 p. U( ~6 n◎导  演 刘伟强
+ k( Z% W7 E; r& X( |' [/ e◎编  剧 文隽 / 陈十三5 R( k9 L# D/ i! w1 q3 {4 `
◎主  演 郑伊健
- a( \  u/ y9 ~5 J4 r       张柏芝+ ?! }) p  N3 {2 R/ v; M# I
       林熙蕾7 y+ w* i# X4 [% I6 q1 ]- ~6 z9 \
       谭耀文
  y8 A$ [2 p7 [# a       任达华( c/ d, L: t; y3 _/ j
       林晓峰
& s+ l; p, H" g4 N5 H& h) b       陈豪$ l( B. _4 d/ M1 O+ A$ ?# H  Y
       车婉婉
* j9 B, H2 W! g" t       姜大卫  l! I& B3 e: v' X. a
       柯受良
# ~' s/ ?6 P5 ^+ U3 Q  D
& E6 R2 Z2 C$ L. _0 N# \/ x* }' E◎标  签 香港 | 香港电影 | 郑伊健 | 张柏芝 | 动作 | 刘伟强 | 林熙蕾 | 任达华; {+ s; Q2 m4 {3 k

: t2 u, k2 Q( q6 A◎简  介8 O3 r2 C7 L1 W+ i' V/ Z
1 K, q: j$ F" D
  生性高傲的Sky(郑伊健 饰)仗着母亲与继父的不俗地位到处闯祸。一直以来他都热爱赛车。在他眼里就只有自己的女友阿希(林熙蕾 饰)和两位好友趴地熊(谭耀文 饰)、谢贤(林晓峰 饰)。Sky与丧偈(陈豪 饰)结怨,丧偈的哥哥(任达华 饰)是一代车神,来挑战Sky,比赛中不堪落后的Sky失手翻车,女友当场死去。Sky强忍失去爱人的痛楚,逃到外地躲过仇人的追杀,到泰国寻找自己的亲生父亲(柯受良 饰),当年父亲车神的风采不再,令他相当失望。幸得一直暗恋他的凉子(张栢芝 饰)在旁鼓励照顾,但趴地熊的死去,彻底让他改变了。
  1. Video; \: h- Q+ J: s6 P, D7 Q& K
  2. ID : 1, ~& s" N3 Y% H0 i7 b( \9 B
  3. Format : AVC
    ; P% x6 b, K+ N
  4. Format/Info : Advanced Video Codec
    / p; c! b# O  |2 B
  5. Format profile : High@L4.1: L4 v7 R5 x- C
  6. Format settings : CABAC / 4 Ref Frames1 Y! `  X# E) K6 t& j- `
  7. Format settings, CABAC : Yes, X) {6 P1 ~2 M
  8. Format settings, Reference frames : 4 frames
    ( r7 d- Q4 t# m# N  n8 Y
  9. Codec ID : V_MPEG4/ISO/AVC
    ! _; M/ N  ]2 W& [
  10. Duration : 1 h 49 min
    % Q1 s+ X# t. G' w; r! @' w
  11. Bit rate : 11.5 Mb/s
    / m0 {9 O8 h. x0 I6 l; q  s8 l6 |
  12. Width : 1 920 pixels
    7 ^, `9 W# ^/ b% N5 O7 c7 c
  13. Height : 1 080 pixels' s- ]3 _: c: T8 Q6 l
  14. Display aspect ratio : 16:9
    - @8 O. S) I4 y/ p9 r
  15. Frame rate mode : Constant: b. S) }% t3 T1 X4 t
  16. Frame rate : 24.000 FPS2 I: y, Z! Z: a$ F) n8 a6 M3 W) x
  17. Color space : YUV3 {! L  \) B2 v
  18. Chroma subsampling : 4:2:00 U! t% h( ?- P' n0 _; w3 L4 T
  19. Bit depth : 8 bits
    ) f0 F$ ~+ m. f' O& f; y0 U
  20. Scan type : Progressive
    . s6 o0 G6 q+ ?, W' Y8 l
  21. Bits/(Pixel*Frame) : 0.231
    2 U/ _7 A' c3 V& x3 q# g
  22. Stream size : 8.77 GiB (88%)- z( X0 K( d/ {5 c
  23. Title : The.Legend.of.Speed.1999.CHINESE.1080p.BluRay.x264.DTS-FGT
    8 w4 y9 C) i; E/ L- y
  24. Writing library : x264 core 148 r2795M aaa9aa82 u  M3 h% S* s. h/ J/ `- g
  25. Encoding settings : cabac=1 / ref=4 / deblock=1:-2:-2 / analyse=0x3:0x113 / me=umh / subme=9 / psy=1 / psy_rd=1.00:0.15 / mixed_ref=1 / me_range=16 / chroma_me=1 / trellis=2 / 8x8dct=1 / cqm=0 / deadzone=21,11 / fast_pskip=1 / chroma_qp_offset=-3 / threads=24 / lookahead_threads=3 / sliced_threads=0 / nr=0 / decimate=1 / interlaced=0 / bluray_compat=0 / constrained_intra=0 / bframes=3 / b_pyramid=2 / b_adapt=1 / b_bias=0 / direct=3 / weightb=1 / open_gop=0 / weightp=2 / keyint=250 / keyint_min=25 / scenecut=40 / intra_refresh=0 / rc_lookahead=50 / rc=2pass / mbtree=1 / bitrate=11500 / ratetol=1.0 / qcomp=0.60 / qpmin=0 / qpmax=69 / qpstep=4 / cplxblur=20.0 / qblur=0.5 / vbv_maxrate=31250 / vbv_bufsize=31250 / nal_hrd=none / filler=0 / ip_ratio=1.40 / aq=1:1.008 n3 T2 X; C. W
  26. Language : Chinese
    # o% Y( t( P. [2 b, F4 Q
  27. Default : Yes
    ; M$ O0 T; l) ?
  28. Forced : No
    ' l. ]3 d% j2 d8 q! R7 m# G  c

  29. 9 s. c$ u4 e% p9 \- `% i6 t% _3 L2 T
  30. Audio
    1 ?, y" }( X- |
  31. ID : 2
    7 r/ u' }+ a' T
  32. Format : DTS
    8 V& d$ A" d: F
  33. Format/Info : Digital Theater Systems
    & R8 I8 g; b6 A0 ^- R3 w# ?% N
  34. Codec ID : A_DTS0 W* ~5 P8 D9 N
  35. Duration : 1 h 49 min
    ) k) E# R  y3 P8 O/ @# D
  36. Bit rate mode : Constant
    8 h8 D7 k( t! |* {8 m0 c- b/ n
  37. Bit rate : 1 509 kb/s
    ) W/ C: h3 p5 K) c  O) Z! K1 E
  38. Channel(s) : 6 channels2 I/ m( L* k+ _
  39. Channel layout : C L R Ls Rs LFE* g) ^; m0 I1 h2 E. E
  40. Sampling rate : 48.0 kHz1 b+ A# F1 D' `" J# o
  41. Frame rate : 93.750 FPS (512 SPF)
    + Q' Z3 v9 x4 j; r/ o9 y
  42. Bit depth : 16 bits
    ' F& X7 `, e5 j7 D! t
  43. Compression mode : Lossy
    ; o* G/ {7 _% p) i4 r4 N
  44. Stream size : 1.15 GiB (12%)
    + P- ^. ]# ~; l4 x$ ~6 @
  45. Title : The.Legend.of.Speed.1999.CHINESE.1080p.BluRay.x264.DTS-FGT
    % }$ Y" k- w, g  V. N2 J
  46. Language : Chinese* d! P6 F' d' j3 B" G
  47. Default : Yes, L* e% o4 }8 Y$ \2 l9 H6 ^, l; g
  48. Forced : No
    # r* P; h7 O0 q7 F& `
  49.   y# J4 i1 n; B& t5 Q8 R5 w
  50. Text
    . |' w2 L  L% j5 q0 h) b5 u/ X
  51. ID : 3. T* z: e! w$ l6 c; U3 _: c6 g
  52. Format : UTF-8
    3 O5 n9 a. I( w% k/ A
  53. Codec ID : S_TEXT/UTF8
    5 _+ {6 r2 e- Y
  54. Codec ID/Info : UTF-8 Plain Text- F" _6 f( y1 V0 f5 }$ _
  55. Duration : 1 h 45 min/ k+ Y3 l5 R9 f9 [9 `( z
  56. Bit rate : 48 b/s
    ! K: T$ S( t+ Y5 q* p% [. |1 {% l
  57. Count of elements : 1390
    % v8 T( u2 U9 o& M
  58. Stream size : 37.6 KiB (0%)# Z# }% o' ]$ V$ j5 m
  59. Language : English
    1 F8 h9 p& a( T3 t) E7 X/ Z( ^
  60. Default : Yes. C1 b( f/ s3 `: w. u
  61. Forced : No- s. R3 E! q5 \3 @* S

  62. " H, t( X) s6 J; m, T8 w; i4 r
  63. Menu0 k, E6 k7 E& b+ R! P
  64. 00:00:00.000 : en:Chapter 01
    & f/ P) n) Z' L9 Y9 f
  65. 00:05:03.333 : en:Chapter 021 b/ o5 u" D  P% D
  66. 00:09:39.375 : en:Chapter 03
    3 O3 T$ n3 H6 m$ X% W3 {6 O
  67. 00:13:55.083 : en:Chapter 045 h: r0 @  y0 p" w. M& W+ h
  68. 00:19:14.500 : en:Chapter 05' q' D0 V2 |3 _9 E& y
  69. 00:25:35.458 : en:Chapter 06
    # c% {) O' m! a7 ^5 G  L
  70. 00:29:55.416 : en:Chapter 07
    - }7 U; c6 A3 y4 M" v
  71. 00:36:30.416 : en:Chapter 082 B; j0 V/ R5 i4 Q. q
  72. 00:40:44.958 : en:Chapter 09
    5 B4 e; G4 @+ w7 i# ^6 \
  73. 00:46:59.416 : en:Chapter 10; D7 \: E$ @% ?9 |
  74. 00:53:16.958 : en:Chapter 119 X! P, ?3 V4 Y" G+ z0 ~4 K! E
  75. 00:58:13.375 : en:Chapter 12
    / ], y* D( @5 D% y/ A$ u" o. M4 m
  76. 01:03:26.625 : en:Chapter 138 H9 c% Y2 y# [( M' `  Q) l- y
  77. 01:09:09.166 : en:Chapter 14/ X( y* Z1 t6 Z' {8 s- Y& G0 n2 z
  78. 01:15:07.833 : en:Chapter 15
    : [5 P" y! ~" }. F! q
  79. 01:19:06.041 : en:Chapter 16: k+ K7 f8 y0 s- s& s
  80. 01:25:14.250 : en:Chapter 17
    : R: n# m2 Q6 K, h9 J: r9 S
  81. 01:31:37.375 : en:Chapter 185 I/ l7 U/ p) s* M2 i( c
  82. 01:36:55.000 : en:Chapter 19" h( S. U/ H- p( f7 C1 d( p: P
  83. 01:40:42.791 : en:Chapter 20
    % @3 k. W6 i3 S  G- `7 y) P. N
  84. 01:49:10.875 : en:Chapter 21
复制代码
1 d7 n  n  v% n4 G) r( Q

0 Q2 c- Q1 e7 @7 s' F6 S" |! f3 c9 f! r: b" ~; y3 b( }- E

7 U" Z) v8 {' ]
7 A' L" A% H& l1 @4 I9 m
) e2 M: K$ ~8 H( U
游客,如果您要查看本帖隐藏内容请回复  VIP可免回复查看隐藏内容 详情请点击
发表于 2019-11-6 05:55:28 | 显示全部楼层
游客无权限浏览该内容
发表于 2019-11-6 08:17:46 | 显示全部楼层
游客无权限浏览该内容
发表于 2019-11-7 06:26:35 | 显示全部楼层
游客无权限浏览该内容
发表于 2019-11-7 06:27:08 | 显示全部楼层
游客无权限浏览该内容
发表于 2019-11-7 16:18:59 | 显示全部楼层
游客无权限浏览该内容
发表于 2019-11-10 10:11:26 | 显示全部楼层
游客无权限浏览该内容
发表于 2019-11-15 17:06:45 | 显示全部楼层
游客无权限浏览该内容
发表于 2019-12-20 04:36:00 | 显示全部楼层
游客无权限浏览该内容
发表于 2019-12-20 08:54:40 | 显示全部楼层
游客无权限浏览该内容
您需要登录后才可以回帖 登录 | 立即注册

本版积分规则

封号公示|电子邮件联系本站hd1tj.net#[换成@]outlook.com|免责申明|HD一条街

GMT+8, 2022-5-18 10:54

Powered by Discuz! X3.4

Copyright © 2001-2021, Tencent Cloud.

快速回复 返回顶部 返回列表