HD一条街

 找回密码
 立即注册
搜索
查看: 5498|回复: 35

[1080p] 与鸭共舞[粤语 英文字幕]Cash.on.Delivery.1992.CHINESE.1080p.BluRay.x264.DTS-FGT 7.74G

[复制链接]
发表于 2019-11-2 10:40:23 | 显示全部楼层 |阅读模式

马上注册,结交更多好友,享用更多功能,让你轻松玩转社区。

您需要 登录 才可以下载或查看,没有帐号?立即注册

x
! G7 }6 {5 o$ K0 ?
                               
登录/注册后可看大图

5 }9 D' o/ c6 |. c5 u( \' C3 l$ }; m+ _: B" B( a$ }
导演: 唐基明
9 j' R3 t- W' i) O- F. ?: R编剧: 唐基明 / 阮世生! ^0 F  \3 I' J8 P; ^" q
主演: 任达华 / 吴君如 / 叶玉卿 / 张铮 / 周文健
1 p8 E/ H8 {3 c3 }/ A3 ]9 \类型: 剧情 / 喜剧
* Z: A' B7 I( e/ {( O# C制片国家/地区: 中国香港
/ V" @+ N9 `) M6 N语言: 粤语
6 H0 p8 |( D# a8 j1 {/ B4 f$ L上映日期: 1992-04-309 r6 J- a7 N4 _, M7 X
片长: 85分钟
1 w, ^* P; T8 l又名: Cash On Delivery / 天生舞男
5 w% O! D3 N* n5 Y7 Z0 n1 pIMDb链接: tt0105880
: o4 ]/ W  P& W' }& E" `
# F3 [, }+ `5 }, `& x与鸭共舞的剧情简介 · · · · · ·1 }' [: g' Q  T6 t3 L2 J8 m
  退休舞男Simon现从事古董买卖经纪,生性风流倜傥,他的表弟Mike是一个新入行的舞男,因事惹上官司,Simon为救表弟,因而与性格保守的女助理检控官Sandy相识,最后Simon于庭上斗赢了Sandy,令Sandy对他又爱又恨。富家太太留太太嫁了世家子Peter,没有女儿,令家族甚为不满,Peter遂与妻子合谋用金钱雇请舞男借种,唯留太太只看中退休舞男Simon。Sandy有阴险上司林冲,时常压迫她,并且联合杀鸭警司扫荡舞男,Sandy这时对Simon有爱慕之意,欲通知Simon,结果反被上司知悉,遭受革退,Simon知悉Sandy消沉,极盼与Sandy和好发展一段真正友情。留太太本来利用Simon借种,结果爱上Simon,苦缠Simon,Simon欲向留太太摊牌,Peter出现,纠缠间Simon错手杀了Peter,留太太大力指证simon谋杀丈夫。Sandy为救情郎充任Simon辩护律师运用智谋,引得留太太暴露弱点,成为污点证人,Simon无罪释放。
  1. Video
    ! p; D+ v& Y; B- o& ^2 H- r- Q" c
  2. ID : 12 W" G3 H: [( J$ g  n
  3. Format : AVC
    1 I: B% `. y& [
  4. Format/Info : Advanced Video Codec% \$ @! ]: F4 v6 Z  T' x6 d  ^
  5. Format profile : High@L4.18 J/ e& U8 n. p. R
  6. Format settings : CABAC / 4 Ref Frames& u& R) X, w% u4 h# v* H
  7. Format settings, CABAC : Yes
    3 Z% k9 \. H: y2 ~( x
  8. Format settings, Reference frames : 4 frames
    7 S: F1 P2 L4 y. P* b6 [) w# K
  9. Codec ID : V_MPEG4/ISO/AVC
    ) ?5 y7 w* v1 p& {
  10. Duration : 1 h 25 min
    ( A5 C% s. X& t0 ^
  11. Bit rate : 11.5 Mb/s
    ) C  y/ d- H9 U; s0 b5 v2 W
  12. Width : 1 920 pixels( y5 \7 Y+ w9 V
  13. Height : 1 080 pixels3 X0 |/ \0 o/ m# V
  14. Display aspect ratio : 16:9
    4 n/ r: [( T7 v# B; z. [
  15. Frame rate mode : Constant
    2 a3 k& ]( C5 w0 q$ @8 J
  16. Frame rate : 24.000 FPS# s3 M+ `$ v9 j' J1 a
  17. Color space : YUV  V3 t$ f3 u% p& o
  18. Chroma subsampling : 4:2:0
    . O% z; x) ]0 f4 g, O, N
  19. Bit depth : 8 bits
    0 o; b! G2 C: y5 ]
  20. Scan type : Progressive
    ' d6 j; L& m9 ?
  21. Bits/(Pixel*Frame) : 0.231
    9 s9 T% j; {; ^1 P+ w. c* m3 S
  22. Stream size : 6.84 GiB (88%)/ q% s: J* ?% P7 J+ `
  23. Title : Cash.on.Delivery.1992.CHINESE.1080p.BluRay.x264.DTS-FGT2 a3 r$ z0 C6 r- l# Y4 R. ~
  24. Writing library : x264 core 148 r2748 97eaef26 e5 x5 n4 J& ?) _
  25. Encoding settings : cabac=1 / ref=4 / deblock=1:-2:-2 / analyse=0x3:0x113 / me=umh / subme=9 / psy=1 / psy_rd=1.00:0.15 / mixed_ref=1 / me_range=16 / chroma_me=1 / trellis=2 / 8x8dct=1 / cqm=0 / deadzone=21,11 / fast_pskip=1 / chroma_qp_offset=-3 / threads=24 / lookahead_threads=3 / sliced_threads=0 / nr=0 / decimate=1 / interlaced=0 / bluray_compat=0 / constrained_intra=0 / bframes=3 / b_pyramid=2 / b_adapt=1 / b_bias=0 / direct=3 / weightb=1 / open_gop=0 / weightp=2 / keyint=250 / keyint_min=25 / scenecut=40 / intra_refresh=0 / rc_lookahead=50 / rc=2pass / mbtree=1 / bitrate=11500 / ratetol=1.0 / qcomp=0.60 / qpmin=0 / qpmax=69 / qpstep=4 / cplxblur=20.0 / qblur=0.5 / vbv_maxrate=31250 / vbv_bufsize=31250 / nal_hrd=none / filler=0 / ip_ratio=1.40 / aq=1:1.00
    2 m  t# V+ L! b! u
  26. Language : Chinese( o6 |5 {' v& Y, A- V' u; _
  27. Default : Yes! {; G9 V9 j2 U8 ?) p4 s- n; x
  28. Forced : No7 F  @% w5 f( u  |. X, P) s$ v! W" n

  29. # I+ q9 ^+ b1 C9 o* s
  30. Audio  C2 e, L5 I- G7 p& S/ G
  31. ID : 20 c+ \. H9 |2 u# D% J$ e7 k
  32. Format : DTS$ s) g8 M" u7 c- ]. m# O5 C* l
  33. Format/Info : Digital Theater Systems; L: _; V' N, d6 O% X
  34. Codec ID : A_DTS
    * m- l4 [" W3 ]/ s7 ?7 I
  35. Duration : 1 h 25 min' i5 S' p2 \# E! q
  36. Bit rate mode : Constant
    / f; l8 ?  w2 A/ [+ S* I8 k
  37. Bit rate : 1 509 kb/s+ x# j* g( s; A& U; f3 M
  38. Channel(s) : 6 channels
    : {  Y& Z- k9 E* ^
  39. Channel layout : C L R Ls Rs LFE
    . u4 Z. q; d: d% p6 Q) X0 c; X4 L
  40. Sampling rate : 48.0 kHz
      ~2 H$ h# P4 b( k/ C
  41. Frame rate : 93.750 FPS (512 SPF)
    , G7 ?% f8 N% e: b& @
  42. Bit depth : 16 bits' \# B5 {4 t7 M6 X
  43. Compression mode : Lossy  }: `& R) j4 U( y0 {# w+ p  d) T
  44. Stream size : 919 MiB (12%)+ u. h9 z( L3 s1 d  i5 \3 O5 t6 U/ F( m
  45. Title : Cash.on.Delivery.1992.CHINESE.1080p.BluRay.x264.DTS-FGT6 U, l0 \: T) p2 K- }" H
  46. Language : Chinese
      H7 {6 c5 G) I. R6 l' x  v& c
  47. Default : Yes
    0 m: C3 r2 B- r5 Q
  48. Forced : No  C# o& I# [2 |% f' T9 d6 N
  49. , ^& P  \" D* V. n9 i, |5 o
  50. Text
    . y$ G; D0 a8 S( F/ Z
  51. ID : 3
    ) i. ]( }' s# O, @% F4 T5 `6 R
  52. Format : UTF-8
    5 N0 {/ O9 C3 `: I, [7 E5 t9 ?6 g. R
  53. Codec ID : S_TEXT/UTF8+ k9 N; l6 J, @* p
  54. Codec ID/Info : UTF-8 Plain Text
    1 u9 M9 D! ]. Z* T* U4 M* L
  55. Duration : 1 h 22 min
    ; ?; q% w$ o2 f$ {$ z
  56. Bit rate : 53 b/s
    . `( R0 M1 p: V( V/ ^3 k
  57. Count of elements : 1072# G9 P* \/ l; k( P3 Y
  58. Stream size : 32.6 KiB (0%)) ^% \4 o& d* l% G
  59. Language : English1 O3 K: w; `2 V" d- R0 k$ ~" r1 ?
  60. Default : Yes
    0 \" Y1 @* j& H2 ~+ A% Y$ }
  61. Forced : No
    ; A$ Y2 P* B  o  K7 i0 m9 P, s, v
  62. ' q9 q3 J" w6 Q  _  W
  63. Menu( A; m" [  J8 Y1 u; W( A, y3 G' T
  64. 00:00:00.000 : en:Chapter 01
    5 c+ G/ g7 T- R# F/ U) G, A9 g/ P
  65. 00:05:51.250 : en:Chapter 02
    3 s  H& T4 `  }, x, q$ M0 K4 A
  66. 00:13:55.750 : en:Chapter 03
    & b: u0 P9 h% g
  67. 00:23:03.583 : en:Chapter 04/ i2 K" ]. Z% x8 |1 ]
  68. 00:27:49.750 : en:Chapter 05
    $ f! X. J) r0 N1 Y# ?3 s* o
  69. 00:35:37.166 : en:Chapter 06
    + i5 ~: u4 t  Y1 k7 C
  70. 00:42:05.666 : en:Chapter 07$ n0 P6 x+ @8 }4 H
  71. 00:49:22.583 : en:Chapter 08% h) b) @- q" f& D1 n
  72. 00:56:52.916 : en:Chapter 09# W, b1 j2 n5 y. d8 `- {
  73. 01:03:30.916 : en:Chapter 10) Y6 `. O* N- S0 ~
  74. 01:09:04.125 : en:Chapter 112 h! |- r  M8 E6 M8 m- q- H1 h
  75. 01:18:01.000 : en:Chapter 12
复制代码

, q# s# B6 U7 c5 D& ^3 a2 d# @' z1 @2 o- @$ q
7 ^, `5 f9 M3 R% h1 P- k  {

) H. ^5 |. P. g+ E/ m& o  V1 S9 I+ `' u& K

6 O5 T6 i. i2 i" Z
" h  _; j3 \: b4 E; [8 O+ P
游客,如果您要查看本帖隐藏内容请回复  VIP可免回复查看隐藏内容 详情请点击
发表于 2019-11-2 11:17:43 | 显示全部楼层
游客无权限浏览该内容
发表于 2019-11-2 11:49:59 | 显示全部楼层
游客无权限浏览该内容
发表于 2019-11-2 12:11:03 | 显示全部楼层
游客无权限浏览该内容
发表于 2019-11-2 16:22:35 | 显示全部楼层
游客无权限浏览该内容
发表于 2019-11-2 17:13:44 | 显示全部楼层
游客无权限浏览该内容
发表于 2019-11-2 20:38:19 | 显示全部楼层
游客无权限浏览该内容
发表于 2019-11-2 21:52:27 | 显示全部楼层
游客无权限浏览该内容
发表于 2019-11-2 22:37:59 | 显示全部楼层
游客无权限浏览该内容
发表于 2019-11-3 01:54:51 | 显示全部楼层
游客无权限浏览该内容
您需要登录后才可以回帖 登录 | 立即注册

本版积分规则

封号公示|电子邮件联系本站hd1tj.net#[换成@]outlook.com|免责申明|HD一条街

GMT+8, 2022-5-24 11:43

Powered by Discuz! X3.4

Copyright © 2001-2021, Tencent Cloud.

快速回复 返回顶部 返回列表