HD一条街

 找回密码
 立即注册
搜索
查看: 2323|回复: 18

[1080p] 赞先生与找钱华[粤语 英文字幕]Warriors.Two.1978.CHINESE.1080p.BluRay.x264.DTS-FGT 8.6G

[复制链接]
发表于 2019-10-19 21:41:15 | 显示全部楼层 |阅读模式

马上注册,结交更多好友,享用更多功能,让你轻松玩转社区。

您需要 登录 才可以下载或查看,没有帐号?立即注册

x

8 C, w$ G  e7 x2 |                               
登录/注册后可看大图

% h* _1 m4 q. l0 }0 q
  @% Q  E7 H( h5 N8 o3 U8 B( r6 m/ _◎译  名 Warriors Two5 {; m; i- F' j5 @0 F/ e& T
◎片  名 赞先生与找钱华
! g% Z) ~  @! C: d9 \: g. O8 T◎年  代 1978
$ l! G1 j! ^: N: d' N* q◎产  地 中国香港
, A, b2 H6 N! A9 t◎类  别 剧情 / 动作' a+ @4 ?+ \9 U6 A5 s* `
◎语  言 粤语
4 u' @: F, V8 z' l" N+ O- C◎上映日期 1978-12-28
  L- }& J2 |/ T7 q◎IMDb评分  7.3/10 from 1037 users
' U* \7 D: I- K6 I% N6 A* q6 D◎IMDb链接  http://www.imdb.com/title/tt0078517
9 a9 q; C5 W5 L8 M6 u3 ?' g2 l◎豆瓣评分 7.2/10 from 1239 users
0 i, k( J- e2 i. |◎豆瓣链接 https://movie.douban.com/subject/1305322/
/ R8 K; Z2 J& T! M! R2 x◎片  长 95 分钟
/ S/ V% h. |, X' r4 I◎导  演 洪金宝
7 p3 |" T4 `6 S) ~/ @◎编  剧 司徒安( J% {9 E3 ]1 ~( E1 C
◎主  演 梁家仁
: b5 M  g' W* g: x       卡萨伐* ~# j' y* [+ f4 g! y
       洪金宝8 L1 v  X- M. T. _# @
       石天4 Z: P, I3 s$ P7 `$ m3 N
       冯克安% q4 d8 W9 `2 y$ E; k% b8 g
       李海生
2 Y, I8 r  |$ T; a       林正英
2 B) Z0 ^0 E( |# F       元彪& A5 y; S. i0 T9 ]# v8 E' P
       曾志伟8 |2 f0 S8 q8 `' l( t
) s0 a7 i! E. ^) y! {' D. ]) n" t
+ a/ T( w# h8 f5 X0 O( V, T
◎标  签 洪金宝 | 香港 | 动作 | 香港电影 | 功夫 | 梁家仁 | 咏春 | 1978  ]/ v* Y- J3 M" y

+ M- j, O8 i) ^◎简  介  ; ~* w9 y( }0 t( X( u1 q( h
6 ]  o- C: X. I6 v9 k6 L3 {
  我国南派拳术源远流长,其中咏春拳身在佛山的传人梁赞(梁家仁 饰)精通医术,为人仗义,乡间有口皆碑。梁赞有徒肥春(洪金宝 饰),性格憨厚常受人捉弄。肥春好友找钱华(卡萨伐 饰)在莫记钱庄担任出纳,平时好打抱不平。是日,一伙江洋恶徒来到佛山,与莫记老板莫老庆接头,一干匪徒为抢夺权利,筹划杀死镇长,却正好为找钱华偷听到。找钱华向镇长报信,不料被莫老庆一伙发觉,连累老母身亡,找钱华本人身负重伤,幸有肥春搭救。莫老庆担心梁赞出手阻拦,投鼠忌器,而找钱华为报仇在肥春的帮助下拜梁赞为师,苦学咏春欲一雪深仇,正邪交锋即将展开……
  1. Video$ n" \' g/ l8 G, f8 m
  2. ID : 1# e$ y4 s2 i- F- G9 M; q; ^8 |
  3. Format : AVC3 \1 {% K- w. X  B+ ~; V! i: g
  4. Format/Info : Advanced Video Codec9 D, s/ j+ O7 R" b! ]1 v
  5. Format profile : High@L4.1
    * [4 P2 t; `) [; }
  6. Format settings : CABAC / 4 Ref Frames
    . v4 N* Z0 o# p2 R" `
  7. Format settings, CABAC : Yes
    2 p# Z% f; w  X9 t' O
  8. Format settings, Reference frames : 4 frames
      A0 r) \; w; d1 l' C
  9. Codec ID : V_MPEG4/ISO/AVC
    / [& ?0 ]7 d" ?4 c7 s' }
  10. Duration : 1 h 34 min- S& ?3 x+ a6 B
  11. Bit rate : 11.5 Mb/s* r, `! j. y' T1 }$ @, Q
  12. Width : 1 920 pixels+ E4 i# c0 M  `* _
  13. Height : 816 pixels& M+ |3 `* b) K! [$ _
  14. Display aspect ratio : 2.35:13 e9 y- \! ~% h( r+ R
  15. Frame rate mode : Constant
    3 d% {/ c0 ]& C* w9 o
  16. Frame rate : 24.000 FPS+ i6 b4 V8 H, M! V, [: F3 k2 x1 i& `( v
  17. Color space : YUV
    4 Y& ~% O% y8 p8 z; j
  18. Chroma subsampling : 4:2:0/ S5 J. {2 a$ m) i# k0 x* \, P
  19. Bit depth : 8 bits" L+ s: F  _2 M- ~2 B
  20. Scan type : Progressive
    ) L) U) m: O% {( Y( j8 M1 f. [+ Y
  21. Bits/(Pixel*Frame) : 0.306
    & W0 j7 p6 W+ c/ o" O
  22. Stream size : 7.63 GiB (88%)3 l  t: b  b/ U* R) O+ x
  23. Title : Warriors.Two.1978.CHINESE.1080p.BluRay.x264.DTS-FGT
    - L  a+ U7 ^( a6 L/ S, F% e
  24. Writing library : x264 core 148 r2748 97eaef2
    ; J+ H$ M8 n# G/ f0 s5 ]6 [
  25. Encoding settings : cabac=1 / ref=4 / deblock=1:-2:-2 / analyse=0x3:0x113 / me=umh / subme=9 / psy=1 / psy_rd=1.00:0.15 / mixed_ref=1 / me_range=16 / chroma_me=1 / trellis=2 / 8x8dct=1 / cqm=0 / deadzone=21,11 / fast_pskip=1 / chroma_qp_offset=-3 / threads=24 / lookahead_threads=3 / sliced_threads=0 / nr=0 / decimate=1 / interlaced=0 / bluray_compat=0 / constrained_intra=0 / bframes=3 / b_pyramid=2 / b_adapt=1 / b_bias=0 / direct=3 / weightb=1 / open_gop=0 / weightp=2 / keyint=250 / keyint_min=25 / scenecut=40 / intra_refresh=0 / rc_lookahead=50 / rc=2pass / mbtree=1 / bitrate=11500 / ratetol=1.0 / qcomp=0.60 / qpmin=0 / qpmax=69 / qpstep=4 / cplxblur=20.0 / qblur=0.5 / vbv_maxrate=31250 / vbv_bufsize=31250 / nal_hrd=none / filler=0 / ip_ratio=1.40 / aq=1:1.00
    # d) n2 G7 H) B9 P- y
  26. Language : English
    : h$ \7 g/ l5 C. K8 x7 H/ Z
  27. Default : Yes
    ( T9 O5 m3 y  p3 @3 x4 O$ M
  28. Forced : No
    0 |3 u  G( U* J0 o8 U( N6 [) ?
  29. / e2 P6 C7 O* _0 z
  30. Audio0 t% a' H& W, K: I4 m: @
  31. ID : 2
    , V6 j' t5 X, U. v# X9 G# U/ l. e1 G
  32. Format : DTS
    * z, M' B! {( h( K( z
  33. Format/Info : Digital Theater Systems3 e+ \. p+ O$ X2 o: T
  34. Codec ID : A_DTS1 h/ f9 I9 [2 j0 V$ t+ E
  35. Duration : 1 h 34 min% M' Q5 J6 p0 K! Y$ e
  36. Bit rate mode : Constant6 N8 o5 K7 |* {( p0 P! b
  37. Bit rate : 1 509 kb/s6 O+ c2 E  S6 H5 e% L! q- s; s
  38. Channel(s) : 6 channels
    0 y$ ^; p6 R% \" i- P
  39. Channel layout : C L R Ls Rs LFE/ T* O$ F# @9 x& s: z: w) J
  40. Sampling rate : 48.0 kHz" F; ~% {/ K7 l+ j  C0 c$ N
  41. Frame rate : 93.750 FPS (512 SPF)9 [7 b1 V- N3 @, Z
  42. Bit depth : 16 bits: [+ f6 l- j- y) A; \) R+ Q
  43. Compression mode : Lossy7 d# m9 N& B6 P0 S$ o' E6 l
  44. Stream size : 1.00 GiB (12%)' n) x1 {# Y* q
  45. Title : Warriors.Two.1978.CHINESE.1080p.BluRay.x264.DTS-FGT- O, f" C+ W% Q- c
  46. Language : Chinese
    - B, L  w# Q# v( S. x( }
  47. Default : Yes
    4 t4 P# K% l2 u+ @# o( \
  48. Forced : No
    # k2 _, Z; D$ z  u9 o) a+ Y
  49. 7 ?5 h! O0 K9 V/ l9 e- t. t7 ]4 j
  50. Text
    7 s( `( t+ Y# G6 J! j5 w
  51. ID : 3
    ; X4 |5 \" O: |
  52. Format : UTF-8
    6 E' ]2 ]1 E/ [0 E$ I& O/ h
  53. Codec ID : S_TEXT/UTF82 r; b: C/ M$ w
  54. Codec ID/Info : UTF-8 Plain Text
    % v8 x! W! x9 }* J0 j: f, C
  55. Duration : 1 h 34 min5 }# ?6 R, T! R- ?- O! ]5 c
  56. Bit rate : 29 b/s
    ( ~$ o; h2 b5 T# g  k7 E* |! y
  57. Count of elements : 600
    ' ?, w# g; I% @- K6 ]8 k
  58. Stream size : 20.2 KiB (0%)2 Z8 g9 ~  G2 T7 c
  59. Language : English
    & r1 G# _1 `: b6 Y2 d- e
  60. Default : Yes
    ; L; a) X. t7 l+ N$ w1 ^
  61. Forced : No
    ; Z9 h3 q) m) Y+ L

  62. : ]# k6 V& s( _8 V  `4 p6 z" a
  63. Menu
    & R9 H' G) F' `1 E+ f, R( E# W; C
  64. 00:00:00.000 : en:Chapter 01
    6 L% N7 [" @6 z' c, i. W
  65. 00:16:59.916 : en:Chapter 02
    9 _" U- v% i9 N$ T- I
  66. 00:29:57.166 : en:Chapter 03, j" [4 Y3 p$ Y+ ]( J5 U/ A
  67. 00:47:48.500 : en:Chapter 04
    5 C) p' J5 T8 W% m; y
  68. 01:05:18.000 : en:Chapter 05# m5 k5 r. c( d" d5 u2 K
  69. 01:19:36.791 : en:Chapter 06
复制代码
9 I; n. h$ Z& c# h7 u
" a! V7 H" a3 j; ]0 T/ m
  W/ L( Q5 P8 |

0 ]8 p# x  m0 p1 V" D! l' G( I3 B! D* `3 L; w. I# W% _
4 L, _6 z" n; c2 }# _! b. s
游客,如果您要查看本帖隐藏内容请回复  VIP可免回复查看隐藏内容 详情请点击
发表于 2019-10-19 21:58:11 | 显示全部楼层
游客无权限浏览该内容
iMichaelLee 该用户已被删除
发表于 2019-10-19 22:06:45 | 显示全部楼层
提示: 作者被禁止或删除 内容自动屏蔽
发表于 2019-10-20 06:30:27 | 显示全部楼层
游客无权限浏览该内容
发表于 2019-10-20 16:19:16 | 显示全部楼层
游客无权限浏览该内容
发表于 2019-10-20 18:48:10 | 显示全部楼层
游客无权限浏览该内容
发表于 2019-10-20 21:54:48 | 显示全部楼层
游客无权限浏览该内容
发表于 2019-10-21 09:37:53 | 显示全部楼层
游客无权限浏览该内容
发表于 2019-10-21 10:52:19 | 显示全部楼层
游客无权限浏览该内容
发表于 2019-10-21 21:45:35 | 显示全部楼层
游客无权限浏览该内容
您需要登录后才可以回帖 登录 | 立即注册

本版积分规则

封号公示|电子邮件联系本站hd1tj.net#[换成@]outlook.com|免责申明|HD一条街

GMT+8, 2022-5-17 20:00

Powered by Discuz! X3.4

Copyright © 2001-2021, Tencent Cloud.

快速回复 返回顶部 返回列表