HD一条街

 找回密码
 立即注册
搜索
查看: 3226|回复: 30

[1080p] 东方秃鹰[粤语 英文字幕]Eastern.Condors.1987.REMASTERED.CHINESE.1080p.BluRay.x264.DTS-FGT 9.98G

[复制链接]
发表于 2019-10-19 21:37:41 | 显示全部楼层 |阅读模式

马上注册,结交更多好友,享用更多功能,让你轻松玩转社区。

您需要 登录 才可以下载或查看,没有帐号?立即注册

x
本帖最后由 让心灵去旅行 于 2019-10-26 10:47 编辑 & I$ [% |: V6 l' Z* \: n" G
# V6 q7 T# t% ?  q0 X7 E

7 W% b* x1 Z8 L  p3 i0 D                               
登录/注册后可看大图

* U6 j" B$ M. Z2 `; m, e
& a& o9 V7 F% w) C- D◎译  名 东方秃鹰 / Eastern Condors! J5 |7 X& ^& H. c6 E) t& L, c. a
◎片  名 東方禿鷹# _& `, i* \, q9 Y. w
◎年  代 19873 n# b2 m7 u- ]7 o# o
◎产  地 中国香港  ]3 \; ~3 y* K0 u/ {
◎类  别 剧情 / 动作 / 战争
% t' C% n; _. x- O( R; r◎语  言 粤语
. M/ j) C5 J2 r- k* h, R9 m- I& H◎上映日期 1987-07-09(中国香港)
; L5 {- X  V; Z2 j◎IMDb评分  7.2/10 from 1857 users
. N9 b1 B6 C% }3 I+ }$ v1 a# ~! A7 K◎IMDb链接  https://www.imdb.com/title/tt0090956
* O' M) G; i( w' w◎豆瓣评分 7.5/10 from 5227 users
8 i3 C6 g! [+ Q" i5 T  t9 m◎豆瓣链接 https://movie.douban.com/subject/1306396/- ^  D1 E! G& ]
◎片  长 98分钟
6 `: v2 ]+ a6 z% u◎导  演 洪金宝 Sammo Hung Kam-Bo
0 \5 n; V4 H+ g8 U; X◎编  剧 黄炳耀 Barry Wong. z% G- F/ t2 M5 \- H
◎主  演 洪金宝 Sammo Hung Kam-Bo, R0 N% n: I: L8 K
       元彪 Biao Yuen; s; z/ x2 K" U3 s1 k  \! f
       吴汉润 Haing S. Ngor- w7 M- A& m) T
       高丽虹 Joyce Godenzi
# a' U. i, A' }: B       林正英 Ching-Ying Lam
; t4 K& i3 f2 U* c0 f  B       秦祥林 Charlie Chin
& v) r& g7 f" Q0 ]       张国强 Kwok Keung Cheung
) @6 A! @, D( W7 ]8 o5 o       楼南光 Billy Lau
& E1 Q0 l; I0 Y       袁和平 Woo-ping Yuen
: I! X7 {" [: L8 |2 j       元奎 Corey Yuen, X- ?& Z6 h* R' x% @4 e
       元华 Wah Yuen
; {! j5 m; L& M       夏志珍 Chi Chun Ha
5 Y! U* L2 X7 w5 Y+ Z* n5 _0 [       仓田保昭 Yasuaki Kurata
  P  u! E9 H% K& _       招文茵 Man-Yan Chiu
) t+ C8 V7 ^& H5 ]       狄威 Dick Wei5 r' r% H0 Z. b& z/ V# P
       陈龙 Peter Chan Lung
7 J. p7 E8 {, B8 l/ Z       周比利 Billy Chow
: j8 ?( F9 F2 J       田俊 James Tien Chun
7 N3 @( M, E% {( a& z3 O! _; ~7 L       高飞 Phillip Ko
; Y$ j' U( z# g" m1 r* d/ k# M       午马 Wu Ma' W; `1 p2 }3 B8 l8 b1 u
       黄锦燊 Melvin Wong
& S( L# @3 \2 j) ]- @$ P: p       苗侨伟 Kiu Wai Miu: i2 u. R+ j+ v( g1 G! d% L
       钟发 Fat Chung' I) y' Y2 ]2 k4 K- {
       汤镇业 Ken Tong
5 d& n9 H1 g1 [6 |% D2 l       莫少聪 Siu Chung Mok0 ?" e) D. W: E
       戴志伟 Chi Wai Tai  _3 x' Z5 p4 l, J2 q. u0 N% r
       何家劲 Kenny Ho- L, _/ a6 u; m
       潘宏彬
" }2 j; b# N- U5 y" v8 P       林国斌 Ben Lam% ~  N& j$ _9 M1 `: D
       尹志强 Chi Keung Wan
# R* v( B: F- G1 H* O1 i       李健生 Chris Lee
! I4 ~; i$ N: a0 f3 ?       小侯 Hou Hsia
' l& u1 }1 \. Q+ u       钱嘉乐 Kar Lok Chin7 w9 _* C% O8 V5 b

; X: F  t5 c3 E( p& q8 R" n- t# P: J, t" g* ?0 H
◎标  签 动作 | 洪金宝 | 香港 | 香港电影 | 元彪 | 林正英 | 东方秃鹰 | 战争
$ V, O( X: A$ D; }$ a
$ n0 {/ G' j7 h0 c# h, |( k2 F◎简  介  $ h0 K' f5 y: _8 {/ e
" d7 y# d" ]7 s( r5 W3 k
  越战硝烟散尽,但是战争的影响并未消失……为了摧毁军队留在越南的大批飞弹,美军挑选了十名包括杀人犯童明辛(洪金宝 饰)、走私犯任人熙(袁和平 饰)等在内的华裔犯人,组成一支特种小队,委托林上校(林正英 饰)领导。同时,特种小队兼负联络滞留越南的美军上校之兄杨龙的使命。此次任务代号为“东方秃鹰”
; P. g' y" J+ `% @9 o' S  在特种小队空降越南之时,任务负责人意外身亡,导致任务取消。幸有三名柬埔寨游击队员(高丽虹等 饰)在当地协助,林上校决定将任务完成,特种小队与杨龙及义子“老鼠杰”(元彪 饰)一行,在越共的层层围剿中,向美军的战时秘密军火库进发……1 D8 a" ]: c2 c2 V" J7 Y/ `) ^! D. `
' j, i7 R9 `* y( j" u  p& h) @
◎获奖情况  
0 d% w0 b6 g$ a. m0 f
+ i9 x: n+ e% F' ]9 J  第7届香港电影金像奖(1988)
9 Y1 e( I5 F* k6 Y  最佳女配角(提名) 高丽虹$ U  {9 p% `2 k, _2 F
  最佳新演员(提名) 夏志珍
6 s6 @* I. B# Q! B6 ~( C  最佳动作设计(提名)
  1. Video
    - x0 C: g5 a) p& G9 g" a8 b" `
  2. ID : 1
    0 H4 F9 V0 q  C# _7 L- }/ d  O
  3. Format : AVC
      }) c7 Y6 Y4 c3 |' ]3 h
  4. Format/Info : Advanced Video Codec: p" Z; G4 E1 ~8 B& u
  5. Format profile : High@L4.14 Z7 K, ~' `* _0 u8 M6 i
  6. Format settings : CABAC / 4 Ref Frames
    + p1 J' h) X/ n- r5 `$ |- A
  7. Format settings, CABAC : Yes
    ; T' I1 {6 I) d5 v7 {
  8. Format settings, Reference frames : 4 frames0 S! G2 t/ T( v$ C/ F0 s) e4 x
  9. Codec ID : V_MPEG4/ISO/AVC0 S" @/ G2 M' s2 }& f7 N- C6 y  B
  10. Duration : 1 h 38 min* K& F- u0 X* ~: j7 q0 ?
  11. Bit rate : 11.5 Mb/s
    4 r) K/ c7 V, k" h5 @# S, a
  12. Width : 1 920 pixels2 \7 {) ^: G3 T4 i; g1 a6 V
  13. Height : 804 pixels6 Y; R: v: k) w) I4 u; P1 D7 q
  14. Display aspect ratio : 2.40:1
    / ?+ Y! |6 _- _0 O
  15. Frame rate mode : Constant
    6 \3 w% h. n' ]( [9 U
  16. Frame rate : 23.976 (24000/1001) FPS3 J9 H$ w2 @5 C" b; O. F9 Y7 K
  17. Color space : YUV; V9 P+ e: X- V0 b
  18. Chroma subsampling : 4:2:0. g: S$ W( I( ]3 o- O& {7 k8 o
  19. Bit depth : 8 bits
    8 {; n6 j: z6 Y) ~
  20. Scan type : Progressive9 S" g. ?8 ^$ Q% y7 O3 ^$ V
  21. Bits/(Pixel*Frame) : 0.311
    + R; i* e, r3 `6 x
  22. Stream size : 7.90 GiB (79%)
    + T2 U9 c3 H9 I) k1 ?8 b" u7 |$ W6 H
  23. Title : Eastern.Condors.1987.REMASTERED.CHINESE.1080p.BluRay.x264.DTS-FGT# ]8 d6 L% j' I% |( A
  24. Writing library : x264 core 148 r2795M aaa9aa8
    * _/ l# L- `& L
  25. Encoding settings : cabac=1 / ref=4 / deblock=1:-2:-2 / analyse=0x3:0x113 / me=umh / subme=9 / psy=1 / psy_rd=1.00:0.15 / mixed_ref=1 / me_range=16 / chroma_me=1 / trellis=2 / 8x8dct=1 / cqm=0 / deadzone=21,11 / fast_pskip=1 / chroma_qp_offset=-3 / threads=48 / lookahead_threads=3 / sliced_threads=0 / nr=0 / decimate=1 / interlaced=0 / bluray_compat=0 / constrained_intra=0 / bframes=3 / b_pyramid=2 / b_adapt=1 / b_bias=0 / direct=3 / weightb=1 / open_gop=0 / weightp=2 / keyint=250 / keyint_min=25 / scenecut=40 / intra_refresh=0 / rc_lookahead=50 / rc=2pass / mbtree=1 / bitrate=11500 / ratetol=1.0 / qcomp=0.60 / qpmin=0 / qpmax=69 / qpstep=4 / cplxblur=20.0 / qblur=0.5 / vbv_maxrate=31250 / vbv_bufsize=31250 / nal_hrd=none / filler=0 / ip_ratio=1.40 / aq=1:1.00
    ' H1 R6 K% |. A7 J
  26. Language : English! I+ o2 }/ E( S# O3 [
  27. Default : Yes
    # y0 w; {' u6 `0 g4 T5 ~% p/ b
  28. Forced : No
    ! [. C- h7 Q# G# r+ D

  29. # Q8 N6 x8 q! ]# u
  30. Audio #19 H% r' ~- Q9 i
  31. ID : 2, ?4 m  ^% x7 [4 Y" }* t
  32. Format : DTS0 D" n* v1 l. E- D
  33. Format/Info : Digital Theater Systems
    1 m# n8 s/ P% S1 C# B. G$ j. o: e
  34. Codec ID : A_DTS+ S6 F! p6 E6 ~
  35. Duration : 1 h 38 min
    , @: W, J( s* Q# s
  36. Bit rate mode : Constant, b- d0 ~4 S+ h
  37. Bit rate : 1 509 kb/s
    " N7 k% x5 y4 @, A7 v  b- V4 @) o
  38. Channel(s) : 1 channel
    ; ?1 M' A& H8 ~8 u  S  ]
  39. Channel layout : C4 L/ g; z+ Z# d6 M5 u
  40. Sampling rate : 48.0 kHz- W, N5 R* E0 b+ R( o1 C
  41. Frame rate : 93.750 FPS (512 SPF)+ t* a/ F3 T% P/ w+ J" ]6 B* {
  42. Bit depth : 16 bits
    , ?7 c8 B5 ?$ M, _& w
  43. Compression mode : Lossy
    % P/ ]. E5 X& c( Z9 t% A( L( B1 F
  44. Stream size : 1.04 GiB (10%)9 {. W) U3 W: ?: x6 z. Z& X: Z
  45. Title : Eastern.Condors.1987.REMASTERED.CHINESE.1080p.BluRay.x264.DTS-FGT  E* Q, X5 G1 Q( G- o
  46. Language : Chinese% b/ p* A( M" a( _0 `5 I8 [2 r
  47. Default : Yes
    # y- y" A, b- Y  l) N
  48. Forced : No
    % ?9 I  K( [. z" {' j, C

  49. : S& I$ d& D3 \6 P
  50. Audio #2
    / j0 ~' y% K* Z- @
  51. ID : 3
    . X% J+ f# a0 `! Y! s% ]
  52. Format : DTS% X. R1 {( o6 L/ ~. s3 Z; j
  53. Format/Info : Digital Theater Systems
    8 P$ G, j" h9 F, J* ~" j$ Z- l* |
  54. Codec ID : A_DTS
    ( H) \5 P' o4 l! b0 V$ t
  55. Duration : 1 h 38 min
    . m2 a+ W( O0 r- Z8 M
  56. Bit rate mode : Constant
    4 f, T  P6 M  ^8 b3 V( H7 {
  57. Bit rate : 1 509 kb/s- v0 o5 B. k: q* M1 r! D
  58. Channel(s) : 2 channels
    / W- E% Y/ q5 J/ J0 [
  59. Channel layout : L R6 h8 K5 l" V2 m4 X# b2 g( O9 [
  60. Sampling rate : 48.0 kHz' K8 t; v9 h$ I; P+ z) w1 u
  61. Frame rate : 93.750 FPS (512 SPF)
    ( ~  z- U$ k) f
  62. Bit depth : 16 bits/ D' d, ?+ y* j" V
  63. Compression mode : Lossy
    + o( ^& F6 \4 p; ~4 w! k
  64. Stream size : 1.04 GiB (10%)4 i+ [1 Y" j; `/ \" n# f
  65. Title : Eastern.Condors.1987.REMASTERED.CHINESE.1080p.BluRay.x264.DTS-FGT( H0 y+ w* z' Q4 I
  66. Language : English/ q. R  S8 e; @' r+ d/ x6 K
  67. Default : No
    4 I, Z  Q: U" T5 |3 f
  68. Forced : No
    : O6 q, F) h$ W( |, q- v) a  \
  69. 3 S- O  I! V8 l- T$ f6 K/ q0 ^
  70. Text& K- o( n2 _* v, G
  71. ID : 4
    , R& Y9 i4 `% {, m) |% U
  72. Format : UTF-83 l% g* ?$ H8 A/ p* ]! ^- g& V
  73. Codec ID : S_TEXT/UTF8
    9 @1 q' V  L, `6 o) x) \
  74. Codec ID/Info : UTF-8 Plain Text! D9 {9 j+ A" ?
  75. Duration : 1 h 36 min: D8 k: n. v( v$ U# O8 q- J3 ]
  76. Bit rate : 44 b/s" c- d% m: v$ U. i( [
  77. Count of elements : 822+ L# u+ j9 `0 k$ x% G
  78. Stream size : 31.4 KiB (0%)' {/ b, q( S$ G, i
  79. Language : English
    " W3 Y1 `: l7 z1 n
  80. Default : Yes
    , R8 D9 N/ u; p2 s' w2 Z
  81. Forced : No* Z- U' f- n5 |6 i9 [' x) \9 b3 j

  82. 1 r3 C) U7 l* e+ d8 [# w/ c
  83. Menu
    4 m3 Y( p: U) P1 g' r
  84. 00:00:00.000 : en:Chapter 011 ?+ j1 a1 K% R% `% z; ~- F5 R
  85. 00:08:06.110 : en:Chapter 027 V% g4 L# O" q! l/ v. t
  86. 00:17:59.203 : en:Chapter 032 R, m" b! O7 p% x
  87. 00:23:25.987 : en:Chapter 04
      J  `5 E/ c5 J% h& c$ t  U3 y  a
  88. 00:32:07.717 : en:Chapter 056 W/ v3 w* t! O9 z1 q* y+ }; B
  89. 00:40:59.039 : en:Chapter 066 N  U. R% Z. W0 @* [7 G1 {) k
  90. 00:49:46.525 : en:Chapter 07( `/ v+ d8 B% X/ k9 @- l2 }% l
  91. 00:58:37.347 : en:Chapter 08# ^# u9 z& U4 w& T6 n8 S; @" E# s0 H
  92. 01:06:27.650 : en:Chapter 090 s0 \  i. o) f6 b$ i
  93. 01:17:33.273 : en:Chapter 10
    7 R' ~9 K6 `* U' L/ g5 e
  94. 01:24:18.219 : en:Chapter 11# C; ~$ C  Q  \4 v, [: e
  95. 01:34:12.813 : en:Chapter 12
复制代码
0 ^1 r' h8 N# p
  b1 i7 d+ \( G" f# G9 O

/ J& U) T! ^8 @0 Y6 x
! l; U; x/ }( G0 E6 @# B, f3 ~& m- m5 q# n

& ]# f$ c! F8 I+ ?( I
游客,如果您要查看本帖隐藏内容请回复  VIP可免回复查看隐藏内容 详情请点击
iMichaelLee 该用户已被删除
发表于 2019-10-19 22:03:44 | 显示全部楼层
提示: 作者被禁止或删除 内容自动屏蔽
发表于 2019-10-20 06:35:56 | 显示全部楼层
游客无权限浏览该内容
发表于 2019-10-20 08:15:51 | 显示全部楼层
游客无权限浏览该内容
发表于 2019-10-20 09:33:47 | 显示全部楼层
游客无权限浏览该内容
发表于 2019-10-20 10:33:07 | 显示全部楼层
游客无权限浏览该内容
发表于 2019-10-20 10:45:40 | 显示全部楼层
游客无权限浏览该内容
发表于 2019-10-20 16:22:50 | 显示全部楼层
游客无权限浏览该内容
发表于 2019-10-20 17:08:30 | 显示全部楼层
游客无权限浏览该内容
发表于 2019-10-20 18:52:56 | 显示全部楼层
游客无权限浏览该内容
您需要登录后才可以回帖 登录 | 立即注册

本版积分规则

封号公示|电子邮件联系本站hd1tj.net#[换成@]outlook.com|免责申明|HD一条街

GMT+8, 2022-5-20 18:45

Powered by Discuz! X3.4

Copyright © 2001-2021, Tencent Cloud.

快速回复 返回顶部 返回列表