HD一条街

 找回密码
 立即注册
搜索
查看: 1785|回复: 18

[1080p] 鬼马双星[国粤双语 中英字幕]Games.Gamblers.Play.1974.CHINESE.1080p.BluRay.REMUX.AVC.DTS-HD.MA.7.1-FGT 19G

[复制链接]
发表于 2019-6-26 21:54:59 | 显示全部楼层 |阅读模式

马上注册,结交更多好友,享用更多功能,让你轻松玩转社区。

您需要 登录 才可以下载或查看,没有帐号?立即注册

x
) U$ c$ o1 Y; e' _% W
                               
登录/注册后可看大图

9 M, `, Y: |3 `: K6 I+ w3 y4 _' B
◎译  名 鬼马双星 / Games Gamblers Play
9 C" l4 x0 t7 S3 h: f" U- i) ?◎片  名 鬼馬雙星' w' h- \& E! H" f5 \
◎年  代 1974$ U7 b" b( ^# K" @0 k' i
◎产  地 香港
+ e6 l+ F" |  U' _8 y- U: o9 ]◎类  别 喜剧5 O! @7 Y# R3 n$ w* E4 ^7 B& c: G
◎语  言 粤语! j( r6 _1 f5 u1 @2 U! I2 `: A( y2 e
◎上映日期 1974-10-17
0 B7 c/ t' Y, ?& ~3 [$ M; [◎IMDb评分  6.7/10 from 155 users. u, f" K  V: a3 q
◎IMDb链接  http://www.imdb.com/title/tt0071588" K. |( ^5 ]3 F
◎豆瓣评分 7.3/10 from 4294 users
6 L, c& K- F% t) k( ^9 N1 k◎豆瓣链接 https://movie.douban.com/subject/1301997/
' @$ `* P+ U' K2 J: c' d" u◎片  长 107 分钟
- Y1 f% x2 G. h. R: W◎导  演 许冠文 Michael Hui
" F* K9 R$ |& k0 d2 e1 C3 O( B◎编  剧 刘天赐 Tin-Chi Lau / 许冠文 Michael Hui / 邓伟雄 Weixiong Deng
" ^  j! q; K, _6 p3 [9 k% x: g◎主  演 许冠文 Michael Hui
( v" t# E$ B, r! i2 A      许冠杰 Samuel Hui
, j* a! N' \6 S9 ?      许冠英 Ricky Hui
6 d1 C6 Z5 f' }: }6 J      吕有慧 Yau-wai Lui# t, p+ n9 c; @+ ?
      乔宏 Roy Chiao
4 c: {: e3 Q' c4 g( ?6 O3 R+ C      罗兰 Lan Law
8 ~5 q+ c& k/ t# E) n      丁佩 Betty Ting Pei
9 `* J' h( X5 a( R/ a. {      许绍雄 Siu-Hung Hui- l9 a' f# f2 \4 ^) i
! c" v2 J9 ]+ ^2 a$ d8 c
; \. P5 l+ m; [0 q$ |- I
◎标  签 香港 | 喜剧 | 许氏喜剧 | 1974 | 经典 | 黑色幽默 | 搞笑 | 中国% X% S/ o/ R9 }9 |, a# A! s( c7 @

# q4 W0 u1 G( r- y8 d: y3 K0 x◎简  介  
! ~, F$ T4 g  h' O7 e2 `2 i# i9 }' L
  这是香港70年代的典型武打搞笑片。老千邓国文(许冠文 饰)经常出入于监狱,狱中无聊时,他经常会表演一些自己的千术以资同仓的犯人解闷。犯人刘俊杰(许冠杰 饰)对国文的千术十分佩服,希望出狱后能和他一起合作挣大钱。国文并没有答应,因为老千一般都独来独往。
8 L) U1 o  q+ ]& F+ u# L, D5 q两人出狱后,俊杰组织了一帮老千和国文对赌,国文通过一早买通在场的舞女佩佩将他们击败。俊杰更加佩服国文,再次提出两人合作。国文抵不住他的死缠烂打,终于应承了。两人计划向城中恶霸大哥全下手,为了筹集赌资,他们还参加了电视台的有奖游戏,国文凭借聪明的头脑顺利的赢下了奖金。和大哥全对赌的日子到了。0 G) f+ J; c' r
  1. Video
    + k; e) o8 m$ y0 {- o/ P
  2. ID : 1! _9 D2 x+ g0 F1 ]
  3. Format : AVC
    2 A  ~) l0 n( E0 ?% O
  4. Format/Info : Advanced Video Codec
    0 t2 ~6 P: u, l, G# q  P) s7 _, c
  5. Format profile : High@L4.1& k6 W; Z- H, j) ?2 K* \4 y" F7 C5 {
  6. Format settings : CABAC / 4 Ref Frames
    / `3 @+ ]8 ~. p5 `+ t
  7. Format settings, CABAC : Yes% ?0 D: I! Y6 K. x% y& I
  8. Format settings, ReFrames : 4 frames9 R$ q* W' U! i* q6 U
  9. Format settings, GOP : M=3, N=240 e* U  @+ o  C5 `( U4 l; A
  10. Codec ID : V_MPEG4/ISO/AVC7 R$ a% ]! m& s9 m1 g/ e" }
  11. Duration : 1 h 47 min/ N& k( K9 I9 U' L+ D+ y
  12. Bit rate mode : Variable
    5 W- w: R0 m; ?+ F. e
  13. Bit rate : 22.0 Mb/s: i0 C3 M9 l& |/ `2 h! ]
  14. Maximum bit rate : 28.0 Mb/s
    ( j' Y7 Z# j9 P' X" F  j
  15. Width : 1 920 pixels9 g8 y- P* l! A% n
  16. Height : 1 080 pixels* G1 f& C* N$ W0 p4 U! R
  17. Display aspect ratio : 16:9
    ! m( q' H# X" Y
  18. Frame rate mode : Constant' |/ {4 V' c( l
  19. Frame rate : 23.976 (24000/1001) FPS
    1 M' X0 l! v. M& R; g# _, H
  20. Standard : NTSC2 B! [8 i! p- D- E9 ]4 t
  21. Color space : YUV
    # X3 |& H3 C  v! n7 Y
  22. Chroma subsampling : 4:2:00 S( O+ U. o, I4 n) A5 z
  23. Bit depth : 8 bits4 O  ~* u; y$ R. V$ t
  24. Scan type : Progressive
    7 P  @; S/ f' {4 Q  M
  25. Bits/(Pixel*Frame) : 0.442' h* d3 @, |; f
  26. Stream size : 16.5 GiB (87%)4 f% ?( Y: r7 z( x2 u! O  w6 u' e
  27. Title : Games.Gamblers.Play.1974.CHINESE.1080p.BluRay.REMUX.AVC.DTS-HD.MA.7.1-FGT! J+ j. [5 q( s
  28. Language : English
    5 E8 a& A4 _" P: U7 L
  29. Default : No
    ! X) X; \, {: L. N. ?+ O
  30. Forced : No
    1 F+ N, }, g4 ?6 ^: S
  31. Color range : Limited
    2 O7 t: Z) u1 K
  32. Color primaries : BT.709$ t- S/ M' \7 _9 h2 m9 E. N
  33. Transfer characteristics : BT.709/ M0 I+ @- v7 o
  34. Matrix coefficients : BT.7095 _  h# {# B& M; `" d; q- N
  35. : \( I  B6 K3 I: p+ S  {
  36. Audio #1
    7 i) |' Z: p) K3 p8 ?7 i! Z
  37. ID : 2
    5 s: K7 m  I$ }
  38. Format : DTS XLL
    & W9 `% o9 i# \- o& K' Q4 k
  39. Format/Info : Digital Theater Systems
    " h5 I0 F8 k) P# R
  40. Commercial name : DTS-HD Master Audio
      c6 g9 Y1 \6 }# |+ ~: V! Z# i2 g
  41. Codec ID : A_DTS  m: x* S; l& i9 r* J
  42. Duration : 1 h 47 min' L+ J3 e; r; H1 F6 w/ ]
  43. Bit rate mode : Variable
    : ^" x% Z$ K% w8 ~" f( D
  44. Bit rate : 2 700 kb/s# D7 W  E) B% |
  45. Channel(s) : 8 channels9 u* |2 z6 M& \1 o
  46. Channel layout : C L R LFE Lb Rb Lss Rss0 z( C! v9 h0 I4 c. R) i
  47. Sampling rate : 48.0 kHz
    ( O2 T' r) E7 H% O1 I$ v$ n) C
  48. Frame rate : 93.750 FPS (512 SPF)
    ) |) f) f* \4 p0 I& |/ e% X% q
  49. Bit depth : 16 bits6 k. e4 b: D. n% o. H
  50. Compression mode : Lossless. `$ K2 L9 ~' P( N- F- I
  51. Stream size : 2.02 GiB (11%)
    9 f! y1 v, T' ~) s1 }( x
  52. Title : Games.Gamblers.Play.1974.CHINESE.1080p.BluRay.REMUX.AVC.DTS-HD.MA.7.1-FGT
    & S1 [. c. c4 ^( Y
  53. Language : Chinese. n  j/ X6 m/ l* i- r
  54. Default : Yes% u4 p: |5 J. A5 O2 ?
  55. Forced : No+ n* J* [! Y0 z. V# c- B
  56. " [( l  f/ Y1 V
  57. Audio #2! i4 O2 r6 `4 v1 p' Y9 x0 h
  58. ID : 3
    ' n$ R" x' |2 f+ {+ }
  59. Format : AC-32 I+ `0 E2 F$ I. }; v
  60. Format/Info : Audio Coding 3
    - k- D5 S0 d' I1 g" ?4 Z
  61. Commercial name : Dolby Digital
    - r# ~5 J5 k! s
  62. Codec ID : A_AC3/ A- ^9 e' ?. ]
  63. Duration : 1 h 47 min
    + v4 }8 `5 H" ?, [
  64. Bit rate mode : Constant4 o: B) u  ^- K. u5 U  Y
  65. Bit rate : 640 kb/s+ p. ]  I( f  v5 J9 O5 M
  66. Channel(s) : 6 channels# m+ _, O) ]! `, ?( u2 c
  67. Channel layout : L R C LFE Ls Rs8 l  C2 D6 u  D+ F; V
  68. Sampling rate : 48.0 kHz( B: C1 p- c* K; C* u4 j  S
  69. Frame rate : 31.250 FPS (1536 SPF)
    # b( C- _& }- E6 j
  70. Bit depth : 16 bits: C; P5 s; @" P1 G
  71. Compression mode : Lossy
    : _" `' p8 N, `$ @" B# q# O- s
  72. Stream size : 491 MiB (3%)9 W, d' Y9 O/ ?# E% d+ S- j7 v3 b
  73. Title : Games.Gamblers.Play.1974.CHINESE.1080p.BluRay.REMUX.AVC.DTS-HD.MA.7.1-FGT0 k5 o$ y& H/ B" M% e
  74. Language : Chinese
    % p. Q8 Z0 [2 S: p
  75. Service kind : Complete Main) N: o. C- `$ Y0 q9 S
  76. Default : No4 z; _* G$ |4 F% |+ [4 d: X
  77. Forced : No
    / g- ^. O" x; P: u6 g, W
  78. % u7 h" O- @. U+ T5 @
  79. Text #17 J  q7 M' g( I
  80. ID : 4. ?4 I  v  t& W
  81. Format : PGS
    ) @' V5 |; c/ k: X) e; N: m& c6 Y
  82. Muxing mode : zlib
    # B% K) c. g! A' K
  83. Codec ID : S_HDMV/PGS. p- y  j* l# k8 {7 Z5 ~9 N: p4 t; i
  84. Codec ID/Info : Picture based subtitle format used on BDs/HD-DVDs# X8 `! ?1 g$ f# a
  85. Duration : 1 h 45 min0 u* U  d, ^, M4 p: w# \
  86. Bit rate : 26.0 kb/s
    7 e1 P4 U* L$ Y) x
  87. Count of elements : 2438# w& J  P3 \4 A" C3 ^7 j
  88. Stream size : 19.6 MiB (0%)& m+ G* y$ ]  u0 h5 i$ M( Z
  89. Title : English-PGS8 r3 p6 |1 U; y: J, Y# J  o
  90. Language : English
    6 a5 X' f  ^8 e; f4 |2 X0 b  c
  91. Default : Yes
    8 t! `2 G7 ]# E" R# E$ a
  92. Forced : Yes5 ?5 i8 ]" X% _
  93. 9 T' }6 d8 i  ?: D
  94. Text #2
    # y; [, j# m6 D) Y4 @" j8 H
  95. ID : 5
    , ]3 g" o& k  m  s
  96. Format : PGS2 v* i$ o3 T* v. Y
  97. Muxing mode : zlib
    . I9 j6 I0 x& C1 Q: V
  98. Codec ID : S_HDMV/PGS8 w; z$ A' M; \1 j$ f/ X4 _" L+ K
  99. Codec ID/Info : Picture based subtitle format used on BDs/HD-DVDs
    " k* x1 x& |4 u! P
  100. Duration : 1 h 45 min
    + F; ^0 W# t8 K) v( }: W* M2 k
  101. Bit rate : 36.1 kb/s
    " ?% o' l* p, g8 Z
  102. Count of elements : 2438
    + W2 o& ^4 `4 q, X2 Z7 s" D) E3 C. B
  103. Stream size : 27.3 MiB (0%)) ]; S) ]8 {0 y  K1 C
  104. Title : Chinese-PGS
    ) b3 A' b+ v+ P8 {) B5 c1 k
  105. Language : Chinese- d& r' Q& p  \# i
  106. Default : No
    # G& B: s" R) Q6 }' W- o  X
  107. Forced : No
    ( c; p$ J0 n, e4 @+ `8 z
  108. 4 k9 ?6 Q9 t4 ]# E
  109. Menu
    ! J8 I! a! p3 K. i
  110. 00:00:00.000 : en:Chapter 01
    5 T+ d' s" p  [6 K5 q
  111. 00:04:18.800 : en:Chapter 02
    $ y! \4 V% ]* C0 }# @
  112. 00:10:09.942 : en:Chapter 034 s3 {3 i" [2 j! d# u
  113. 00:14:02.174 : en:Chapter 04
    : z& i3 f9 [7 p+ i9 Z
  114. 00:20:48.956 : en:Chapter 05
    7 m& m; @, o, r5 ^
  115. 00:25:02.959 : en:Chapter 06
    / D$ m, M) \5 [7 {1 b4 i! _
  116. 00:29:06.244 : en:Chapter 07
    " c: R0 L0 m! W. i1 L
  117. 00:34:28.232 : en:Chapter 08
    1 W8 B4 L" K6 ]4 @1 ?. V
  118. 00:39:34.789 : en:Chapter 09
    - p& S2 T, R/ `/ Q6 }9 `1 l$ R
  119. 00:46:58.774 : en:Chapter 108 ^& u& v! n* m
  120. 00:54:22.050 : en:Chapter 11
    * `, b( W* f# @( g) F' ]$ d9 X8 f, ~
  121. 00:57:48.006 : en:Chapter 12
    : h1 x) g5 E* {3 f+ \, n' d
  122. 01:02:35.668 : en:Chapter 13
    ! Q! i4 v2 @8 K' H' K) V$ n
  123. 01:09:04.974 : en:Chapter 146 R) N! S* z; \+ u7 u
  124. 01:11:38.210 : en:Chapter 15/ @: u7 `) _" J0 a2 ]
  125. 01:19:03.530 : en:Chapter 16! v% B- o" G. e. e. V
  126. 01:24:34.360 : en:Chapter 17
    + h2 J. p2 b" g+ r
  127. 01:31:18.139 : en:Chapter 18# W) i% {# v: B# l  C& A
  128. 01:36:22.693 : en:Chapter 19) v+ E( Z  k0 H5 [0 ]0 t- J" t
  129. 01:40:44.329 : en:Chapter 20
复制代码

" r- Q  d0 m' B& s  G
5 g+ y, {7 w  l, X! E+ Y7 u+ v% A* c2 b3 g( d
1 Y% g4 p; \8 X. V! r' g% J3 Q, t6 {

0 r, g8 Z, F, K$ u; u: }
; ]8 p, Z: l5 j1 }3 e6 _) o
游客,如果您要查看本帖隐藏内容请回复  VIP可免回复查看隐藏内容 详情请点击
发表于 2019-6-26 22:28:32 | 显示全部楼层
游客无权限浏览该内容
发表于 2019-6-27 12:42:35 | 显示全部楼层
游客无权限浏览该内容
iMichaelLee 该用户已被删除
发表于 2019-6-27 16:38:37 | 显示全部楼层
提示: 作者被禁止或删除 内容自动屏蔽
发表于 2019-6-27 23:41:41 | 显示全部楼层
游客无权限浏览该内容
发表于 2019-6-28 13:35:46 | 显示全部楼层
游客无权限浏览该内容
发表于 2019-6-28 19:36:32 | 显示全部楼层
游客无权限浏览该内容
发表于 2019-7-27 22:56:58 | 显示全部楼层
游客无权限浏览该内容
发表于 2019-7-28 12:45:25 | 显示全部楼层
游客无权限浏览该内容
发表于 2019-8-6 08:06:36 | 显示全部楼层
游客无权限浏览该内容
您需要登录后才可以回帖 登录 | 立即注册

本版积分规则

封号公示|电子邮件联系本站hd1tj.net#[换成@]outlook.com|免责申明|HD一条街

GMT+8, 2022-5-20 17:56

Powered by Discuz! X3.4

Copyright © 2001-2021, Tencent Cloud.

快速回复 返回顶部 返回列表